<?xml version="1.0" standalone="no"?>
<!DOCTYPE svg PUBLIC "-//W3C//DTD SVG 1.1//EN" "http://www.w3.org/Graphics/SVG/1.1/DTD/svg11.dtd" >
<svg xmlns="http://www.w3.org/2000/svg" xmlns:xlink="http://www.w3.org/1999/xlink" version="1.1">
<metadata>
Created by FontForge 20170731 at Mon Jan 18 07:24:03 2021
 By Aleksey,,,
Copyright 2017 The Barlow Project Authors (https://github.com/jpt/barlow)
</metadata>
<defs>
<font id="Barlow-Thin" horiz-adv-x="0" >
  <font-face 
    font-family="Barlow Thin"
    font-weight="250"
    font-stretch="normal"
    units-per-em="2048"
    panose-1="0 0 3 0 0 0 0 0 0 0"
    ascent="1638"
    descent="-410"
    x-height="1026"
    cap-height="1434"
    bbox="-1163 -432 2226 2009"
    underline-thickness="102"
    underline-position="-307"
    unicode-range="U+000D-25CA"
  />
<missing-glyph horiz-adv-x="790" 
d="M0 6q0 -6 6 -6h778q7 0 7 6v1421q0 7 -7 7h-778q-6 0 -6 -7v-1421zM377 455q-17 0 -17 16v107q0 49 25 88.5t60.5 68.5t71 59t60.5 77.5t25 107.5q0 91 -52.5 144t-141.5 53q-88 0 -142.5 -53.5t-54.5 -141.5v-55q0 -17 -16 -17h-11q-16 0 -16 17v55q0 106 66.5 171
t173.5 65q108 0 173.5 -65.5t65.5 -174.5q0 -68 -25 -121t-60.5 -86t-70.5 -61t-60 -61.5t-25 -72.5v-104q0 -16 -17 -16h-12zM387 188q-28 0 -46.5 18t-18.5 44t19.5 44.5t45.5 18.5q25 0 45.5 -18.5t20.5 -44.5t-20.5 -44t-45.5 -18z" />
    <glyph glyph-name="I_J.liga" unicode="IJ" horiz-adv-x="1699" 
d="M248 0q-17 0 -17 16v1401q0 17 17 17h28q17 0 17 -17v-1401q0 -16 -17 -16h-28zM1032 -16q-197 0 -316.5 111t-119.5 294v111q0 16 16 16h29q16 0 16 -16v-113q0 -155 103 -250.5t272 -95.5t272 95.5t103 250.5v1030q0 17 16 17h29q16 0 16 -17v-1028q0 -183 -119.5 -294
t-316.5 -111z" />
    <glyph glyph-name="f_f_i.liga" unicode="ffi" horiz-adv-x="1863" 
d="M242 1108q0 81 12.5 138t44 101t87.5 65.5t140 21.5h49q17 0 17 -17v-20q0 -17 -17 -17h-49q-69 0 -114 -18t-69 -55.5t-33 -84.5t-9 -116v-74q0 -6 6 -6h264q17 0 17 -16v-23q0 -16 -17 -16h-264q-6 0 -6 -6v-949q0 -16 -16 -16h-27q-16 0 -16 16v949q0 6 -6 6h-140
q-16 0 -16 16v23q0 16 16 16h140q6 0 6 6v76zM928 1108q0 81 12.5 138t44 101t87.5 65.5t140 21.5h50q16 0 16 -17v-20q0 -17 -16 -17h-50q-69 0 -114 -18t-69 -55.5t-33 -84.5t-9 -116v-74q0 -6 6 -6h260q17 0 17 -16v-23q0 -16 -17 -16h-260q-6 0 -6 -6v-949
q0 -16 -16 -16h-27q-16 0 -16 16v949q0 6 -6 6h-150q-16 0 -16 16v23q0 16 16 16h150q6 0 6 6v76zM1622 1397q31 0 51.5 -19t20.5 -47q0 -30 -20.5 -49.5t-51.5 -19.5t-52.5 19.5t-21.5 49.5q0 28 21.5 47t52.5 19zM1608 0q-17 0 -17 16v994q0 16 17 16h28q17 0 17 -16v-994
q0 -16 -17 -16h-28z" />
    <glyph glyph-name="f_f_l.liga" unicode="ffl" horiz-adv-x="1832" 
d="M301 1106v-74q0 -6 6 -6h271q16 0 16 -16v-23q0 -16 -16 -16h-271q-6 0 -6 -6v-949q0 -16 -16 -16h-27q-16 0 -16 16v949q0 6 -6 6h-140q-16 0 -16 16v23q0 16 16 16h140q6 0 6 6v76q0 81 12.5 138t44 101t87.5 65.5t140 21.5h49q17 0 17 -17v-20q0 -17 -17 -17h-49
q-69 0 -114 -18t-69 -55.5t-33 -84.5t-9 -116zM928 1108q0 81 12.5 138t44 101t87.5 65.5t140 21.5h50q16 0 16 -17v-20q0 -17 -16 -17h-50q-69 0 -114 -18t-69 -55.5t-33 -84.5t-9 -116v-74q0 -6 6 -6h260q17 0 17 -16v-23q0 -16 -17 -16h-260q-6 0 -6 -6v-949
q0 -16 -16 -16h-27q-16 0 -16 16v949q0 6 -6 6h-150q-16 0 -16 16v23q0 16 16 16h150q6 0 6 6v76zM1575 1417q0 17 16 17h29q16 0 16 -17v-1401q0 -16 -16 -16h-29q-16 0 -16 16v1401z" />
    <glyph glyph-name="f_i.liga" unicode="fi" horiz-adv-x="1177" 
d="M242 1104q0 169 61.5 249.5t222.5 80.5h52q16 0 16 -17v-24q0 -17 -16 -17h-50q-69 0 -114.5 -17.5t-70 -54.5t-33.5 -84t-9 -118v-70q0 -6 6 -6h260q17 0 17 -16v-25q0 -16 -17 -16h-260q-6 0 -6 -6v-947q0 -16 -16 -16h-27q-16 0 -16 16v947q0 6 -6 6h-140
q-16 0 -16 16v25q0 16 16 16h140q6 0 6 6v72zM936 1397q31 0 51.5 -19t20.5 -47q0 -29 -20.5 -49t-51.5 -20t-52.5 20t-21.5 49q0 28 21.5 47t52.5 19zM922 0q-17 0 -17 16v994q0 16 17 16h28q17 0 17 -16v-994q0 -16 -17 -16h-28z" />
    <glyph glyph-name="f_l.liga" unicode="fl" horiz-adv-x="1146" 
d="M242 1104q0 169 61.5 249.5t222.5 80.5h52q16 0 16 -17v-24q0 -17 -16 -17h-50q-69 0 -114.5 -17.5t-70 -54.5t-33.5 -84t-9 -118v-70q0 -6 6 -6h260q17 0 17 -16v-25q0 -16 -17 -16h-260q-6 0 -6 -6v-947q0 -16 -16 -16h-27q-16 0 -16 16v947q0 6 -6 6h-140
q-16 0 -16 16v25q0 16 16 16h140q6 0 6 6v72zM889 1417q0 17 16 17h29q16 0 16 -17v-1401q0 -16 -16 -16h-29q-16 0 -16 16v1401z" />
    <glyph glyph-name="g_j.liga" unicode="gj" horiz-adv-x="1540" 
d="M1313 1397q35 0 55.5 -17.5t20.5 -48.5q0 -32 -20.5 -50.5t-55.5 -18.5q-31 0 -50.5 18.5t-19.5 50.5q0 30 19.5 48t50.5 18zM827 879q2 -2 4 -2.5t3.5 0.5t1.5 4v129q0 16 16 16h29q16 0 16 -16v-1004q0 -212 -123.5 -317.5t-370.5 -98.5q-16 0 -16 17l2 26q0 17 17 17
q430 -12 430 356v144q0 4 -3 4.5t-6 -2.5q-43 -77 -119 -121.5t-178 -44.5q-135 0 -230 72.5t-126 195.5q-22 81 -22 256q0 181 22 264q30 120 124.5 194t229.5 74q102 0 179.5 -43t119.5 -120zM1282 -141v1151q0 16 16 16h29q16 0 16 -16v-1151q0 -133 -75 -209.5
t-209 -79.5q-17 0 -17 16v23q0 16 17 16q104 5 163.5 66.5t59.5 167.5zM827 283q9 59 9 229q0 166 -9 231q-16 104 -93.5 173t-196.5 69q-118 0 -198 -68t-108 -174q-18 -74 -18 -227q0 -168 18 -233q23 -105 105.5 -173.5t200.5 -68.5q120 0 197 69.5t93 172.5z" />
    <glyph glyph-name="i_j.liga" unicode="ij" horiz-adv-x="937" 
d="M244 1262q-31 0 -52.5 20t-21.5 49q0 28 21.5 47t52.5 19t51 -19t20 -47q0 -29 -20 -49t-51 -20zM711 1262q-31 0 -50.5 18.5t-19.5 50.5q0 30 19.5 48t50.5 18q35 0 55 -17.5t20 -48.5q0 -32 -20 -50.5t-55 -18.5zM229 0q-16 0 -16 16v994q0 16 16 16h29q16 0 16 -16
v-994q0 -16 -16 -16h-29zM457 -432q-17 0 -17 16v25q0 16 17 16q106 4 164.5 66t58.5 168v1151q0 16 16 16h29q16 0 16 -16v-1151q0 -134 -74 -210.5t-210 -80.5z" />
    <glyph glyph-name="hyphen_hyphen.liga" unicode="&#x2d;&#x2d;" horiz-adv-x="1435" 
d="M109 608q-17 0 -17 17v24q0 17 17 17h1218q16 0 16 -17v-24q0 -17 -16 -17h-1218z" />
    <glyph glyph-name=".notdef" horiz-adv-x="790" 
d="M0 6q0 -6 6 -6h778q7 0 7 6v1421q0 7 -7 7h-778q-6 0 -6 -7v-1421zM377 455q-17 0 -17 16v107q0 49 25 88.5t60.5 68.5t71 59t60.5 77.5t25 107.5q0 91 -52.5 144t-141.5 53q-88 0 -142.5 -53.5t-54.5 -141.5v-55q0 -17 -16 -17h-11q-16 0 -16 17v55q0 106 66.5 171
t173.5 65q108 0 173.5 -65.5t65.5 -174.5q0 -68 -25 -121t-60.5 -86t-70.5 -61t-60 -61.5t-25 -72.5v-104q0 -16 -17 -16h-12zM387 188q-28 0 -46.5 18t-18.5 44t19.5 44.5t45.5 18.5q25 0 45.5 -18.5t20.5 -44.5t-20.5 -44t-45.5 -18z" />
    <glyph glyph-name=".null" 
 />
    <glyph glyph-name="nonmarkingreturn" horiz-adv-x="682" 
 />
    <glyph glyph-name="CR" unicode="&#xd;" horiz-adv-x="409" 
 />
    <glyph glyph-name="space" unicode=" " horiz-adv-x="409" 
 />
    <glyph glyph-name="exclam" unicode="!" horiz-adv-x="632" 
d="M303 453q-16 0 -16 16l-2 948q0 17 16 17h29q16 0 16 -17l-2 -948q0 -16 -16 -16h-25zM309 10q-38 0 -64 26t-26 64q0 36 27 62t63 26q37 0 65.5 -26t28.5 -62q0 -38 -28.5 -64t-65.5 -26z" />
    <glyph glyph-name="quotedbl" unicode="&#x22;" horiz-adv-x="423" 
d="M102 1020q-16 0 -16 16l-8 365q0 16 16 16h37q16 0 16 -16l-8 -365q0 -16 -16 -16h-21zM301 1020q-16 0 -16 16l-9 365q0 16 17 16h37q16 0 16 -16l-8 -365q0 -16 -16 -16h-21z" />
    <glyph glyph-name="numbersign" unicode="#" horiz-adv-x="1316" 
d="M1137 926q0 -17 -17 -17h-159q-2 0 -4.5 -2.5t-2.5 -3.5l-61 -401q0 -6 4 -6h152q16 0 16 -17l-2 -24q0 -17 -16 -17h-158q-1 0 -3.5 -2t-2.5 -4l-64 -395q-3 -14 -18 -14l-29 2q-17 0 -14 16l61 391q0 6 -6 6h-399q-2 0 -4 -2t-2 -4l-64 -395q-3 -14 -18 -14l-29 2
q-17 0 -14 16l61 391q0 6 -4 6h-145q-17 0 -17 17l2 24q0 17 17 17h151q2 0 4 2t2 4l64 401q0 6 -4 6h-146q-16 0 -16 17l2 24q0 17 16 17h152q2 0 4 2.5t2 3.5l64 397q3 14 18 14l29 -2q17 0 14 -16l-61 -393q0 -6 4 -6h399q1 0 3.5 2.5t2.5 3.5l64 397q3 14 18 14l29 -2
q17 0 14 -16l-61 -393q0 -6 6 -6h151q17 0 17 -17zM823 496q1 0 3.5 2t2.5 4l62 401q0 6 -4 6h-400q-1 0 -3.5 -2.5t-2.5 -3.5l-63 -401q0 -6 4 -6h401z" />
    <glyph glyph-name="dollar" unicode="$" horiz-adv-x="1110" 
d="M979 338q0 -157 -104 -254t-297 -100q-7 0 -7 -7v-139q0 -16 -16 -16h-23q-16 0 -16 16v142q0 6 -6 6q-173 13 -272 107.5t-99 244.5v80q0 16 17 16h24q17 0 17 -16v-72q0 -138 99.5 -221.5t272.5 -83.5q168 0 258.5 78t90.5 215q0 121 -87.5 202t-310.5 191
q-61 30 -94 46.5t-78 42.5t-68 45.5t-49.5 47.5t-39 56.5t-21 65.5t-8.5 81q0 153 87.5 239t250.5 97q6 0 6 6v150q0 16 16 16h19q16 0 16 -16v-148q0 -6 6 -6q193 -3 298.5 -99t105.5 -257v-58q0 -16 -17 -16h-28q-17 0 -17 16v49q0 140 -94.5 224t-267.5 84
q-155 0 -237.5 -70.5t-82.5 -204.5q0 -66 17 -112t72.5 -87.5t97.5 -64t151 -73.5q5 -3 8 -4t7 -3l8 -4q104 -49 174 -92t122 -94.5t75.5 -111t23.5 -134.5z" />
    <glyph glyph-name="percent" unicode="%" horiz-adv-x="1763" 
d="M508 907q-115 0 -196 80.5t-81 194.5t80.5 193t196.5 79q114 0 194 -79.5t80 -192.5q0 -114 -80 -194.5t-194 -80.5zM477 0q-9 0 -13 6t1 14l780 1401q7 13 19 13h20q9 0 13 -7t-1 -14l-780 -1401q-6 -12 -18 -12h-21zM508 958q92 0 156.5 65.5t64.5 158.5
q0 92 -64.5 156.5t-156.5 64.5q-94 0 -158.5 -64.5t-64.5 -156.5q0 -94 64.5 -159t158.5 -65zM1260 -20q-115 0 -196 80t-81 194t80.5 193t196.5 79q114 0 194 -79.5t80 -192.5q0 -114 -80 -194t-194 -80zM1260 31q92 0 156.5 65.5t64.5 157.5t-64.5 156.5t-156.5 64.5
q-94 0 -159 -64.5t-65 -156.5q0 -94 65 -158.5t159 -64.5z" />
    <glyph glyph-name="ampersand" unicode="&#x26;" horiz-adv-x="1304" 
d="M1157 20q6 -8 2.5 -14t-12.5 -6h-35q-12 0 -20 10q-75 90 -152 183q-1 3 -4 3.5t-4 -1.5q-102 -115 -196 -163t-220 -48q-175 0 -276 82t-101 233q0 62 18.5 120t46.5 102t74 90.5t86.5 78.5t98.5 74q3 3 0 10q-129 161 -170 236t-41 151q0 131 82.5 210t218.5 79
q138 0 223.5 -75.5t85.5 -200.5q0 -53 -17.5 -103t-43 -88.5t-68.5 -81.5t-80.5 -72.5t-93.5 -70.5q-3 -1 -3.5 -4t1.5 -4q26 -31 94 -113.5t111 -134.5l168 -205q4 -8 8 0q63 71 145 186q10 14 23 4l22 -14q13 -10 5 -24q-89 -121 -156 -203q-3 -3 0 -8zM555 1391
q-109 0 -175.5 -61.5t-66.5 -168.5q0 -63 37.5 -130.5t159.5 -223.5q4 -4 8 0q72 54 109 85t84.5 80.5t68.5 98.5t21 103q0 98 -68.5 157.5t-177.5 59.5zM522 41q109 0 192 45.5t179 155.5q4 4 0 8q-46 55 -81 98.5t-48.5 60t-23.5 29t-19 21.5l-211 258q-3 5 -8 0
q-54 -39 -92 -69.5t-80.5 -73t-68.5 -81.5t-43 -89t-17 -103q0 -125 86 -193.5t235 -66.5z" />
    <glyph glyph-name="quotesingle" unicode="'" horiz-adv-x="225" 
d="M102 1034q-16 0 -16 17l-8 360q0 16 16 16h37q16 0 16 -16l-8 -360q0 -17 -16 -17h-21z" />
    <glyph glyph-name="parenleft" unicode="(" horiz-adv-x="430" 
d="M203 -229q-12 0 -19 10q-89 151 -143.5 389.5t-54.5 486.5q0 254 56 500.5t148 401.5q7 10 19 10h24q9 0 13 -5.5t0 -13.5q-84 -156 -136.5 -397.5t-52.5 -490.5q0 -247 52 -484t137 -389q4 -7 0 -12.5t-13 -5.5h-30z" />
    <glyph glyph-name="parenright" unicode=")" horiz-adv-x="430" 
d="M246 -219q-7 -10 -19 -10h-30q-9 0 -13 5.5t0 12.5q85 152 137 389t52 484q0 249 -52.5 490.5t-136.5 397.5q-4 8 0 13.5t13 5.5h24q12 0 19 -10q92 -155 148 -401.5t56 -500.5q0 -248 -54.5 -486.5t-143.5 -389.5z" />
    <glyph glyph-name="asterisk" unicode="*" horiz-adv-x="811" 
d="M395 805q-16 0 -16 16v295q0 8 -8 4l-260 -151q-16 -8 -23 6l-8 16q-6 14 6 23l258 149q8 4 0 8l-258 150q-11 9 -6 22l8 17q6 15 23 6l260 -152q8 -4 8 5v294q0 17 16 17h21q16 0 16 -17v-294q0 -9 8 -5l260 152q16 8 23 -6l8 -17q5 -13 -6 -22l-258 -150q-8 -4 0 -8
l258 -149q12 -9 6 -23l-8 -16q-6 -15 -23 -6l-260 151q-8 4 -8 -4v-295q0 -16 -16 -16h-21z" />
    <glyph glyph-name="plus" unicode="+" horiz-adv-x="1040" 
d="M934 684q16 0 16 -16v-23q0 -16 -16 -16h-379q-6 0 -6 -6v-369q0 -16 -17 -16h-22q-16 0 -16 16v369q0 6 -7 6h-378q-17 0 -17 16v23q0 16 17 16h378q7 0 7 6v389q0 17 16 17h22q17 0 17 -17v-389q0 -6 6 -6h379z" />
    <glyph glyph-name="comma" unicode="," horiz-adv-x="540" 
d="M182 -139q-7 0 -11.5 5t-2.5 13l104 420q4 14 19 14h26q18 0 15 -18l-109 -420q-3 -14 -18 -14h-23z" />
    <glyph glyph-name="hyphen" unicode="-" horiz-adv-x="790" 
d="M109 627q-17 0 -17 16v25q0 16 17 16h573q16 0 16 -16v-25q0 -16 -16 -16h-573z" />
    <glyph glyph-name="period" unicode="." horiz-adv-x="567" 
d="M279 12q-38 0 -65.5 26.5t-27.5 63.5q0 36 28 62t65 26q36 0 64 -26t28 -62q0 -37 -27.5 -63.5t-64.5 -26.5z" />
    <glyph glyph-name="slash" unicode="/" horiz-adv-x="626" 
d="M90 0q-8 0 -11.5 5.5t-0.5 12.5l411 1401q4 15 19 15h29q8 0 11.5 -6t0.5 -13l-412 -1401q-3 -14 -18 -14h-29z" />
    <glyph glyph-name="zero" unicode="0" horiz-adv-x="1150" 
d="M571 -18q-180 0 -288.5 104t-108.5 276v709q0 172 108.5 276.5t288.5 104.5q182 0 293 -104.5t111 -276.5v-709q0 -172 -111 -276t-293 -104zM571 39q155 0 248.5 87t93.5 232v717q0 145 -93.5 232.5t-248.5 87.5q-151 0 -243 -87.5t-92 -232.5v-717q0 -144 92 -231.5
t243 -87.5z" />
    <glyph glyph-name="one" unicode="1" horiz-adv-x="710" 
d="M403 1427q10 7 21 7h35q16 0 16 -17v-1401q0 -16 -16 -16h-29q-16 0 -16 16v1332q0 8 -8 4l-248 -125q-8 -4 -13.5 -0.5t-5.5 12.5v18q0 12 11 19z" />
    <glyph glyph-name="two" unicode="2" horiz-adv-x="1069" 
d="M154 0q-17 0 -17 16v27q0 11 6 20l475 625q197 267 197 420q0 129 -86.5 207t-226.5 78q-137 0 -220.5 -78t-82.5 -207v-72q0 -16 -17 -16h-28q-17 0 -17 16v76q1 152 101.5 245t263.5 93q168 0 271.5 -94.5t103.5 -245.5q0 -179 -203 -448q-52 -69 -143 -188.5
t-167.5 -219.5t-144.5 -188q-3 -3 -1 -6t5 -3h692q17 0 17 -16v-25q0 -16 -17 -16h-761z" />
    <glyph glyph-name="three" unicode="3" horiz-adv-x="1026" 
d="M823 672q41 -100 41 -248q0 -114 -24 -197q-74 -243 -346 -243q-137 0 -230.5 73.5t-124.5 196.5q-16 58 -16 147q0 17 16 17h29q16 0 16 -17q0 -59 11 -120q21 -108 100.5 -174t198.5 -66q222 0 284 199q25 80 25 184q0 138 -37 225q-70 178 -272 178q-34 0 -58 -6
q-13 -3 -20 6l-13 17q-11 11 -2 22l381 502q4 8 -4 8h-637q-16 0 -16 17v24q0 17 16 17h705q16 0 16 -17v-28q0 -12 -6 -21l-360 -485q-4 -9 4 -9q243 0 323 -202z" />
    <glyph glyph-name="four" unicode="4" horiz-adv-x="1062" 
d="M907 467q17 0 17 -16v-23q0 -16 -17 -16h-92q-6 0 -6 -6v-390q0 -16 -16 -16h-29q-16 0 -16 16v390q0 6 -7 6h-606q-16 0 -16 16v27q0 8 4 20l450 946q7 13 21 13h27q9 0 12 -5.5t0 -13.5l-445 -940q-4 -8 5 -8h548q7 0 7 6v379q0 16 16 16h29q16 0 16 -16v-379
q0 -6 6 -6h92z" />
    <glyph glyph-name="five" unicode="5" horiz-adv-x="1024" 
d="M889 610q12 -86 12 -178q0 -94 -12 -160q-28 -133 -124.5 -210.5t-236.5 -77.5q-137 0 -230.5 73.5t-123.5 194.5q-13 61 -14 78q0 16 16 16h31q16 0 16 -16q1 -5 1.5 -15t1.5 -18.5t3 -15.5q22 -108 101 -174t198 -66q121 0 202 70t101 190q9 48 9 131q0 58 -9 150
q-13 118 -95 179.5t-208 61.5q-110 0 -192 -49t-109 -135q-6 -14 -18 -14h-33q-16 0 -16 16v776q0 17 16 17h645q17 0 17 -17v-24q0 -17 -17 -17h-594q-6 0 -6 -6v-616q0 -3 2.5 -4t5.5 2q46 60 126 94.5t175 34.5q144 0 241 -70t118 -201z" />
    <glyph glyph-name="six" unicode="6" horiz-adv-x="1028" 
d="M885 616q20 -55 20 -186q0 -122 -18 -178q-79 -268 -348 -268q-141 0 -236.5 72t-126.5 196q-16 66 -16 182v656q0 166 102 263t262 97q157 0 252.5 -93.5t95.5 -248.5v-14q0 -17 -16 -17h-29q-16 0 -16 17v18q0 126 -79.5 203.5t-207.5 77.5q-132 0 -217.5 -81.5
t-85.5 -219.5v-383q0 -5 2.5 -5.5t5.5 3.5q47 93 122.5 132.5t180.5 39.5q277 0 353 -263zM829 281q15 63 15 151q0 94 -15 156q-21 103 -99.5 169t-199.5 66q-120 0 -199 -66t-98 -171q-12 -58 -12 -156q0 -89 10 -151q20 -103 99.5 -170.5t201.5 -67.5q111 0 192 60.5
t105 179.5z" />
    <glyph glyph-name="seven" unicode="7" horiz-adv-x="942" 
d="M342 0q-9 0 -13 5t-1 13l491 1352q3 6 -6 6h-655q-6 0 -6 -6v-94q0 -16 -17 -16h-24q-17 0 -17 16v141q0 17 17 17h759q17 0 17 -17v-31q0 -4 -4 -20l-488 -1354q-3 -12 -18 -12h-35z" />
    <glyph glyph-name="eight" unicode="8" horiz-adv-x="1036" 
d="M676 776q-3 -1 -4 -2.5t0 -3t4 -2.5q121 -49 176 -180q33 -82 33 -197q0 -153 -64 -256q-94 -151 -307 -151q-107 0 -186.5 43.5t-126.5 122.5q-58 103 -58 243q0 112 39 201q57 127 176 174q3 1 4 2.5t0 3t-4 2.5q-87 37 -143 111q-72 88 -72 211q0 100 50 182
q48 79 132.5 124.5t188.5 45.5q231 0 324 -172q47 -83 47 -182q0 -118 -70 -211q-57 -73 -139 -109zM258 922q40 -58 106.5 -90.5t147.5 -32.5q86 0 153.5 34.5t108.5 94.5q49 70 49 168q0 84 -39 151q-86 148 -272 148q-91 0 -160.5 -41t-109.5 -111q-37 -69 -37 -149
q0 -101 53 -172zM768 166q55 90 55 227q0 93 -26 166q-31 88 -102 136.5t-177 49.5h-6q-203 0 -274 -174q-33 -73 -33 -180q0 -131 51 -219q78 -131 258 -131q173 0 254 125z" />
    <glyph glyph-name="nine" unicode="9" horiz-adv-x="1056" 
d="M881 1182q16 -66 16 -183v-655q0 -165 -102.5 -262.5t-262.5 -97.5q-157 0 -252.5 93.5t-95.5 248.5v14q0 16 17 16h28q17 0 17 -16v-18q0 -126 79 -203.5t207 -77.5q132 0 218 81.5t86 219.5v383q0 5 -3 5.5t-6 -3.5q-47 -93 -122.5 -132.5t-180.5 -39.5
q-276 0 -352 262q-20 55 -20 187q0 122 18 178q79 268 348 268q141 0 236.5 -72t126.5 -196zM526 610q119 0 198.5 66.5t98.5 171.5q13 63 13 156q0 83 -11 151q-20 103 -99.5 170.5t-201.5 67.5q-111 0 -192 -60.5t-105 -179.5q-14 -58 -14 -152q0 -97 14 -155
q21 -103 99.5 -169.5t199.5 -66.5z" />
    <glyph glyph-name="colon" unicode=":" horiz-adv-x="663" 
d="M332 739q-38 0 -65 26t-27 64q0 36 27.5 62.5t64.5 26.5q36 0 64 -26.5t28 -62.5q0 -38 -27.5 -64t-64.5 -26zM332 39q-38 0 -65 26t-27 64q0 36 27.5 62t64.5 26q36 0 64 -26t28 -62q0 -38 -27.5 -64t-64.5 -26z" />
    <glyph glyph-name="semicolon" unicode=";" horiz-adv-x="630" 
d="M322 750q-38 0 -64.5 26.5t-26.5 63.5q0 36 27.5 62t63.5 26q37 0 65.5 -26t28.5 -62t-28.5 -63t-65.5 -27zM250 -127q-20 0 -17 18l64 398q3 14 16 14h31q17 0 14 -18l-71 -398q-3 -14 -17 -14h-20z" />
    <glyph glyph-name="less" unicode="&#x3c;" horiz-adv-x="1040" 
d="M948 127q0 -19 -18 -12l-828 395q-12 6 -12 20v35q0 15 12 21l828 395q18 7 18 -12v-31q0 -14 -12 -20l-778 -367q-8 -4 0 -8l778 -365q12 -6 12 -20v-31z" />
    <glyph glyph-name="equal" unicode="=" horiz-adv-x="1040" 
d="M109 866q-17 0 -17 17v22q0 17 17 17h825q16 0 16 -17v-22q0 -17 -16 -17h-825zM109 420q-17 0 -17 16v23q0 16 17 16h825q16 0 16 -16v-23q0 -16 -16 -16h-825z" />
    <glyph glyph-name="greater" unicode="&#x3e;" horiz-adv-x="1040" 
d="M111 115q-8 -3 -13.5 0t-5.5 12v31q0 14 12 20l779 365q8 4 0 8l-779 367q-12 6 -12 20v31q0 9 5.5 12t13.5 0l827 -395q12 -6 12 -21v-35q0 -14 -12 -20z" />
    <glyph glyph-name="question" unicode="?" horiz-adv-x="870" 
d="M383 383q-16 0 -16 16v156q0 51 19 94.5t48.5 75t66 61.5t73 62t66 68t48.5 88t19 114q0 126 -75 201.5t-198 75.5q-124 0 -200 -76t-76 -199v-82q0 -16 -17 -16h-28q-17 0 -17 16v82q0 149 93.5 240.5t244.5 91.5t242.5 -92.5t91.5 -245.5q0 -70 -18.5 -128t-48.5 -98
t-66 -74t-72 -63t-66 -57t-48.5 -64t-18.5 -77v-154q0 -16 -16 -16h-31zM403 10q-38 0 -64 25.5t-26 62.5t26.5 62.5t63.5 25.5q36 0 64.5 -26t28.5 -62t-28.5 -62t-64.5 -26z" />
    <glyph glyph-name="at" unicode="@" horiz-adv-x="1708" 
d="M936 1217q200 0 348 -91.5t215.5 -250t40.5 -351.5q-24 -178 -113.5 -280.5t-214.5 -102.5q-72 0 -125 35t-75 98q0 4 -2 4.5t-4 -2.5q-73 -133 -236 -133q-104 0 -167 53t-71 138q-4 46 13 178q16 127 35 182q29 87 102 139t168 52q133 0 192 -94q2 -3 5.5 -2t3.5 4
l6 65q0 16 18 16h21q19 0 16 -16l-57 -459q-10 -90 36 -148t128 -58q98 0 169.5 86.5t94.5 242.5q21 140 -13 261t-110 203.5t-188 129.5t-244 47q-99 0 -196.5 -25t-191.5 -80.5t-165.5 -135t-115 -198.5t-44.5 -261q-1 -129 34 -238t102.5 -190.5t174 -127.5t240.5 -46
q104 0 205.5 25t150.5 63q14 11 23 -4l10 -17q10 -13 -2 -22q-61 -46 -172 -72.5t-221 -26.5q-146 0 -261.5 51t-189 141.5t-112 211.5t-37.5 264q1 148 48.5 272.5t124.5 209.5t178 145t208.5 87.5t216.5 27.5zM774 195q80 0 137 45.5t78 115.5q14 54 21 101l16 149
q4 35 4 68q-2 69 -49.5 115.5t-126.5 46.5t-139 -45.5t-86 -114.5q-16 -36 -31 -160q-12 -122 -10 -160q2 -72 52.5 -116.5t133.5 -44.5z" />
    <glyph glyph-name="A" unicode="A" horiz-adv-x="1165" 
d="M1042 0q-14 0 -18 14l-96 293q0 4 -8 4h-672q-8 0 -8 -4l-97 -293q-3 -14 -18 -14h-29q-8 0 -12.5 5.5t-1.5 12.5l463 1401q4 15 18 15h37q14 0 18 -15l465 -1401q3 -7 -1.5 -12.5t-12.5 -5.5h-27zM260 373q-3 -6 6 -6h633q9 0 6 6l-319 973q-4 8 -8 0z" />
    <glyph glyph-name="B" unicode="B" horiz-adv-x="1292" 
d="M877 745q-8 -4 0 -8q115 -40 178 -132t63 -222q0 -174 -108 -278.5t-287 -104.5h-475q-17 0 -17 16v1401q0 17 17 17h463q178 0 285.5 -99.5t107.5 -265.5q0 -117 -60 -201t-167 -123zM299 1376q-6 0 -6 -6v-594q0 -6 6 -6h412q150 0 240.5 81.5t90.5 215.5
q0 140 -90.5 224.5t-240.5 84.5h-412zM723 59q151 0 242.5 89t91.5 237q0 149 -94 238.5t-250 89.5h-414q-6 0 -6 -6v-641q0 -7 6 -7h424z" />
    <glyph glyph-name="C" unicode="C" horiz-adv-x="1241" 
d="M631 -18q-204 0 -328.5 118t-124.5 312v614q0 191 124.5 307.5t328.5 116.5q202 0 326 -116.5t124 -307.5v-6q0 -16 -16 -16l-29 -3q-16 0 -16 15v12q0 164 -107 264.5t-282 100.5q-177 0 -284 -100.5t-107 -264.5v-622q0 -165 107 -266t284 -101q175 0 282 101.5
t107 265.5v8q0 16 16 16l29 -2q16 0 16 -8v-10q0 -192 -124 -310t-326 -118z" />
    <glyph glyph-name="D" unicode="D" horiz-adv-x="1265" 
d="M248 0q-17 0 -17 16v1401q0 17 17 17h469q186 0 293.5 -100t107.5 -273v-688q0 -173 -107.5 -273t-293.5 -100h-469zM293 63q0 -6 6 -6h422q155 0 245.5 85t90.5 233v682q0 149 -89.5 234t-246.5 85h-422q-6 0 -6 -6v-1307z" />
    <glyph glyph-name="E" unicode="E" horiz-adv-x="1265" 
d="M1122 1393q0 -17 -16 -17h-807q-6 0 -6 -6v-616q0 -6 6 -6h584q16 0 16 -17v-24q0 -17 -16 -17h-584q-6 0 -6 -6v-621q0 -6 6 -6h807q16 0 16 -16v-25q0 -16 -16 -16h-858q-17 0 -17 16v1401q0 17 17 17h858q16 0 16 -17v-24z" />
    <glyph glyph-name="F" unicode="F" horiz-adv-x="1173" 
d="M1120 1393q0 -17 -16 -17h-805q-6 0 -6 -6v-616q0 -6 6 -6h582q16 0 16 -17v-24q0 -17 -16 -17h-582q-6 0 -6 -6v-668q0 -16 -17 -16h-28q-17 0 -17 16v1401q0 17 17 17h856q16 0 16 -17v-24z" />
    <glyph glyph-name="G" unicode="G" horiz-adv-x="1239" 
d="M631 -16q-204 0 -328.5 115t-124.5 304v627q0 189 124.5 304.5t328.5 115.5q202 0 325 -115t123 -303v-35q0 -16 -16 -16h-29q-16 0 -16 16v37q0 161 -107 260t-280 99q-177 0 -284 -99t-107 -262v-631q0 -163 107 -261.5t284 -98.5q174 0 280.5 97.5t106.5 258.5v238
q0 6 -6 6h-348q-17 0 -17 16v23q0 16 17 16h399q16 0 16 -16v-274q0 -192 -122.5 -307t-325.5 -115z" />
    <glyph glyph-name="H" unicode="H" horiz-adv-x="1370" 
d="M1077 1417q0 17 17 17h28q17 0 17 -17v-1401q0 -16 -17 -16h-28q-17 0 -17 16v668q0 6 -6 6h-772q-6 0 -6 -6v-668q0 -16 -17 -16h-28q-17 0 -17 16v1401q0 17 17 17h28q17 0 17 -17v-663q0 -6 6 -6h772q6 0 6 6v663z" />
    <glyph glyph-name="I" unicode="I" horiz-adv-x="524" 
d="M248 0q-17 0 -17 16v1401q0 17 17 17h28q17 0 17 -17v-1401q0 -16 -17 -16h-28z" />
    <glyph glyph-name="J" unicode="J" horiz-adv-x="1175" 
d="M508 -16q-197 0 -316.5 111t-119.5 294v111q0 16 16 16h29q16 0 16 -16v-113q0 -155 103 -250.5t272 -95.5t272 95.5t103 250.5v1030q0 17 16 17h29q16 0 16 -17v-1028q0 -183 -119.5 -294t-316.5 -111z" />
    <glyph glyph-name="K" unicode="K" horiz-adv-x="1232" 
d="M248 0q-17 0 -17 16v1401q0 17 17 17h28q17 0 17 -17v-768q0 -3 2.5 -4t5.5 2l752 778q9 9 20 9h31q11 0 14 -7t-4 -14l-530 -561q-3 -3 0 -8l581 -824q6 -9 2.5 -14.5t-12.5 -5.5h-39q-12 0 -18 6q-2 4 -4 6l-553 783q-5 5 -9 2l-235 -232q-4 -4 -4 -8v-541
q0 -16 -17 -16h-28z" />
    <glyph glyph-name="L" unicode="L" horiz-adv-x="1159" 
d="M248 0q-17 0 -17 16v1401q0 17 17 17h28q17 0 17 -17v-1354q0 -6 6 -6h758q16 0 16 -16v-25q0 -16 -16 -16h-809z" />
    <glyph glyph-name="M" unicode="M" horiz-adv-x="1464" 
d="M248 0q-17 0 -17 16v1401q0 17 17 17h33q13 0 18 -11l428 -667q4 -8 8 0l430 667q5 11 19 11h33q16 0 16 -17v-1401q0 -16 -16 -16h-29q-17 0 -17 16v1291q0 4 -3.5 4.5t-4.5 -2.5l-399 -625q-5 -10 -19 -10h-22q-13 0 -18 10l-404 625q-1 2 -3 2.5t-3.5 -0.5t-1.5 -4
v-1291q0 -16 -17 -16h-28z" />
    <glyph glyph-name="N" unicode="N" horiz-adv-x="1396" 
d="M248 0q-17 0 -17 16v1401q0 17 17 17h33q13 0 18 -11l797 -1294q1 -2 3 -2.5t3.5 0.5t1.5 4v1286q0 17 16 17h29q16 0 16 -17v-1401q0 -16 -16 -16h-31q-13 0 -18 10l-799 1295q-1 2 -3 2.5t-3.5 -0.5t-1.5 -4v-1287q0 -16 -17 -16h-28z" />
    <glyph glyph-name="O" unicode="O" horiz-adv-x="1273" 
d="M635 -14q-205 0 -331 123.5t-126 324.5v563q0 203 126 328t331 125q207 0 334 -125t127 -328v-563q0 -201 -127 -324.5t-334 -123.5zM635 41q180 0 289.5 107t109.5 284v567q0 177 -109.5 285.5t-289.5 108.5q-178 0 -286.5 -108.5t-108.5 -285.5v-567q0 -177 108 -284
t287 -107z" />
    <glyph glyph-name="P" unicode="P" horiz-adv-x="1206" 
d="M748 1438q167 0 268.5 -104t101.5 -273q0 -170 -102 -272.5t-268 -102.5h-465q-7 0 -7 -6v-664q0 -16 -16 -16h-29q-16 0 -16 16v1405q0 17 16 17h517zM748 743q138 0 223.5 87.5t85.5 228.5q0 146 -85 233.5t-224 87.5h-465q-7 0 -7 -6v-624q0 -7 7 -7h465z" />
    <glyph glyph-name="Q" unicode="Q" horiz-adv-x="1159" 
d="M580 1450q198 0 319 -119.5t121 -314.5v-600q0 -184 -110.5 -302t-293.5 -130q-6 0 -6 -7v-217q0 -16 -16 -16h-29q-16 0 -16 16v217q0 7 -6 7q-183 12 -293.5 130t-110.5 302v600q0 195 121.5 314.5t319.5 119.5zM958 414v606q0 167 -104 270t-274 103t-274.5 -103
t-104.5 -270v-606q0 -167 104.5 -270t274.5 -103t274 103t104 270z" />
    <glyph glyph-name="R" unicode="R" horiz-adv-x="1251" 
d="M1096 0q-15 0 -21 12l-332 680q-4 4 -6 4h-438q-6 0 -6 -6v-674q0 -16 -17 -16h-28q-17 0 -17 16v1405q0 17 17 17h500q165 0 266.5 -103.5t101.5 -269.5q0 -150 -82.5 -248t-222.5 -117q-7 0 -4 -6l326 -676q4 -8 1 -13t-12 -5h-26zM299 1380q-6 0 -6 -6v-616q0 -6 6 -6
h449q138 0 222.5 86.5t84.5 226.5q0 141 -84.5 228t-222.5 87h-449z" />
    <glyph glyph-name="S" unicode="S" horiz-adv-x="1191" 
d="M608 -16q-217 0 -343 97t-126 261v76q0 16 17 16h24q17 0 17 -16v-72q0 -138 111.5 -221.5t305.5 -83.5q185 0 285 78t100 215q0 122 -91.5 202.5t-329.5 184.5q-194 85 -259 126q-112 72 -141 170q-12 43 -12 97q0 163 109 249.5t311 86.5q220 0 340.5 -97t120.5 -263
v-54q0 -16 -17 -16h-29q-16 0 -16 16v49q0 140 -105.5 224t-297.5 84q-173 0 -265 -70.5t-92 -204.5q0 -45 10 -81t33.5 -66t52 -53t77 -48t96 -46t119.5 -51q2 -1 3 -1q116 -49 192.5 -90.5t137 -93.5t88 -113t27.5 -137q0 -160 -118 -257t-335 -97z" />
    <glyph glyph-name="T" unicode="T" horiz-adv-x="1146" 
d="M1024 1434q16 0 16 -17v-24q0 -17 -16 -17h-424q-6 0 -6 -6v-1354q0 -16 -16 -16h-29q-17 0 -17 16v1354q0 6 -6 6h-403q-17 0 -17 17v24q0 17 17 17h901z" />
    <glyph glyph-name="U" unicode="U" horiz-adv-x="1349" 
d="M674 -16q-207 0 -334 121t-127 319v993q0 17 16 17h29q16 0 16 -17v-999q0 -169 110 -273t290 -104q181 0 290 104t109 273v999q0 17 17 17h28q17 0 17 -17v-993q0 -198 -127 -319t-334 -121z" />
    <glyph glyph-name="V" unicode="V" horiz-adv-x="1165" 
d="M565 0q-15 0 -18 14l-465 1401q-3 7 1.5 13t12.5 6h29q14 0 18 -15l435 -1317q4 -8 8 0l438 1317q4 15 18 15h27q8 0 12.5 -6t1.5 -13l-467 -1401q-4 -14 -18 -14h-33z" />
    <glyph glyph-name="W" unicode="W" horiz-adv-x="1798" 
d="M489 0q-15 0 -18 14l-410 1401q-3 7 1 13t12 6h30q15 0 19 -15l379 -1292q4 -8 8 0l348 1292q4 15 19 15h32q15 0 19 -15l356 -1292q4 -8 8 0l385 1292q4 15 19 15h28q8 0 12 -6t1 -13l-416 -1401q-3 -14 -18 -14h-33q-16 0 -19 14l-352 1307q-4 8 -8 0l-352 -1307
q-3 -14 -19 -14h-31z" />
    <glyph glyph-name="X" unicode="X" horiz-adv-x="1155" 
d="M100 0q-9 0 -13 6t1 14l455 693q2 4 0 8l-455 692q-5 7 -1 14t13 7h33q13 0 19 -11l421 -653q1 -3 4 -3t5 3l422 653q6 11 18 11h33q9 0 13 -7t-1 -14l-455 -694q-2 -4 0 -8l455 -691q5 -8 1 -14t-13 -6h-33q-13 0 -18 10l-422 652q-2 3 -5 3t-4 -3l-421 -652
q-5 -10 -19 -10h-33z" />
    <glyph glyph-name="Y" unicode="Y" horiz-adv-x="1101" 
d="M537 0q-17 0 -17 16v664q0 4 -2 8l-430 725q-5 7 -2 14t12 7h29q11 0 18 -11l402 -675q4 -8 8 0l401 675q7 11 19 11h29q9 0 12 -7t-2 -14l-430 -725q-2 -4 -2 -8v-664q0 -16 -17 -16h-28z" />
    <glyph glyph-name="Z" unicode="Z" horiz-adv-x="1114" 
d="M125 0q-16 0 -16 16v31q0 9 6 21l803 1300q4 8 -5 8h-788q-16 0 -16 17v24q0 17 16 17h848q16 0 16 -17v-31q0 -8 -6 -20l-803 -1300q-4 -9 4 -9h789q16 0 16 -16v-25q0 -16 -16 -16h-848z" />
    <glyph glyph-name="bracketleft" unicode="[" horiz-adv-x="733" 
d="M80 -217q-17 0 -17 16v1739q0 16 17 16h344q16 0 16 -16v-25q0 -16 -16 -16h-293q-6 0 -6 -6v-1645q0 -6 6 -6h295q16 0 16 -16v-25q0 -16 -16 -16h-346z" />
    <glyph glyph-name="backslash" unicode="\" horiz-adv-x="626" 
d="M549 18q3 -7 -0.5 -12.5t-11.5 -5.5h-29q-16 0 -19 14l-411 1401q-3 7 0.5 13t11.5 6h29q14 0 18 -15z" />
    <glyph glyph-name="bracketright" unicode="]" horiz-adv-x="733" 
d="M670 -201q0 -16 -17 -16h-346q-16 0 -16 16v25q0 16 16 16h295q6 0 6 6v1645q0 6 -6 6h-293q-16 0 -16 16v25q0 16 16 16h344q17 0 17 -16v-1739z" />
    <glyph glyph-name="asciicircum" unicode="^" horiz-adv-x="894" 
d="M113 641q-20 0 -13 18l310 762q5 13 20 13h33q15 0 20 -13l312 -762q7 -18 -13 -18h-24q-16 0 -21 12l-286 711q-1 3 -4 3t-5 -3l-286 -711q-5 -12 -21 -12h-22z" />
    <glyph glyph-name="underscore" unicode="_" horiz-adv-x="944" 
d="M88 0q-16 0 -16 16v25q0 16 16 16h770q16 0 16 -16v-25q0 -16 -16 -16h-770z" />
    <glyph glyph-name="grave" unicode="`" horiz-adv-x="356" 
d="M276 1208q4 -8 0.5 -14t-12.5 -6h-24q-12 0 -19 10l-137 236q-5 8 -2 14t12 6h31q10 0 18 -12z" />
    <glyph glyph-name="a" unicode="a" horiz-adv-x="1024" 
d="M518 1042q174 0 259 -90.5t85 -249.5v-686q0 -16 -16 -16h-29q-16 0 -16 16v113q0 10 -8 2q-51 -72 -142.5 -109.5t-199.5 -37.5q-64 0 -120.5 15t-105.5 46.5t-77.5 88t-28.5 132.5q0 148 112 233t308 85h256q6 0 6 6v117q0 127 -70 202.5t-219 75.5q-116 0 -192 -48.5
t-91 -131.5q-3 -17 -18 -14l-31 6q-17 3 -14 14q20 105 114.5 168t237.5 63zM455 39q88 0 164.5 27t129 87t52.5 144v225q0 6 -6 6h-258q-160 0 -258.5 -69t-98.5 -191q0 -113 77 -171t198 -58z" />
    <glyph glyph-name="b" unicode="b" horiz-adv-x="1091" 
d="M920 772q14 -68 14 -262q0 -190 -14 -256q-30 -122 -125 -196t-232 -74q-101 0 -178 44t-121 122q-2 6 -5 2q-1 -2 -1 -5v-131q0 -16 -16 -16h-29q-16 0 -16 16v1401q0 17 16 17h29q16 0 16 -17v-540q0 -5 2.5 -6t3.5 3q44 79 120.5 123.5t178.5 44.5q138 0 234 -74
t123 -196zM860 274q12 68 12 240q0 181 -14 238q-21 101 -102.5 167t-198.5 66q-116 0 -191.5 -66t-93.5 -167q-14 -63 -14 -240q0 -176 12 -238q20 -100 95 -166.5t192 -66.5q119 0 202.5 65.5t100.5 167.5z" />
    <glyph glyph-name="c" unicode="c" horiz-adv-x="1044" 
d="M549 -16q-140 0 -237 74t-128 196q-24 91 -24 262q0 157 24 256q30 122 127.5 196t237.5 74t241 -71.5t128 -177.5q7 -31 10 -56q3 -14 -15 -18l-28 -2q-16 -3 -19 14l-6 33q-19 94 -104 157.5t-207 63.5q-125 0 -207.5 -67t-103.5 -175q-17 -91 -17 -229q0 -140 17 -231
q22 -110 104 -176t207 -66q123 0 210.5 64.5t102.5 158.5q1 2 1 4.5t1 3.5v9q2 10 19 10l26 -2q15 -3 15 -15v-8q0 -12 -6 -33q-24 -107 -126.5 -178t-242.5 -71z" />
    <glyph glyph-name="d" unicode="d" horiz-adv-x="1091" 
d="M834 1417q0 17 16 17h29q16 0 16 -17v-1401q0 -16 -16 -16h-29q-16 0 -16 16v131q0 6 -3 6q-3 1 -4 -3q-44 -78 -121 -122t-178 -44q-137 0 -231.5 74t-124.5 196q-14 66 -14 256q0 194 14 262q27 122 122.5 196t233.5 74q102 0 178.5 -44.5t120.5 -123.5q2 -7 6 -1l1 4
v540zM821 274q13 67 13 238q0 172 -15 240q-18 101 -93 167t-191 66q-117 0 -199 -66t-103 -167q-14 -57 -14 -238q0 -172 12 -240q17 -102 101 -167.5t203 -65.5q117 0 191.5 66.5t94.5 166.5z" />
    <glyph glyph-name="e" unicode="e" horiz-adv-x="1077" 
d="M543 41q111 0 190.5 51t112.5 137q1 1 2 4.5t2 4.5q5 10 12 6h8l21 -4q17 -3 10 -21q-38 -106 -133 -170.5t-227 -64.5q-138 0 -234 72.5t-129 193.5q-18 70 -18 266q0 179 16 254q28 124 125 198t240 74q147 0 245 -77t125 -205q9 -38 11 -81.5t2 -162.5q0 -16 -17 -16
h-680q-6 0 -6 -6q0 -172 10 -211q21 -109 104 -175.5t208 -66.5zM541 985q-124 0 -206.5 -66.5t-103.5 -173.5q-10 -49 -10 -186q0 -6 6 -6h629q6 0 6 6q0 138 -10 184q-22 108 -105 175t-206 67z" />
    <glyph glyph-name="f" unicode="f" horiz-adv-x="692" 
d="M528 1376q-69 0 -114.5 -17.5t-70 -54.5t-33.5 -84t-9 -118v-70q0 -6 6 -6h260q17 0 17 -16v-25q0 -16 -17 -16h-260q-6 0 -6 -6v-947q0 -16 -16 -16h-27q-16 0 -16 16v947q0 6 -6 6h-140q-16 0 -16 16v25q0 16 16 16h140q6 0 6 6v72q0 169 61.5 249.5t222.5 80.5h52
q16 0 16 -17v-24q0 -17 -16 -17h-50z" />
    <glyph glyph-name="g" unicode="g" horiz-adv-x="1071" 
d="M836 1010q0 16 16 16h29q16 0 16 -16v-1004q0 -212 -123.5 -317.5t-370.5 -98.5q-16 0 -16 17l2 26q0 17 17 17q430 -12 430 356v144q0 4 -3 4.5t-6 -2.5q-43 -77 -119 -121.5t-178 -44.5q-135 0 -230 72.5t-126 195.5q-22 81 -22 256q0 181 22 264q30 120 124.5 194
t229.5 74q102 0 179.5 -43t119.5 -120q2 -2 4 -2.5t3.5 0.5t1.5 4v129zM827 283q9 59 9 229q0 166 -9 231q-16 104 -93.5 173t-196.5 69q-118 0 -198 -68t-108 -174q-18 -74 -18 -227q0 -168 18 -233q23 -105 105.5 -173.5t200.5 -68.5q120 0 197 69.5t93 172.5z" />
    <glyph glyph-name="h" unicode="h" horiz-adv-x="1095" 
d="M571 1040q154 0 250.5 -95.5t96.5 -248.5v-680q0 -16 -17 -16h-29q-16 0 -16 16v670q0 132 -82 214.5t-211 82.5q-137 0 -221 -81t-84 -212v-674q0 -16 -16 -16h-29q-16 0 -16 16v1401q0 17 16 17h29q16 0 16 -17v-530q0 -6 4 -6q1 0 2 2q45 76 123.5 116.5t183.5 40.5z
" />
    <glyph glyph-name="i" unicode="i" horiz-adv-x="485" 
d="M244 1262q-31 0 -52.5 20t-21.5 49q0 28 21.5 47t52.5 19t51 -19t20 -47q0 -29 -20 -49t-51 -20zM229 0q-16 0 -16 16v994q0 16 16 16h29q16 0 16 -16v-994q0 -16 -16 -16h-29z" />
    <glyph glyph-name="j" unicode="j" horiz-adv-x="454" 
d="M227 1262q-31 0 -50 18.5t-19 50.5q0 30 19 48t50 18q35 0 55.5 -17.5t20.5 -48.5q0 -32 -20.5 -50.5t-55.5 -18.5zM-27 -432q-16 0 -16 16v25q0 16 16 16q106 4 165 66t59 168v1151q0 16 16 16h29q16 0 16 -16v-1151q0 -134 -74.5 -210.5t-210.5 -80.5z" />
    <glyph glyph-name="k" unicode="k" horiz-adv-x="987" 
d="M213 0q-16 0 -16 16v1401q0 17 16 17h29q16 0 16 -17v-928q0 -3 2.5 -4t5.5 2l527 531q8 8 20 8h39q10 0 13 -6t-5 -14l-262 -267q-3 -7 -2 -8l317 -713q6 -18 -12 -18h-31q-15 0 -20 12l-297 676q-3 5 -8 0l-283 -285q-4 -4 -4 -8v-379q0 -16 -16 -16h-29z" />
    <glyph glyph-name="l" unicode="l" horiz-adv-x="454" 
d="M213 0q-16 0 -16 16v1401q0 17 16 17h29q16 0 16 -17v-1401q0 -16 -16 -16h-29z" />
    <glyph glyph-name="m" unicode="m" horiz-adv-x="1695" 
d="M1188 1040q148 0 239 -88.5t91 -240.5v-695q0 -16 -17 -16h-28q-17 0 -17 16v684q0 130 -76.5 206.5t-201.5 76.5q-133 0 -212 -74.5t-79 -203.5v-689q0 -16 -17 -16h-28q-17 0 -17 16v684q0 131 -76 207t-200 76q-134 0 -212.5 -74t-78.5 -204v-689q0 -16 -16 -16h-29
q-16 0 -16 16v994q0 16 16 16h29q16 0 16 -16v-115q0 -4 2 -4.5t4 2.5q43 72 119 109.5t176 37.5q110 0 189.5 -50t113.5 -142q1 -3 2.5 -4t3 0t2.5 4q36 94 119 143t199 49z" />
    <glyph glyph-name="n" unicode="n" horiz-adv-x="1095" 
d="M571 1040q154 0 250.5 -95.5t96.5 -248.5v-680q0 -16 -17 -16h-29q-16 0 -16 16v670q0 132 -82 214.5t-211 82.5q-137 0 -221 -81t-84 -212v-674q0 -16 -16 -16h-29q-16 0 -16 16v994q0 16 16 16h29q16 0 16 -16v-123q0 -6 4 -6q1 0 2 2q45 76 123.5 116.5t183.5 40.5z
" />
    <glyph glyph-name="o" unicode="o" horiz-adv-x="1085" 
d="M543 -16q-142 0 -239 73.5t-128 196.5q-16 68 -16 262q0 181 16 256q30 122 128.5 196t238.5 74q141 0 241.5 -74.5t126.5 -195.5q15 -64 15 -258q0 -82 -0.5 -110.5t-3.5 -73t-11 -76.5q-28 -121 -127.5 -195.5t-240.5 -74.5zM543 41q122 0 206.5 67t106.5 175
q8 45 8 231t-8 229q-21 108 -105.5 175t-207.5 67q-124 0 -207.5 -67t-104.5 -175q-10 -56 -10 -229q0 -177 10 -231q21 -109 104.5 -175.5t207.5 -66.5z" />
    <glyph glyph-name="p" unicode="p" horiz-adv-x="1107" 
d="M938 772q14 -66 14 -256q0 -194 -14 -262q-27 -122 -122.5 -196t-233.5 -74q-102 0 -178.5 44.5t-120.5 123.5q-1 4 -4 3.5t-3 -5.5v-541q0 -17 -16 -17h-29q-16 0 -16 17v1401q0 16 16 16h29q16 0 16 -16v-131q0 -5 3 -5.5t4 3.5q44 78 121 121.5t178 43.5
q137 0 231.5 -74t124.5 -196zM877 274q14 57 14 238q0 172 -12 240q-17 102 -101 167.5t-203 65.5q-117 0 -191.5 -66.5t-94.5 -166.5q-13 -67 -13 -238q0 -172 15 -240q18 -101 93 -167t191 -66q117 0 199 66t103 167z" />
    <glyph glyph-name="q" unicode="q" horiz-adv-x="1107" 
d="M834 1010q0 16 16 16h29q16 0 16 -16v-1401q0 -17 -16 -17h-29q-16 0 -16 17v541q0 5 -3 5.5t-4 -3.5q-44 -79 -120.5 -123.5t-178.5 -44.5q-138 0 -233.5 74t-122.5 196q-14 68 -14 262q0 190 14 256q30 122 124.5 196t231.5 74q101 0 178 -43.5t121 -121.5q1 -4 4 -3.5
t3 5.5v131zM819 274q15 68 15 240q0 171 -13 238q-20 100 -94.5 166.5t-191.5 66.5q-119 0 -203 -65.5t-101 -167.5q-12 -68 -12 -240q0 -181 14 -238q21 -101 103 -167t199 -66q116 0 191 66t93 167z" />
    <glyph glyph-name="r" unicode="r" horiz-adv-x="722" 
d="M551 1034q70 0 123 -24q15 -6 8 -21l-12 -33q-7 -13 -17 -10l-8 4q-46 17 -100 17q-124 0 -205.5 -96.5t-81.5 -231.5v-623q0 -16 -16 -16h-29q-16 0 -16 16v994q0 16 16 16h29q16 0 16 -16v-166q0 -5 2.5 -5.5t3.5 3.5q41 89 115.5 140.5t171.5 51.5z" />
    <glyph glyph-name="s" unicode="s" horiz-adv-x="966" 
d="M494 -8q-156 0 -255.5 76t-99.5 184v35q0 16 17 16h26q17 0 17 -16v-33q0 -85 82.5 -147t210.5 -62t207 62.5t79 158.5q0 39 -16.5 71t-38.5 52.5t-64.5 40t-73 30t-85.5 27.5q-15 5 -23 7q-53 16 -85.5 27.5t-76.5 30t-70.5 38t-52 46t-37.5 61t-12 75.5
q0 119 94.5 190.5t249.5 71.5q156 0 252.5 -74t96.5 -186v-10q0 -16 -17 -16h-26q-17 0 -17 14v12q0 88 -80.5 146.5t-210.5 58.5q-126 0 -203 -56.5t-77 -146.5q0 -32 9.5 -58t31 -47.5t42.5 -36.5t60 -31t65.5 -25t75.5 -25q156 -47 215 -79q135 -74 136 -206
q0 -121 -95 -198.5t-251 -77.5z" />
    <glyph glyph-name="t" unicode="t" horiz-adv-x="724" 
d="M524 57h45q17 0 17 -16v-25q0 -16 -17 -16h-49q-65 0 -112 11t-86 38.5t-58.5 79t-19.5 127.5v709q0 6 -6 6h-132q-16 0 -16 16v23q0 16 16 16h132q6 0 6 6v238q0 16 16 16h27q16 0 16 -16v-238q0 -6 6 -6h256q17 0 17 -16v-23q0 -16 -17 -16h-256q-6 0 -6 -6v-705
q0 -114 53.5 -158.5t167.5 -44.5z" />
    <glyph glyph-name="u" unicode="u" horiz-adv-x="1093" 
d="M836 1010q0 16 16 16h29q16 0 16 -16v-994q0 -16 -16 -16h-29q-16 0 -16 16v123q0 4 -3 4.5t-4 -2.5q-45 -74 -124 -114.5t-183 -40.5q-153 0 -248.5 91.5t-95.5 246.5v686q0 16 17 16h28q17 0 17 -16v-674q0 -134 80 -213.5t210 -79.5q139 0 222.5 81t83.5 212v674z" />
    <glyph glyph-name="v" unicode="v" horiz-adv-x="919" 
d="M442 0q-15 0 -18 12l-346 996q-3 7 1.5 12.5t12.5 5.5h33q15 0 18 -12l314 -914q4 -8 8 0l311 912q4 14 19 14h32q8 0 13 -5.5t2 -12.5l-346 -996q-3 -12 -19 -12h-35z" />
    <glyph glyph-name="w" unicode="w" horiz-adv-x="1400" 
d="M383 0q-15 0 -18 14l-287 994q-4 18 12 18h29q15 0 18 -14l258 -920q4 -8 8 0l263 920q4 14 18 14h31q15 0 18 -14l262 -918q1 -3 4 -3t5 3l260 918q4 14 18 14h29q8 0 11.5 -5.5t0.5 -12.5l-289 -994q-4 -14 -18 -14h-31q-15 0 -18 14l-265 895q-4 8 -8 0l-260 -895
q-4 -14 -18 -14h-33z" />
    <glyph glyph-name="x" unicode="x" horiz-adv-x="905" 
d="M78 0q-9 0 -12.5 5.5t2.5 14.5l350 488q2 4 0 8l-350 490q-6 9 -2.5 14.5t12.5 5.5h33q12 0 18 -6q2 -4 4 -6l316 -447q4 -8 8 0l315 449q5 10 21 10h34q9 0 13 -5.5t-2 -14.5l-351 -490q-2 -4 0 -8l351 -488q6 -9 2 -14.5t-13 -5.5h-34q-16 0 -21 10l-313 449q-5 5 -8 0
l-320 -449q-7 -10 -20 -10h-33z" />
    <glyph glyph-name="y" unicode="y" horiz-adv-x="890" 
d="M127 -410q-14 0 -14 17v22q0 17 14 17h14q39 1 66.5 6t52 22.5t41.5 38.5t37 66t36 91t42 126v8l-357 1004q-3 7 1.5 12.5t13.5 5.5h28q16 0 19 -12l323 -924q2 -3 5 -3t4 3l317 924q3 12 18 12h29q9 0 13 -5t1 -13l-397 -1129q-34 -97 -61.5 -152.5t-62.5 -87
t-71.5 -40.5t-97.5 -9h-14z" />
    <glyph glyph-name="z" unicode="z" horiz-adv-x="894" 
d="M96 0q-16 0 -16 16v31q0 10 6 19l653 895q4 8 -4 8h-633q-16 0 -16 16v25q0 16 16 16h695q16 0 16 -16v-31q0 -9 -6 -18l-653 -895q-4 -9 4 -9h635q16 0 16 -16v-25q0 -16 -16 -16h-697z" />
    <glyph glyph-name="braceleft" unicode="{" horiz-adv-x="530" 
d="M354 -217q-95 0 -136.5 51.5t-41.5 169.5v457q0 88 -23.5 131.5t-74.5 54.5q-15 3 -15 17v26q0 14 15 17q51 11 74.5 54t23.5 130v442q0 118 41.5 169.5t136.5 51.5h97q16 0 16 -16v-25q0 -16 -16 -16h-93q-63 0 -91.5 -38.5t-28.5 -127.5v-434q0 -169 -91 -215
q-8 -4 0 -8q47 -27 69 -78.5t22 -140.5v-449q0 -89 28.5 -127.5t91.5 -38.5h93q16 0 16 -16v-25q0 -16 -16 -16h-97z" />
    <glyph glyph-name="bar" unicode="|" horiz-adv-x="294" 
d="M133 -164q-16 0 -16 17v1687q0 16 16 16h29q16 0 16 -16v-1687q0 -17 -16 -17h-29z" />
    <glyph glyph-name="braceright" unicode="}" horiz-adv-x="530" 
d="M176 -217h-96q-17 0 -17 16v25q0 16 17 16h92q64 0 92.5 38.5t28.5 127.5v449q0 89 21.5 140.5t68.5 78.5q8 4 0 8q-46 24 -68 74.5t-22 140.5v434q0 89 -28.5 127.5t-92.5 38.5h-92q-17 0 -17 16v25q0 16 17 16h96q95 0 136.5 -51.5t41.5 -169.5v-442q0 -87 23.5 -130
t75.5 -54q14 -3 14 -17v-26q0 -14 -14 -17q-52 -11 -75.5 -54.5t-23.5 -131.5v-457q0 -118 -41.5 -169.5t-136.5 -51.5z" />
    <glyph glyph-name="asciitilde" unicode="~" horiz-adv-x="985" 
d="M692 510q-45 0 -91 14t-66.5 25t-67.5 39q-85 47 -158 47q-107 0 -168 -90q-9 -16 -22 -6l-15 10q-11 9 -6 22q32 57 86.5 90t124.5 33q53 0 92.5 -14t87.5 -41q81 -47 124 -59q40 -11 81 -11q33 0 61 13.5t44 28.5t43 46q10 14 22 5l17 -11q13 -10 4 -22
q-38 -57 -83.5 -88t-109.5 -31z" />
    <glyph glyph-name="uni00A0" unicode="&#xa0;" horiz-adv-x="409" 
 />
    <glyph glyph-name="exclamdown" unicode="&#xa1;" horiz-adv-x="632" 
d="M309 1450q37 0 65.5 -26t28.5 -64q0 -36 -28.5 -62t-65.5 -26q-36 0 -63 26t-27 62q0 38 26 64t64 26zM287 991q0 17 16 17h25q16 0 16 -17l2 -948q0 -16 -16 -16h-29q-16 0 -16 16z" />
    <glyph glyph-name="cent" unicode="&#xa2;" horiz-adv-x="1044" 
d="M862 449q1 2 1 4.5t1 3.5v8q2 10 19 10l26 -2q15 -3 15 -14v-8q0 -12 -6 -33q-24 -106 -124.5 -177.5t-238.5 -72.5q-6 0 -6 -6v-146q0 -16 -17 -16h-24q-16 0 -16 16v150q0 6 -7 6q-115 15 -194 86.5t-107 179.5q-24 91 -24 262q0 157 24 256q27 108 106.5 180t194.5 87
q7 0 7 6v149q0 17 16 17h24q17 0 17 -17v-145q0 -6 6 -6q137 -1 236.5 -73t126.5 -177q7 -32 10 -55q3 -15 -15 -19l-28 -2q-16 -3 -19 14l-6 33q-19 94 -104 157.5t-207 63.5q-125 0 -207.5 -66.5t-103.5 -174.5q-17 -91 -17 -230q0 -140 17 -231q22 -110 104 -176t207 -66
q123 0 210.5 64.5t102.5 159.5z" />
    <glyph glyph-name="sterling" unicode="&#xa3;" horiz-adv-x="1234" 
d="M383 63q-3 -3 -1 -5.5t5 -2.5h754q16 0 16 -16v-23q0 -16 -16 -16h-834q-16 0 -16 16v25q0 14 12 20q53 28 87 105.5t34 173.5v311q0 6 -6 6h-170q-17 0 -17 17v20q0 17 17 17h170q6 0 6 6v356q0 170 96 269.5t266 107.5q129 6 217.5 -56t129.5 -188q3 -17 -13 -20
l-26 -6q-18 -4 -21 12q-70 212 -285 203q-146 -6 -224.5 -88.5t-78.5 -231.5v-358q0 -6 7 -6h407q16 0 16 -17v-20q0 -17 -16 -17h-407q-7 0 -7 -6v-305q0 -90 -27 -165t-75 -118z" />
    <glyph glyph-name="currency" unicode="&#xa4;" horiz-adv-x="1003" 
d="M877 614q0 -136 -91 -241q-4 -4 0 -8l138 -136q13 -9 0 -22l-19 -17q-11 -11 -22 0l-138 136q-4 4 -8 0q-106 -88 -243 -88q-132 0 -234 79q-4 4 -8 0l-131 -127q-11 -12 -23 0l-18 17q-6 5 -6 11t6 11l129 127q5 4 0 9q-96 111 -96 249q0 137 88 246q4 4 0 8l-135 133
q-5 5 -5.5 12.5t5.5 12.5l18 16q11 11 22 0l136 -135q4 -4 8 0q109 88 244 88q142 0 254 -94q4 -4 8 0l139 139q13 14 25 2l18 -16q6 -5 5.5 -12.5t-5.5 -12.5l-143 -141q-4 -4 0 -8q82 -106 82 -238zM170 614q0 -132 95.5 -226.5t228.5 -94.5t228 94.5t95 226.5
q0 134 -95 229t-228 95q-134 0 -229 -95t-95 -229z" />
    <glyph glyph-name="yen" unicode="&#xa5;" horiz-adv-x="1413" 
d="M1159 1434q9 0 12 -7t-2 -14l-417 -704q-4 -9 4 -9h278q17 0 17 -16v-14q0 -17 -17 -17h-291q-6 0 -6 -6v-207q0 -6 6 -6h291q17 0 17 -16v-17q0 -16 -17 -16h-291q-6 0 -6 -6v-363q0 -16 -16 -16h-29q-16 0 -16 16v363q0 6 -6 6h-303q-17 0 -17 16v17q0 16 17 16h303
q6 0 6 6v207q0 6 -6 6h-303q-17 0 -17 17v14q0 16 17 16h290q3 0 4.5 3t0.5 6l-418 704q-5 7 -2 14t12 7h29q11 0 18 -11l401 -675q2 -3 5 -3t4 3l401 675q7 11 18 11h29z" />
    <glyph glyph-name="brokenbar" unicode="&#xa6;" horiz-adv-x="294" 
d="M133 809q-16 0 -16 16v715q0 16 16 16h29q16 0 16 -16v-715q0 -16 -16 -16h-29zM133 -164q-16 0 -16 17v714q0 17 16 17h29q16 0 16 -17v-714q0 -17 -16 -17h-29z" />
    <glyph glyph-name="section" unicode="&#xa7;" horiz-adv-x="888" 
d="M451 -424q-130 0 -208 88.5t-79 241.5v28q0 17 16 17h29q16 0 16 -17v-26q1 -127 63.5 -202t164.5 -75q101 0 166 75.5t65 184.5q0 39 -10 73t-24.5 58.5t-39 46t-45 35t-51.5 26.5t-50 19t-48 15q-55 17 -92.5 33.5t-78.5 49.5t-65 77q-41 77 -41 178q0 114 51 196
q72 106 185 129q10 3 2 7q-95 33 -157 116.5t-62 188.5q0 127 82.5 218t212.5 91q126 0 205.5 -86t82.5 -221v-29q0 -16 -16 -16h-29q-16 0 -16 16v27q0 110 -64 182t-161 72q-105 0 -170.5 -78.5t-65.5 -184.5q0 -104 69.5 -169t198.5 -107q39 -12 66 -22.5t70.5 -39
t72.5 -67.5q62 -79 62 -207q0 -120 -49 -205q-62 -111 -172 -125q-7 -4 0 -6q96 -34 153.5 -110t57.5 -187q0 -131 -83.5 -220t-213.5 -89zM446 229q147 0 213 113q37 62 37 164q0 122 -53 184q-74 94 -192 94q-66 0 -122.5 -36.5t-90.5 -94.5q-37 -67 -37 -157
q0 -96 35 -152q76 -115 210 -115z" />
    <glyph glyph-name="dieresis" unicode="&#xa8;" horiz-adv-x="598" 
d="M143 1264q-31 0 -51 18.5t-20 46.5t20 47t51 19q28 0 47 -19t19 -47t-19 -46.5t-47 -18.5zM459 1264q-29 0 -49.5 18.5t-20.5 46.5t20.5 47t49.5 19t48 -19t19 -47t-19 -46.5t-48 -18.5z" />
    <glyph glyph-name="copyright" unicode="&#xa9;" horiz-adv-x="1841" 
d="M920 -16q-159 0 -297 56t-235.5 152.5t-153.5 231t-56 287.5q0 209 95 378t265 265t382 96q213 0 383 -96t265 -264.5t95 -378.5q0 -204 -95 -370t-265.5 -261.5t-382.5 -95.5zM920 35q148 0 276.5 52t218.5 142t141.5 215t51.5 267q0 146 -51.5 273.5t-141.5 218.5
t-218.5 143.5t-276.5 52.5t-276.5 -52.5t-219 -143.5t-142 -218.5t-51.5 -273.5q0 -142 51.5 -267t142 -215t219 -142t276.5 -52zM922 344q-96 0 -152.5 54.5t-56.5 144.5v348q0 87 56.5 140.5t152.5 53.5q95 0 153 -52.5t58 -141.5v-8q0 -8 -5 -13t-12 -4l-20 2
q-17 3 -17 17v12q0 63 -43.5 101t-113.5 38q-73 0 -115.5 -38t-42.5 -101v-362q0 -63 43 -102.5t115 -39.5q69 0 113 39.5t44 102.5v8q0 15 17 18l20 2q7 1 12 -2t5 -8v-12q0 -87 -59 -142t-152 -55z" />
    <glyph glyph-name="ordfeminine" unicode="&#xaa;" horiz-adv-x="659" 
d="M338 1149h162q6 0 6 6v68q0 82 -45 131t-139 49q-70 0 -118.5 -30.5t-60.5 -80.5q-3 -17 -18 -14l-23 2q-17 3 -14 18q15 69 79 110.5t159 41.5q115 0 175 -60.5t60 -164.5v-449q0 -16 -16 -16h-23q-16 0 -16 16v60q0 3 -2.5 4t-5.5 -2q-65 -88 -217 -88q-94 0 -158 46
t-64 140q0 99 75 156t204 57zM285 797q92 0 156.5 44t64.5 128v127q0 6 -6 6h-162q-102 0 -163.5 -42t-61.5 -120q0 -70 48 -106.5t124 -36.5zM57 571q0 17 17 17h487q17 0 17 -17v-20q0 -16 -17 -16h-487q-17 0 -17 16v20z" />
    <glyph glyph-name="guillemotleft" unicode="&#xab;" horiz-adv-x="1142" 
d="M586 240q6 -8 4 -14.5t-12 -6.5h-25q-16 0 -21 8l-294 336q-9 13 0 25l294 336q5 8 21 8h25q10 0 12 -7t-4 -14l-291 -331q-2 -4 0 -9zM895 240q6 -8 4 -14.5t-12 -6.5h-25q-15 0 -20 8l-295 336q-9 13 0 25l295 336q5 8 20 8h25q10 0 12 -7t-4 -14l-291 -331q-2 -4 0 -9
z" />
    <glyph glyph-name="logicalnot" unicode="&#xac;" horiz-adv-x="1040" 
d="M92 668q0 16 17 16h825q16 0 16 -16v-279q0 -16 -16 -16h-27q-16 0 -16 16v234q0 6 -6 6h-776q-17 0 -17 16v23z" />
    <glyph glyph-name="uni00AD" unicode="&#xad;" horiz-adv-x="790" 
d="M109 627q-17 0 -17 16v25q0 16 17 16h573q16 0 16 -16v-25q0 -16 -16 -16h-573z" />
    <glyph glyph-name="registered" unicode="&#xae;" horiz-adv-x="931" 
d="M467 1466q163 0 278 -114t115 -277t-115 -277t-278 -114q-164 0 -279.5 114t-115.5 277t115.5 277t279.5 114zM467 731q143 0 243.5 100.5t100.5 243.5q0 141 -101 241.5t-243 100.5q-144 0 -245 -100.5t-101 -241.5q0 -143 101 -243.5t245 -100.5zM586 1149
q0 -69 -58 -92q-8 -4 -4 -8l62 -138q6 -18 -13 -18h-16q-15 0 -20 12l-60 142q-4 4 -8 4h-49q-6 0 -6 -7v-135q0 -16 -17 -16h-10q-16 0 -16 16v326q0 16 16 16h100q44 0 71.5 -28.5t27.5 -73.5zM420 1212q-6 0 -6 -6v-114q0 -7 6 -7h61q28 0 45 17.5t17 46.5t-17 46t-45 17
h-61z" />
    <glyph glyph-name="macron" unicode="&#xaf;" horiz-adv-x="520" 
d="M16 1235q-16 0 -16 16v21q0 16 16 16h488q16 0 16 -16v-21q0 -16 -16 -16h-488z" />
    <glyph glyph-name="degree" unicode="&#xb0;" horiz-adv-x="784" 
d="M393 1016q-135 0 -228 92.5t-93 226.5q0 135 93 227.5t228 92.5q134 0 228 -93t94 -227q0 -133 -94 -226t-228 -93zM393 1069q113 0 189.5 76.5t76.5 189.5t-77 190t-189 77t-189 -77t-77 -190t76.5 -189.5t189.5 -76.5z" />
    <glyph glyph-name="plusminus" unicode="&#xb1;" horiz-adv-x="1040" 
d="M549 702q0 -6 6 -6h379q16 0 16 -16v-23q0 -16 -16 -16h-379q-6 0 -6 -6v-369q0 -16 -17 -16h-22q-16 0 -16 16v369q0 6 -7 6h-378q-17 0 -17 16v23q0 16 17 16h378q7 0 7 6v390q0 16 16 16h22q17 0 17 -16v-390zM109 0q-17 0 -17 16v23q0 16 17 16h825q16 0 16 -16v-23
q0 -16 -16 -16h-825z" />
    <glyph glyph-name="uni00B2" unicode="&#xb2;" horiz-adv-x="647" 
d="M94 936q-16 0 -16 16v21q0 11 6 20q186 234 283 361q116 150 116 243q0 70 -49 114t-127 44t-125.5 -44t-46.5 -116v-36q0 -17 -16 -17h-25q-16 0 -16 17v40q1 93 65 150t164 57q103 0 167.5 -58.5t64.5 -150.5q0 -108 -119 -264q-74 -97 -264 -340q-3 -3 -1 -5.5t5 -2.5
h393q16 0 16 -16v-17q0 -16 -16 -16h-459z" />
    <glyph glyph-name="uni00B3" unicode="&#xb3;" horiz-adv-x="657" 
d="M524 1358q35 -68 35 -168q0 -92 -31 -152q-56 -116 -202 -116q-82 0 -139 44.5t-81 120.5q-10 36 -10 82q0 17 17 17h24q17 0 17 -17q0 -45 4 -63q11 -59 57 -96t111 -37q103 0 151 88q27 56 27 129q0 85 -31 145q-44 84 -147 84q-9 0 -33 -4q-12 -3 -21 6l-8 11
q-13 13 -2 24l219 279q4 8 -4 8h-360q-17 0 -17 16v17q0 16 17 16h422q16 0 16 -16v-21q0 -11 -6 -20l-201 -262q-4 -9 4 -9q122 -6 172 -106z" />
    <glyph glyph-name="acute" unicode="&#xb4;" horiz-adv-x="356" 
d="M92 1188q-9 0 -12.5 6t0.5 14l133 234q8 12 18 12h31q9 0 12 -6t-2 -14l-137 -236q-7 -10 -18 -10h-25z" />
    <glyph glyph-name="uni00B5" unicode="&#xb5;" horiz-adv-x="1112" 
d="M854 1010q0 16 16 16h29q16 0 16 -16v-994q0 -16 -16 -16h-29q-16 0 -16 16v123q0 4 -2 4.5t-4 -2.5q-45 -74 -124 -114.5t-183 -40.5q-184 0 -275 120q-3 3 -5.5 2t-2.5 -4v-497q0 -17 -16 -17h-29q-16 0 -16 17v1403q0 16 16 16h29q16 0 16 -16v-674
q0 -134 80.5 -213.5t210.5 -79.5q139 0 222 81t83 212v674z" />
    <glyph glyph-name="paragraph" unicode="&#xb6;" horiz-adv-x="1122" 
d="M498 1434h379q16 0 16 -17v-1810q0 -17 -16 -17h-21q-16 0 -16 17v1767q0 6 -6 6h-302q-6 0 -6 -6v-1767q0 -17 -16 -17h-23q-16 0 -16 17v899q0 6 -6 6q-104 4 -190.5 66t-136.5 166.5t-50 228.5q0 191 120 326t290 135z" />
    <glyph glyph-name="periodcentered" unicode="&#xb7;" horiz-adv-x="184" 
d="M45 12q-38 0 -65 26.5t-27 63.5q0 36 27.5 62t64.5 26q36 0 64 -26t28 -62q0 -37 -27.5 -63.5t-64.5 -26.5z" />
    <glyph glyph-name="cedilla" unicode="&#xb8;" horiz-adv-x="251" 
d="M16 -369q-16 3 -12 21l4 16q3 17 21 13q62 -13 108 5.5t56 75.5q19 109 -107 218q-9 8 -7 14t11 6h16q9 0 21 -6q149 -113 121 -248q-12 -55 -51 -85.5t-85.5 -33t-95.5 3.5z" />
    <glyph glyph-name="uni00B9" unicode="&#xb9;" horiz-adv-x="366" 
d="M184 1790q4 4 9 4q4 2 16 2h31q16 0 16 -16v-828q0 -16 -16 -16h-25q-16 0 -16 16v774q0 7 -6 7l-87 -25q-7 -3 -12.5 0.5t-5.5 11.5v13q0 14 12 20z" />
    <glyph glyph-name="ordmasculine" unicode="&#xba;" horiz-adv-x="684" 
d="M344 752q-90 0 -152 48t-86 132q-14 45 -14 170q0 127 12 168q20 83 84.5 131.5t155.5 48.5t156.5 -49t85.5 -129q10 -37 10 -170q0 -134 -10 -170q-19 -80 -85 -130t-157 -50zM344 801q74 0 125.5 41.5t65.5 109.5q8 44 8 150q0 118 -8 147q-15 69 -66 110.5t-125 41.5
t-124 -41.5t-64 -110.5q-9 -47 -9 -147q0 -106 9 -150q15 -69 64.5 -110t123.5 -41zM96 535q-16 0 -16 16v20q0 17 16 17h492q16 0 16 -17v-20q0 -16 -16 -16h-492z" />
    <glyph glyph-name="guillemotright" unicode="&#xbb;" horiz-adv-x="1142" 
d="M258 219q-10 0 -12 6.5t4 14.5l291 331q2 5 0 9l-291 331q-6 7 -4 14t12 7h25q15 0 20 -8l295 -336q9 -12 0 -25l-295 -336q-5 -8 -20 -8h-25zM567 219q-10 0 -12 6.5t4 14.5l291 331q2 5 0 9l-291 331q-6 7 -4 14t12 7h25q15 0 20 -8l295 -336q9 -12 0 -25l-295 -336
q-5 -8 -20 -8h-25z" />
    <glyph glyph-name="onequarter" unicode="&#xbc;" horiz-adv-x="1595" 
d="M256 590q0 -17 -16 -17h-25q-16 0 -16 17v774q0 6 -6 6l-87 -24q-7 -3 -12.5 0.5t-5.5 11.5v12q0 15 12 21l84 36q5 5 9 5q4 2 16 2h31q16 0 16 -17v-827zM1128 1423q6 11 19 11h22q9 0 13 -7t0 -14l-912 -1403q-5 -10 -18 -10h-23q-9 0 -13 6t1 14zM1497 293
q16 0 16 -17v-18q0 -16 -16 -16h-45q-6 0 -6 -6v-220q0 -16 -16 -16h-23q-16 0 -16 16v220q0 6 -7 6h-358q-16 0 -16 16v18q0 9 4 21l258 551q6 12 20 12h23q19 0 12 -18l-254 -541q-4 -8 4 -8h307q7 0 7 6v209q0 16 16 16h23q16 0 16 -16v-209q0 -6 6 -6h45z" />
    <glyph glyph-name="onehalf" unicode="&#xbd;" horiz-adv-x="1589" 
d="M256 590q0 -17 -16 -17h-25q-16 0 -16 17v774q0 6 -6 6l-87 -24q-7 -3 -12.5 0.5t-5.5 11.5v12q0 15 12 21l84 36q5 5 9 5q4 2 16 2h31q16 0 16 -17v-827zM1128 1423q6 11 19 11h22q9 0 13 -7t0 -14l-912 -1403q-5 -10 -18 -10h-23q-9 0 -13 6t1 14zM1098 57
q-3 -3 -1 -5.5t5 -2.5h393q16 0 16 -16v-17q0 -16 -16 -16h-459q-16 0 -16 16v21q0 11 6 20q186 234 283 361q116 150 116 244q0 70 -49 113.5t-127 43.5t-125.5 -44t-46.5 -116v-36q0 -17 -16 -17h-25q-16 0 -16 17v41q1 93 65 149.5t164 56.5q104 0 168 -58.5t64 -149.5
q0 -109 -119 -265q-74 -97 -264 -340z" />
    <glyph glyph-name="threequarters" unicode="&#xbe;" horiz-adv-x="1808" 
d="M528 696q-56 -116 -202 -116q-82 0 -139 44.5t-81 120.5q-10 36 -10 82q0 17 17 17h24q17 0 17 -17q0 -45 4 -63q11 -59 57 -96t111 -37q103 0 151 88q27 56 27 129q0 85 -31 145q-44 84 -147 84q-9 0 -33 -4q-12 -3 -21 6l-8 11q-13 13 -2 24l219 279q4 8 -4 8h-360
q-17 0 -17 16v17q0 16 17 16h422q16 0 16 -16v-21q0 -11 -6 -20l-201 -263q-4 -8 2 -8q124 -6 174 -106q35 -68 35 -168q0 -92 -31 -152zM1341 1423q5 11 19 11h22q9 0 13 -7t0 -14l-912 -1403q-5 -10 -18 -10h-23q-9 0 -12.5 6t0.5 14zM1710 293q16 0 16 -17v-18
q0 -16 -16 -16h-45q-6 0 -6 -6v-220q0 -16 -17 -16h-22q-16 0 -16 16v220q0 6 -7 6h-358q-16 0 -16 16v18q0 9 4 21l258 551q6 12 20 12h23q19 0 12 -18l-254 -541q-4 -8 4 -8h307q7 0 7 6v209q0 16 16 16h22q17 0 17 -16v-209q0 -6 6 -6h45z" />
    <glyph glyph-name="questiondown" unicode="&#xbf;" horiz-adv-x="870" 
d="M467 1014q38 0 64 -25.5t26 -62.5t-26.5 -62.5t-63.5 -25.5q-36 0 -64 26t-28 62t28 62t64 26zM487 641q17 0 17 -16v-156q0 -51 -19 -94.5t-48.5 -75t-66 -61.5t-73 -62t-66 -68t-48.5 -88t-19 -114q0 -126 74.5 -201.5t197.5 -75.5q124 0 200.5 76t76.5 199v82
q0 16 16 16h29q16 0 16 -16v-82q0 -149 -93.5 -240.5t-244.5 -91.5t-242.5 92.5t-91.5 245.5q0 70 18.5 128t48.5 98t66 74t72 63t66 57t48.5 64t18.5 77v154q0 16 17 16h30z" />
    <glyph glyph-name="Agrave" unicode="&#xc0;" horiz-adv-x="1165" 
d="M594 1616q5 -8 1 -14.5t-13 -6.5h-25q-11 0 -18 11l-138 235q-5 7 -1.5 14t12.5 7h30q10 0 19 -13zM1042 0q-14 0 -18 14l-96 293q0 4 -8 4h-672q-8 0 -8 -4l-97 -293q-3 -14 -18 -14h-29q-8 0 -12.5 5.5t-1.5 12.5l463 1401q4 15 18 15h37q14 0 18 -15l465 -1401
q3 -7 -1.5 -12.5t-12.5 -5.5h-27zM260 373q-3 -6 6 -6h633q9 0 6 6l-319 973q-4 8 -8 0z" />
    <glyph glyph-name="Aacute" unicode="&#xc1;" horiz-adv-x="1165" 
d="M709 1862q9 0 12 -7t-2 -14l-137 -235q-7 -11 -19 -11h-24q-9 0 -13 6.5t0 14.5l133 233q9 13 19 13h31zM1042 0q-14 0 -18 14l-96 293q0 4 -8 4h-672q-8 0 -8 -4l-97 -293q-3 -14 -18 -14h-29q-8 0 -12.5 5.5t-1.5 12.5l463 1401q4 15 18 15h37q14 0 18 -15l465 -1401
q3 -7 -1.5 -12.5t-12.5 -5.5h-27zM260 373q-3 -6 6 -6h633q9 0 6 6l-319 973q-4 8 -8 0z" />
    <glyph glyph-name="Acircumflex" unicode="&#xc2;" horiz-adv-x="1165" 
d="M586 1780q-4 8 -8 0l-154 -195q-7 -10 -21 -10h-28q-21 0 -8 20l176 226q7 10 20 10h31q13 0 20 -10l177 -226q6 -9 3 -14.5t-12 -5.5h-28q-14 0 -21 10zM1042 0q-14 0 -18 14l-96 293q0 4 -8 4h-672q-8 0 -8 -4l-97 -293q-3 -14 -18 -14h-29q-8 0 -12.5 5.5t-1.5 12.5
l463 1401q4 15 18 15h37q14 0 18 -15l465 -1401q3 -7 -1.5 -12.5t-12.5 -5.5h-27zM260 373q-3 -6 6 -6h633q9 0 6 6l-319 973q-4 8 -8 0z" />
    <glyph glyph-name="Atilde" unicode="&#xc3;" horiz-adv-x="1165" 
d="M492 1735q-35 0 -61 -13t-52 -49q-10 -17 -25 -6l-14 10q-12 9 -4 23q60 88 153 88q23 0 47 -8.5t35 -14.5t39 -24q65 -45 101 -45q69 0 114 67q9 15 23 6l12 -6q16 -9 6 -22q-28 -52 -71 -76.5t-84 -24.5q-54 0 -121 50q-22 16 -32.5 23.5t-29 14.5t-36.5 7zM1042 0
q-14 0 -18 14l-96 293q0 4 -8 4h-672q-8 0 -8 -4l-97 -293q-3 -14 -18 -14h-29q-8 0 -12.5 5.5t-1.5 12.5l463 1401q4 15 18 15h37q14 0 18 -15l465 -1401q3 -7 -1.5 -12.5t-12.5 -5.5h-27zM260 373q-3 -6 6 -6h633q9 0 6 6l-319 973q-4 8 -8 0z" />
    <glyph glyph-name="Adieresis" unicode="&#xc4;" horiz-adv-x="1165" 
d="M426 1671q-31 0 -51.5 19t-20.5 47t20.5 46.5t51.5 18.5q28 0 47 -18.5t19 -46.5t-19 -47t-47 -19zM741 1671q-29 0 -49 19t-20 47t20 46.5t49 18.5t48.5 -18.5t19.5 -46.5t-19.5 -47t-48.5 -19zM1042 0q-14 0 -18 14l-96 293q0 4 -8 4h-672q-8 0 -8 -4l-97 -293
q-3 -14 -18 -14h-29q-8 0 -12.5 5.5t-1.5 12.5l463 1401q4 15 18 15h37q14 0 18 -15l465 -1401q3 -7 -1.5 -12.5t-12.5 -5.5h-27zM260 373q-3 -6 6 -6h633q9 0 6 6l-319 973q-4 8 -8 0z" />
    <glyph glyph-name="Aring" unicode="&#xc5;" horiz-adv-x="1165" 
d="M582 1583q-86 0 -145.5 58t-59.5 143q0 84 59.5 142.5t145.5 58.5q84 0 143 -58.5t59 -142.5q0 -85 -58.5 -143t-143.5 -58zM582 1935q-64 0 -109 -43.5t-45 -107.5t45 -108t109 -44q63 0 108 44t45 108t-44.5 107.5t-108.5 43.5zM1042 0q-14 0 -18 14l-96 293q0 4 -8 4
h-672q-8 0 -8 -4l-97 -293q-3 -14 -18 -14h-29q-8 0 -12.5 5.5t-1.5 12.5l463 1401q4 15 18 15h37q14 0 18 -15l465 -1401q3 -7 -1.5 -12.5t-12.5 -5.5h-27zM260 373q-3 -6 6 -6h633q9 0 6 6l-319 973q-4 8 -8 0z" />
    <glyph glyph-name="AE" unicode="&#xc6;" horiz-adv-x="1839" 
d="M1698 1393q0 -17 -17 -17h-729q-6 0 -6 -6v-616q0 -6 6 -6h506q17 0 17 -17v-24q0 -17 -17 -17h-506q-6 0 -6 -6v-621q0 -6 6 -6h729q17 0 17 -16v-25q0 -16 -17 -16h-780q-16 0 -16 16v289q0 6 -6 6h-564q-4 0 -6 -4l-157 -295q-6 -12 -19 -12h-35q-9 0 -12.5 6t0.5 14
l756 1401q6 13 18 13h821q17 0 17 -17v-24zM346 375q-4 -8 4 -8h529q6 0 6 6v991q0 5 -3.5 5.5t-4.5 -3.5z" />
    <glyph glyph-name="Ccedilla" unicode="&#xc7;" horiz-adv-x="1241" 
d="M1081 1016q0 -12 -16 -12l-29 -3q-16 0 -16 15v12q0 164 -107 264.5t-282 100.5q-177 0 -284 -100.5t-107 -264.5v-622q0 -165 107 -266t284 -101q175 0 282 101.5t107 265.5v8q0 16 16 16l29 -2q16 0 16 -8v-10q0 -192 -124 -310t-326 -118h-39q-5 2 -5 -2q0 -2 3 -5
q139 -110 112 -239q-12 -55 -50.5 -85.5t-85 -33t-95.5 3.5q-16 3 -12 21l4 16q3 15 20 12q62 -13 108 6t56 76q19 109 -106 217q-6 5 -10.5 10t-6 8t-0.5 3q-16 4 -20 6q-151 34 -238.5 144.5t-87.5 271.5v614q0 191 124.5 307.5t328.5 116.5q202 0 326 -116.5t124 -307.5
v-10z" />
    <glyph glyph-name="Egrave" unicode="&#xc8;" horiz-adv-x="1265" 
d="M678 1636q4 -8 0.5 -14t-12.5 -6h-25q-11 0 -18 10l-138 236q-5 8 -1.5 14t12.5 6h30q11 0 19 -12zM1122 1393q0 -17 -16 -17h-807q-6 0 -6 -6v-616q0 -6 6 -6h584q16 0 16 -17v-24q0 -17 -16 -17h-584q-6 0 -6 -6v-621q0 -6 6 -6h807q16 0 16 -16v-25q0 -16 -16 -16
h-858q-17 0 -17 16v1401q0 17 17 17h858q16 0 16 -17v-24z" />
    <glyph glyph-name="Eacute" unicode="&#xc9;" horiz-adv-x="1265" 
d="M793 1882q9 0 12 -6t-2 -14l-137 -236q-7 -10 -19 -10h-24q-9 0 -13 6t0 14l133 234q8 12 19 12h31zM1122 1393q0 -17 -16 -17h-807q-6 0 -6 -6v-616q0 -6 6 -6h584q16 0 16 -17v-24q0 -17 -16 -17h-584q-6 0 -6 -6v-621q0 -6 6 -6h807q16 0 16 -16v-25q0 -16 -16 -16
h-858q-17 0 -17 16v1401q0 17 17 17h858q16 0 16 -17v-24z" />
    <glyph glyph-name="Ecircumflex" unicode="&#xca;" horiz-adv-x="1265" 
d="M670 1800q-4 8 -8 0l-154 -194q-7 -11 -21 -11h-28q-9 0 -11.5 6t3.5 15l176 225q7 10 20 10h31q13 0 20 -10l176 -225q6 -9 3.5 -15t-11.5 -6h-28q-14 0 -21 11zM1122 1393q0 -17 -16 -17h-807q-6 0 -6 -6v-616q0 -6 6 -6h584q16 0 16 -17v-24q0 -17 -16 -17h-584
q-6 0 -6 -6v-621q0 -6 6 -6h807q16 0 16 -16v-25q0 -16 -16 -16h-858q-17 0 -17 16v1401q0 17 17 17h858q16 0 16 -17v-24z" />
    <glyph glyph-name="Edieresis" unicode="&#xcb;" horiz-adv-x="1265" 
d="M510 1692q-31 0 -51.5 18.5t-20.5 46.5t20.5 47t51.5 19q28 0 46.5 -19t18.5 -47t-18.5 -46.5t-46.5 -18.5zM825 1692q-29 0 -49 18.5t-20 46.5t20 47t49 19t48.5 -19t19.5 -47t-19.5 -46.5t-48.5 -18.5zM1122 1393q0 -17 -16 -17h-807q-6 0 -6 -6v-616q0 -6 6 -6h584
q16 0 16 -17v-24q0 -17 -16 -17h-584q-6 0 -6 -6v-621q0 -6 6 -6h807q16 0 16 -16v-25q0 -16 -16 -16h-858q-17 0 -17 16v1401q0 17 17 17h858q16 0 16 -17v-24z" />
    <glyph glyph-name="Igrave" unicode="&#xcc;" horiz-adv-x="524" 
d="M274 1636q4 -8 0.5 -14t-12.5 -6h-24q-12 0 -19 10l-137 236q-5 8 -2 14t12 6h31q10 0 18 -12zM248 0q-17 0 -17 16v1401q0 17 17 17h28q17 0 17 -17v-1401q0 -16 -17 -16h-28z" />
    <glyph glyph-name="Iacute" unicode="&#xcd;" horiz-adv-x="524" 
d="M219 1616q-9 0 -13 6t1 14l133 234q8 12 18 12h31q9 0 12 -6t-2 -14l-137 -236q-7 -10 -18 -10h-25zM248 0q-17 0 -17 16v1401q0 17 17 17h28q17 0 17 -17v-1401q0 -16 -17 -16h-28z" />
    <glyph glyph-name="Icircumflex" unicode="&#xce;" horiz-adv-x="524" 
d="M55 1595q-9 0 -11.5 6t3.5 15l176 225q7 10 21 10h30q14 0 21 -10l176 -225q6 -9 3.5 -15t-11.5 -6h-29q-13 0 -20 11l-148 194q-4 8 -8 0l-154 -194q-7 -11 -20 -11h-29zM248 0q-17 0 -17 16v1401q0 17 17 17h28q17 0 17 -17v-1401q0 -16 -17 -16h-28z" />
    <glyph glyph-name="Idieresis" unicode="&#xcf;" horiz-adv-x="524" 
d="M106 1692q-31 0 -51 18.5t-20 46.5t20 47t51 19q28 0 47 -19t19 -47t-19 -46.5t-47 -18.5zM422 1692q-29 0 -49.5 18.5t-20.5 46.5t20.5 47t49.5 19t48 -19t19 -47t-19 -46.5t-48 -18.5zM248 0q-17 0 -17 16v1401q0 17 17 17h28q17 0 17 -17v-1401q0 -16 -17 -16h-28z
" />
    <glyph glyph-name="Eth" unicode="&#xd0;" horiz-adv-x="1415" 
d="M866 1434q186 0 294 -100t108 -273v-688q0 -173 -108 -273t-294 -100h-469q-16 0 -16 16v701q0 6 -6 6h-127q-17 0 -17 16v21q0 16 17 16h127q6 0 6 6v635q0 17 16 17h469zM1206 375v682q0 149 -89.5 234t-246.5 85h-421q-7 0 -7 -6v-588q0 -6 7 -6h294q17 0 17 -16v-21
q0 -16 -17 -16h-294q-7 0 -7 -6v-654q0 -6 7 -6h421q155 0 245.5 85t90.5 233z" />
    <glyph glyph-name="Ntilde" unicode="&#xd1;" horiz-adv-x="1396" 
d="M829 1661q-54 0 -120 49q-21 16 -32.5 23.5t-30 14.5t-36.5 7q-35 0 -60.5 -12.5t-51.5 -48.5q-10 -17 -25 -6l-14 10q-12 9 -4 22q60 88 153 88q23 0 47 -8.5t35 -14.5t39 -24q65 -45 100 -45q69 0 115 68q9 15 23 6l12 -6q15 -9 0 -33q-28 -47 -69.5 -68.5t-80.5 -21.5
zM248 0q-17 0 -17 16v1401q0 17 17 17h33q13 0 18 -11l797 -1294q1 -2 3 -2.5t3.5 0.5t1.5 4v1286q0 17 16 17h29q16 0 16 -17v-1401q0 -16 -16 -16h-31q-13 0 -18 10l-799 1295q-1 2 -3 2.5t-3.5 -0.5t-1.5 -4v-1287q0 -16 -17 -16h-28z" />
    <glyph glyph-name="Ograve" unicode="&#xd2;" horiz-adv-x="1273" 
d="M647 1632q4 -8 0.5 -14t-12.5 -6h-25q-11 0 -18 10l-137 236q-5 8 -2 14t12 6h31q10 0 18 -12zM635 -14q-205 0 -331 123.5t-126 324.5v563q0 203 126 328t331 125q207 0 334 -125t127 -328v-563q0 -201 -127 -324.5t-334 -123.5zM635 41q180 0 289.5 107t109.5 284v567
q0 177 -109.5 285.5t-289.5 108.5q-178 0 -286.5 -108.5t-108.5 -285.5v-567q0 -177 108 -284t287 -107z" />
    <glyph glyph-name="Oacute" unicode="&#xd3;" horiz-adv-x="1273" 
d="M592 1612q-9 0 -12.5 6t0.5 14l133 234q8 12 18 12h31q9 0 12 -6t-2 -14l-137 -236q-7 -10 -19 -10h-24zM635 -14q-205 0 -331 123.5t-126 324.5v563q0 203 126 328t331 125q207 0 334 -125t127 -328v-563q0 -201 -127 -324.5t-334 -123.5zM635 41q180 0 289.5 107
t109.5 284v567q0 177 -109.5 285.5t-289.5 108.5q-178 0 -286.5 -108.5t-108.5 -285.5v-567q0 -177 108 -284t287 -107z" />
    <glyph glyph-name="Ocircumflex" unicode="&#xd4;" horiz-adv-x="1273" 
d="M428 1591q-9 0 -11.5 6t3.5 15l176 225q7 10 20 10h31q14 0 21 -10l176 -225q6 -9 3.5 -15t-11.5 -6h-29q-14 0 -21 11l-147 194q-4 8 -8 0l-154 -194q-7 -11 -20 -11h-29zM635 -14q-205 0 -331 123.5t-126 324.5v563q0 203 126 328t331 125q207 0 334 -125t127 -328
v-563q0 -201 -127 -324.5t-334 -123.5zM635 41q180 0 289.5 107t109.5 284v567q0 177 -109.5 285.5t-289.5 108.5q-178 0 -286.5 -108.5t-108.5 -285.5v-567q0 -177 108 -284t287 -107z" />
    <glyph glyph-name="Otilde" unicode="&#xd5;" horiz-adv-x="1273" 
d="M764 1657q-55 0 -121 49q-22 16 -32.5 23.5t-29 14.5t-36.5 7q-35 0 -61 -12.5t-52 -48.5q-10 -17 -24 -7l-15 11q-12 9 -4 22q60 88 154 88q23 0 47 -8.5t35 -14.5t39 -24q65 -45 100 -45q69 0 115 68q8 14 22 6l12 -6q15 -9 0 -33q-28 -47 -69 -68.5t-80 -21.5z
M635 -14q-205 0 -331 123.5t-126 324.5v563q0 203 126 328t331 125q207 0 334 -125t127 -328v-563q0 -201 -127 -324.5t-334 -123.5zM635 41q180 0 289.5 107t109.5 284v567q0 177 -109.5 285.5t-289.5 108.5q-178 0 -286.5 -108.5t-108.5 -285.5v-567q0 -177 108 -284
t287 -107z" />
    <glyph glyph-name="Odieresis" unicode="&#xd6;" horiz-adv-x="1273" 
d="M479 1688q-31 0 -51 18.5t-20 46.5t20 47t51 19q28 0 47 -19t19 -47t-19 -46.5t-47 -18.5zM795 1688q-29 0 -49.5 18.5t-20.5 46.5t20.5 47t49.5 19t48 -19t19 -47t-19 -46.5t-48 -18.5zM635 -14q-205 0 -331 123.5t-126 324.5v563q0 203 126 328t331 125q207 0 334 -125
t127 -328v-563q0 -201 -127 -324.5t-334 -123.5zM635 41q180 0 289.5 107t109.5 284v567q0 177 -109.5 285.5t-289.5 108.5q-178 0 -286.5 -108.5t-108.5 -285.5v-567q0 -177 108 -284t287 -107z" />
    <glyph glyph-name="multiply" unicode="&#xd7;" horiz-adv-x="835" 
d="M733 954q5 -4 5 -12t-5 -12l-266 -266q-1 -2 -1 -5t1 -4l258 -260q13 -13 2 -24l-16 -17q-5 -4 -13 -4t-12 4l-260 260q-4 4 -8 0l-266 -266q-4 -4 -12 -4t-13 4l-14 14q-5 4 -5 12t5 13l266 266q1 1 1 4t-1 5l-275 276q-4 4 -4 12t4 13l15 14q5 5 12 5t12 -5l277 -275
q4 -4 8 0l266 267q4 5 12 5t13 -5z" />
    <glyph glyph-name="Oslash" unicode="&#xd8;" horiz-adv-x="1275" 
d="M913 1378q-4 -4 2 -10q87 -59 135 -154.5t48 -216.5v-563q0 -201 -127 -324.5t-334 -123.5q-171 0 -287 86q-6 3 -8 -2l-53 -121q-5 -12 -21 -12h-24q-19 0 -13 18l68 156q3 3 -2 8q-117 120 -117 315v563q0 203 126 328t331 125q125 0 221 -47q3 -1 8 4l43 96
q5 13 21 13h24q19 0 13 -19zM242 432q0 -148 80 -252q7 -7 10 2l508 1157q5 5 -4 9q-88 45 -199 45q-178 0 -286.5 -108.5t-108.5 -285.5v-567zM1036 432v567q0 100 -37 181t-104 133q-6 3 -8 -2l-516 -1176q-3 -3 2 -8q106 -86 264 -86q180 0 289.5 107t109.5 284z" />
    <glyph glyph-name="Ugrave" unicode="&#xd9;" horiz-adv-x="1349" 
d="M686 1640q4 -8 0.5 -14t-12.5 -6h-25q-11 0 -18 10l-137 236q-5 8 -2 14t12 6h31q10 0 18 -12zM674 -16q-207 0 -334 121t-127 319v993q0 17 16 17h29q16 0 16 -17v-999q0 -169 110 -273t290 -104q181 0 290 104t109 273v999q0 17 17 17h28q17 0 17 -17v-993
q0 -198 -127 -319t-334 -121z" />
    <glyph glyph-name="Uacute" unicode="&#xda;" horiz-adv-x="1349" 
d="M631 1620q-9 0 -13 6t0 14l134 234q8 12 18 12h31q9 0 12 -6t-2 -14l-137 -236q-7 -10 -19 -10h-24zM674 -16q-207 0 -334 121t-127 319v993q0 17 16 17h29q16 0 16 -17v-999q0 -169 110 -273t290 -104q181 0 290 104t109 273v999q0 17 17 17h28q17 0 17 -17v-993
q0 -198 -127 -319t-334 -121z" />
    <glyph glyph-name="Ucircumflex" unicode="&#xdb;" horiz-adv-x="1349" 
d="M467 1599q-9 0 -11.5 6t3.5 15l176 225q7 10 20 10h31q14 0 21 -10l176 -225q6 -9 3 -15t-12 -6h-28q-14 0 -21 11l-147 194q-4 8 -8 0l-154 -194q-7 -11 -20 -11h-29zM674 -16q-207 0 -334 121t-127 319v993q0 17 16 17h29q16 0 16 -17v-999q0 -169 110 -273t290 -104
q181 0 290 104t109 273v999q0 17 17 17h28q17 0 17 -17v-993q0 -198 -127 -319t-334 -121z" />
    <glyph glyph-name="Udieresis" unicode="&#xdc;" horiz-adv-x="1349" 
d="M518 1696q-31 0 -51.5 18.5t-20.5 46.5t20.5 47t51.5 19q28 0 47 -19t19 -47t-19 -46.5t-47 -18.5zM834 1696q-29 0 -49.5 18.5t-20.5 46.5t20.5 47t49.5 19t48 -19t19 -47t-19 -46.5t-48 -18.5zM674 -16q-207 0 -334 121t-127 319v993q0 17 16 17h29q16 0 16 -17v-999
q0 -169 110 -273t290 -104q181 0 290 104t109 273v999q0 17 17 17h28q17 0 17 -17v-993q0 -198 -127 -319t-334 -121z" />
    <glyph glyph-name="Yacute" unicode="&#xdd;" horiz-adv-x="1101" 
d="M508 1593q-9 0 -13 6.5t1 14.5l133 233q9 13 18 13h31q9 0 12 -7t-2 -14l-137 -235q-7 -11 -19 -11h-24zM537 0q-17 0 -17 16v664q0 4 -2 8l-430 725q-5 7 -2 14t12 7h29q11 0 18 -11l402 -675q4 -8 8 0l401 675q7 11 19 11h29q9 0 12 -7t-2 -14l-430 -725q-2 -4 -2 -8
v-664q0 -16 -17 -16h-28z" />
    <glyph glyph-name="Thorn" unicode="&#xde;" horiz-adv-x="1146" 
d="M688 1092q167 0 269 -104t102 -273q0 -168 -102.5 -270.5t-270.5 -102.5h-403q-7 0 -7 -6v-320q0 -16 -16 -16h-29q-16 0 -16 16v1401q0 17 16 17h29q16 0 16 -17v-319q0 -6 7 -6h405zM688 397q138 0 223.5 88t85.5 230q0 144 -85 231.5t-224 87.5h-405q-7 0 -7 -6v-625
q0 -6 7 -6h405z" />
    <glyph glyph-name="germandbls" unicode="&#xdf;" horiz-adv-x="1181" 
d="M213 0q-16 0 -16 16v1059q1 173 112.5 275t282.5 102q199 0 307 -96t113 -269q1 -124 -52.5 -209t-150.5 -116q-8 -4 0 -8q100 -37 156.5 -133.5t56.5 -235.5q0 -182 -114 -283.5t-337 -101.5h-184q-16 0 -16 16v23q0 16 16 16h186q194 0 291 86t97 246q0 338 -332 344
h-174q-17 0 -17 17v20q0 16 17 16h176q163 0 242.5 78t76.5 225q-5 151 -94 230.5t-264 79.5q-143 0 -238 -85.5t-96 -234.5v-1061q0 -16 -16 -16h-29z" />
    <glyph glyph-name="agrave" unicode="&#xe0;" horiz-adv-x="1024" 
d="M535 1225q4 -7 0 -14t-13 -7h-24q-12 0 -19 10l-137 236q-5 8 -2 14t12 6h31q10 0 18 -12zM518 1042q174 0 259 -90.5t85 -249.5v-686q0 -16 -16 -16h-29q-16 0 -16 16v113q0 10 -8 2q-51 -72 -142.5 -109.5t-199.5 -37.5q-64 0 -120.5 15t-105.5 46.5t-77.5 88
t-28.5 132.5q0 148 112 233t308 85h256q6 0 6 6v117q0 127 -70 202.5t-219 75.5q-116 0 -192 -48.5t-91 -131.5q-3 -17 -18 -14l-31 6q-17 3 -14 14q20 105 114.5 168t237.5 63zM455 39q88 0 164.5 27t129 87t52.5 144v225q0 6 -6 6h-258q-160 0 -258.5 -69t-98.5 -191
q0 -113 77 -171t198 -58z" />
    <glyph glyph-name="aacute" unicode="&#xe1;" horiz-adv-x="1024" 
d="M649 1470q9 0 12 -6t-2 -14l-137 -236q-7 -10 -18 -10h-25q-9 0 -13 7t1 14l133 233q8 12 18 12h31zM518 1042q174 0 259 -90.5t85 -249.5v-686q0 -16 -16 -16h-29q-16 0 -16 16v113q0 10 -8 2q-51 -72 -142.5 -109.5t-199.5 -37.5q-64 0 -120.5 15t-105.5 46.5t-77.5 88
t-28.5 132.5q0 148 112 233t308 85h256q6 0 6 6v117q0 127 -70 202.5t-219 75.5q-116 0 -192 -48.5t-91 -131.5q-3 -17 -18 -14l-31 6q-17 3 -14 14q20 105 114.5 168t237.5 63zM455 39q88 0 164.5 27t129 87t52.5 144v225q0 6 -6 6h-258q-160 0 -258.5 -69t-98.5 -191
q0 -113 77 -171t198 -58z" />
    <glyph glyph-name="acircumflex" unicode="&#xe2;" horiz-adv-x="1024" 
d="M526 1389q-4 8 -8 0l-153 -195q-7 -10 -21 -10h-29q-21 0 -8 20l176 226q7 10 21 10h31q13 0 20 -10l176 -226q13 -20 -8 -20h-29q-13 0 -20 10zM518 1042q174 0 259 -90.5t85 -249.5v-686q0 -16 -16 -16h-29q-16 0 -16 16v113q0 10 -8 2q-51 -72 -142.5 -109.5
t-199.5 -37.5q-64 0 -120.5 15t-105.5 46.5t-77.5 88t-28.5 132.5q0 148 112 233t308 85h256q6 0 6 6v117q0 127 -70 202.5t-219 75.5q-116 0 -192 -48.5t-91 -131.5q-3 -17 -18 -14l-31 6q-17 3 -14 14q20 105 114.5 168t237.5 63zM455 39q88 0 164.5 27t129 87t52.5 144
v225q0 6 -6 6h-258q-160 0 -258.5 -69t-98.5 -191q0 -113 77 -171t198 -58z" />
    <glyph glyph-name="atilde" unicode="&#xe3;" horiz-adv-x="1024" 
d="M432 1343q-35 0 -61 -12.5t-52 -48.5q-10 -17 -24 -6l-14 10q-13 10 -5 23q60 88 154 88q23 0 47 -8.5t35 -14.5t39 -24q65 -45 100 -45q70 0 115 67q8 14 22 6l13 -6q16 -9 6 -22q-28 -52 -71.5 -76.5t-84.5 -24.5q-55 0 -121 49q-22 16 -32.5 23.5t-29 14.5t-36.5 7z
M518 1042q174 0 259 -90.5t85 -249.5v-686q0 -16 -16 -16h-29q-16 0 -16 16v113q0 10 -8 2q-51 -72 -142.5 -109.5t-199.5 -37.5q-64 0 -120.5 15t-105.5 46.5t-77.5 88t-28.5 132.5q0 148 112 233t308 85h256q6 0 6 6v117q0 127 -70 202.5t-219 75.5q-116 0 -192 -48.5
t-91 -131.5q-3 -17 -18 -14l-31 6q-17 3 -14 14q20 105 114.5 168t237.5 63zM455 39q88 0 164.5 27t129 87t52.5 144v225q0 6 -6 6h-258q-160 0 -258.5 -69t-98.5 -191q0 -113 77 -171t198 -58z" />
    <glyph glyph-name="adieresis" unicode="&#xe4;" horiz-adv-x="1024" 
d="M367 1280q-31 0 -51.5 19t-20.5 47t20.5 46.5t51.5 18.5q28 0 46.5 -18.5t18.5 -46.5t-18.5 -47t-46.5 -19zM682 1280q-29 0 -49.5 19t-20.5 47t20.5 46.5t49.5 18.5t48.5 -18.5t19.5 -46.5t-19.5 -47t-48.5 -19zM518 1042q174 0 259 -90.5t85 -249.5v-686q0 -16 -16 -16
h-29q-16 0 -16 16v113q0 10 -8 2q-51 -72 -142.5 -109.5t-199.5 -37.5q-64 0 -120.5 15t-105.5 46.5t-77.5 88t-28.5 132.5q0 148 112 233t308 85h256q6 0 6 6v117q0 127 -70 202.5t-219 75.5q-116 0 -192 -48.5t-91 -131.5q-3 -17 -18 -14l-31 6q-17 3 -14 14
q20 105 114.5 168t237.5 63zM455 39q88 0 164.5 27t129 87t52.5 144v225q0 6 -6 6h-258q-160 0 -258.5 -69t-98.5 -191q0 -113 77 -171t198 -58z" />
    <glyph glyph-name="aring" unicode="&#xe5;" horiz-adv-x="1024" 
d="M522 1192q-86 0 -145.5 58t-59.5 143q0 83 59.5 141.5t145.5 58.5q85 0 144 -58.5t59 -141.5q0 -85 -59 -143t-144 -58zM522 1544q-64 0 -108.5 -43.5t-44.5 -107.5t45 -108t108 -44q64 0 109 44t45 108t-45 107.5t-109 43.5zM518 1042q174 0 259 -90.5t85 -249.5v-686
q0 -16 -16 -16h-29q-16 0 -16 16v113q0 10 -8 2q-51 -72 -142.5 -109.5t-199.5 -37.5q-64 0 -120.5 15t-105.5 46.5t-77.5 88t-28.5 132.5q0 148 112 233t308 85h256q6 0 6 6v117q0 127 -70 202.5t-219 75.5q-116 0 -192 -48.5t-91 -131.5q-3 -17 -18 -14l-31 6
q-17 3 -14 14q20 105 114.5 168t237.5 63zM455 39q88 0 164.5 27t129 87t52.5 144v225q0 6 -6 6h-258q-160 0 -258.5 -69t-98.5 -191q0 -113 77 -171t198 -58z" />
    <glyph glyph-name="ae" unicode="&#xe6;" horiz-adv-x="1699" 
d="M455 -16q-65 0 -122.5 15t-106.5 46t-78 87.5t-29 131.5q0 147 111 226t309 79h256q6 0 6 6v130q0 127 -70 203.5t-219 76.5q-115 0 -191.5 -48.5t-93.5 -131.5q-3 -17 -18 -14l-29 6q-17 3 -14 18q20 102 115 164.5t235 62.5q131 0 211.5 -52.5t110.5 -147.5q5 -10 8 0
q38 90 124.5 145t200.5 55q137 0 235 -74.5t126 -195.5q9 -38 10.5 -75.5t1.5 -164.5q0 -18 -16 -18h-658q-6 0 -6 -6v-211q0 -122 90 -189t222 -67q106 0 182.5 51t109.5 137q4 8 5 9q4 12 16 8l22 -4q19 -4 13 -19q-35 -107 -128 -173t-222 -66q-126 0 -215 50t-121 146
q-3 5 -6 4q-1 0 -1 -2q-35 -94 -140.5 -146t-235.5 -52zM864 575q0 -6 6 -6h609q6 0 6 6q-4 134 -10 168q-19 108 -101 175t-203 67q-119 0 -199.5 -67t-99.5 -175q-8 -47 -8 -168zM455 39q65 0 125 15.5t110.5 45.5t80.5 81t30 116v211q0 6 -6 6h-258q-162 0 -259.5 -63.5
t-97.5 -184.5q0 -112 76.5 -169.5t198.5 -57.5z" />
    <glyph glyph-name="ccedilla" unicode="&#xe7;" horiz-adv-x="1044" 
d="M862 264q1 2 1 4.5t1 3.5v9q2 10 19 10l26 -2q15 -3 15 -15v-8q0 -12 -6 -33q-24 -107 -126.5 -178t-242.5 -71q2 -5 6 -7q140 -110 113 -239q-12 -55 -51 -85.5t-85.5 -33t-95.5 3.5q-16 3 -12 21l4 16q3 16 21 12q38 -7 72 -4t59 25t32 61q21 113 -123 232q-4 2 -8 2
q-114 18 -191.5 89t-105.5 177q-24 91 -24 262q0 157 24 256q30 122 127.5 196t237.5 74t241 -71.5t128 -177.5q7 -31 10 -56q3 -14 -15 -18l-28 -2q-16 -3 -19 14l-6 33q-19 94 -104 157.5t-207 63.5q-125 0 -207.5 -67t-103.5 -175q-17 -91 -17 -229q0 -140 17 -231
q22 -110 104 -176t207 -66q123 0 210.5 64.5t102.5 158.5z" />
    <glyph glyph-name="egrave" unicode="&#xe8;" horiz-adv-x="1077" 
d="M551 1225q5 -7 1 -14t-13 -7h-25q-11 0 -18 10l-138 236q-5 8 -1.5 14t12.5 6h30q11 0 19 -12zM543 41q111 0 190.5 51t112.5 137q1 1 2 4.5t2 4.5q5 10 12 6h8l21 -4q17 -3 10 -21q-38 -106 -133 -170.5t-227 -64.5q-138 0 -234 72.5t-129 193.5q-18 70 -18 266
q0 179 16 254q28 124 125 198t240 74q147 0 245 -77t125 -205q9 -38 11 -81.5t2 -162.5q0 -16 -17 -16h-680q-6 0 -6 -6q0 -172 10 -211q21 -109 104 -175.5t208 -66.5zM541 985q-124 0 -206.5 -66.5t-103.5 -173.5q-10 -49 -10 -186q0 -6 6 -6h629q6 0 6 6q0 138 -10 184
q-22 108 -105 175t-206 67z" />
    <glyph glyph-name="eacute" unicode="&#xe9;" horiz-adv-x="1077" 
d="M666 1470q9 0 12 -6t-2 -14l-137 -236q-7 -10 -19 -10h-24q-9 0 -13 7t0 14l133 233q8 12 19 12h31zM543 41q111 0 190.5 51t112.5 137q1 1 2 4.5t2 4.5q5 10 12 6h8l21 -4q17 -3 10 -21q-38 -106 -133 -170.5t-227 -64.5q-138 0 -234 72.5t-129 193.5q-18 70 -18 266
q0 179 16 254q28 124 125 198t240 74q147 0 245 -77t125 -205q9 -38 11 -81.5t2 -162.5q0 -16 -17 -16h-680q-6 0 -6 -6q0 -172 10 -211q21 -109 104 -175.5t208 -66.5zM541 985q-124 0 -206.5 -66.5t-103.5 -173.5q-10 -49 -10 -186q0 -6 6 -6h629q6 0 6 6q0 138 -10 184
q-22 108 -105 175t-206 67z" />
    <glyph glyph-name="ecircumflex" unicode="&#xea;" horiz-adv-x="1077" 
d="M543 1389q-4 8 -8 0l-154 -195q-7 -10 -21 -10h-28q-21 0 -8 20l176 226q7 10 20 10h31q13 0 20 -10l177 -226q6 -9 3 -14.5t-12 -5.5h-28q-14 0 -21 10zM543 41q111 0 190.5 51t112.5 137q1 1 2 4.5t2 4.5q5 10 12 6h8l21 -4q17 -3 10 -21q-38 -106 -133 -170.5
t-227 -64.5q-138 0 -234 72.5t-129 193.5q-18 70 -18 266q0 179 16 254q28 124 125 198t240 74q147 0 245 -77t125 -205q9 -38 11 -81.5t2 -162.5q0 -16 -17 -16h-680q-6 0 -6 -6q0 -172 10 -211q21 -109 104 -175.5t208 -66.5zM541 985q-124 0 -206.5 -66.5t-103.5 -173.5
q-10 -49 -10 -186q0 -6 6 -6h629q6 0 6 6q0 138 -10 184q-22 108 -105 175t-206 67z" />
    <glyph glyph-name="edieresis" unicode="&#xeb;" horiz-adv-x="1077" 
d="M383 1280q-31 0 -51.5 19t-20.5 47t20.5 46.5t51.5 18.5q28 0 47 -18.5t19 -46.5t-19 -47t-47 -19zM698 1280q-29 0 -49 19t-20 47t20 46.5t49 18.5t48.5 -18.5t19.5 -46.5t-19.5 -47t-48.5 -19zM543 41q111 0 190.5 51t112.5 137q1 1 2 4.5t2 4.5q5 10 12 6h8l21 -4
q17 -3 10 -21q-38 -106 -133 -170.5t-227 -64.5q-138 0 -234 72.5t-129 193.5q-18 70 -18 266q0 179 16 254q28 124 125 198t240 74q147 0 245 -77t125 -205q9 -38 11 -81.5t2 -162.5q0 -16 -17 -16h-680q-6 0 -6 -6q0 -172 10 -211q21 -109 104 -175.5t208 -66.5zM541 985
q-124 0 -206.5 -66.5t-103.5 -173.5q-10 -49 -10 -186q0 -6 6 -6h629q6 0 6 6q0 138 -10 184q-22 108 -105 175t-206 67z" />
    <glyph glyph-name="igrave" unicode="&#xec;" horiz-adv-x="428" 
d="M223 1227q5 -7 1 -14t-13 -7h-25q-11 0 -18 11l-137 235q-5 8 -2 14.5t12 6.5h31q9 0 18 -13zM197 0q-17 0 -17 16v994q0 16 17 16h28q17 0 17 -16v-994q0 -16 -17 -16h-28z" />
    <glyph glyph-name="iacute" unicode="&#xed;" horiz-adv-x="428" 
d="M168 1206q-9 0 -13 7t1 14l133 233q9 13 18 13h31q9 0 12 -6.5t-2 -14.5l-137 -235q-7 -11 -18 -11h-25zM197 0q-17 0 -17 16v994q0 16 17 16h28q17 0 17 -16v-994q0 -16 -17 -16h-28z" />
    <glyph glyph-name="icircumflex" unicode="&#xee;" horiz-adv-x="428" 
d="M4 1186q-21 0 -8 20l176 226q7 10 21 10h30q14 0 21 -10l176 -226q13 -20 -8 -20h-29q-14 0 -21 10l-147 195q-4 8 -8 0l-154 -195q-7 -10 -20 -10h-29zM197 0q-17 0 -17 16v994q0 16 17 16h28q17 0 17 -16v-994q0 -16 -17 -16h-28z" />
    <glyph glyph-name="idieresis" unicode="&#xef;" horiz-adv-x="610" 
d="M150 1282q-31 0 -51.5 19t-20.5 47t20.5 46.5t51.5 18.5q28 0 46.5 -18.5t18.5 -46.5t-18.5 -47t-46.5 -19zM465 1282q-29 0 -49.5 19t-20.5 47t20.5 46.5t49.5 18.5t48 -18.5t19 -46.5t-19 -47t-48 -19zM297 0q-16 0 -16 16v994q0 16 16 16h29q16 0 16 -16v-994
q0 -16 -16 -16h-29z" />
    <glyph glyph-name="eth" unicode="&#xf0;" horiz-adv-x="1060" 
d="M899 510q0 -20 0.5 -64t0 -61t-1.5 -46t-3.5 -48.5t-7.5 -38.5q-28 -120 -125.5 -194t-235.5 -74q-137 0 -230.5 73.5t-123.5 194.5q-3 13 -5 27t-3.5 25.5t-2.5 30.5t-2 29.5t-1 34.5v33.5v39.5v40v41.5v40v33.5t1 33.5t2 28t2.5 29t3.5 23.5t5 25q27 118 117.5 190.5
t222.5 75.5q178 3 283 -108q6 -6 6 2q-40 148 -172 293q-2 2 -8 2l-177 -58q-17 -7 -20 11l-4 16q-3 15 10 18l150 52q7 3 2 8q-75 72 -168 145q-9 7 -6 14t14 7h37q9 0 20 -7q7 -6 70 -57t94 -84q2 -2 8 -2l146 47q17 7 20 -10l4 -14q7 -16 -10 -23l-119 -39q-7 -3 -2 -8
q185 -217 205 -522q4 -38 4 -205zM829 281q9 39 9 229t-9 229q-21 107 -102.5 173.5t-200.5 66.5t-198.5 -66.5t-100.5 -173.5q-8 -45 -8 -229q0 -188 8 -229q21 -109 100.5 -175.5t198.5 -66.5t200.5 67t102.5 175z" />
    <glyph glyph-name="ntilde" unicode="&#xf1;" horiz-adv-x="1095" 
d="M457 1327q-35 0 -61 -12.5t-52 -48.5q-10 -17 -25 -6l-14 10q-12 9 -4 22q60 88 154 88q7 0 14.5 -1t13 -2t13 -3t12 -3.5t12 -5.5t11 -5.5t11.5 -6t11 -6.5t11.5 -7.5t10.5 -6.5q65 -45 101 -45q69 0 115 68q8 14 22 6l12 -6q16 -10 6 -23q-28 -52 -71 -76t-84 -24
q-55 0 -121 49q-22 16 -32.5 23.5t-29 14.5t-36.5 7zM571 1040q154 0 250.5 -95.5t96.5 -248.5v-680q0 -16 -17 -16h-29q-16 0 -16 16v670q0 132 -82 214.5t-211 82.5q-137 0 -221 -81t-84 -212v-674q0 -16 -16 -16h-29q-16 0 -16 16v994q0 16 16 16h29q16 0 16 -16v-123
q0 -6 4 -6q1 0 2 2q45 76 123.5 116.5t183.5 40.5z" />
    <glyph glyph-name="ograve" unicode="&#xf2;" horiz-adv-x="1085" 
d="M555 1225q5 -7 1 -14t-13 -7h-25q-11 0 -18 10l-138 236q-5 8 -1.5 14t12.5 6h30q11 0 19 -12zM543 -16q-142 0 -239 73.5t-128 196.5q-16 68 -16 262q0 181 16 256q30 122 128.5 196t238.5 74q141 0 241.5 -74.5t126.5 -195.5q15 -64 15 -258q0 -82 -0.5 -110.5
t-3.5 -73t-11 -76.5q-28 -121 -127.5 -195.5t-240.5 -74.5zM543 41q122 0 206.5 67t106.5 175q8 45 8 231t-8 229q-21 108 -105.5 175t-207.5 67q-124 0 -207.5 -67t-104.5 -175q-10 -56 -10 -229q0 -177 10 -231q21 -109 104.5 -175.5t207.5 -66.5z" />
    <glyph glyph-name="oacute" unicode="&#xf3;" horiz-adv-x="1085" 
d="M500 1204q-9 0 -13 7t0 14l134 233q8 12 18 12h31q9 0 12 -6t-2 -14l-137 -236q-7 -10 -19 -10h-24zM543 -16q-142 0 -239 73.5t-128 196.5q-16 68 -16 262q0 181 16 256q30 122 128.5 196t238.5 74q141 0 241.5 -74.5t126.5 -195.5q15 -64 15 -258q0 -82 -0.5 -110.5
t-3.5 -73t-11 -76.5q-28 -121 -127.5 -195.5t-240.5 -74.5zM543 41q122 0 206.5 67t106.5 175q8 45 8 231t-8 229q-21 108 -105.5 175t-207.5 67q-124 0 -207.5 -67t-104.5 -175q-10 -56 -10 -229q0 -177 10 -231q21 -109 104.5 -175.5t207.5 -66.5z" />
    <glyph glyph-name="ocircumflex" unicode="&#xf4;" horiz-adv-x="1085" 
d="M336 1184q-21 0 -8 20l176 226q7 10 20 10h31q13 0 20 -10l177 -226q6 -9 3 -14.5t-12 -5.5h-28q-14 0 -21 10l-147 195q-4 8 -8 0l-154 -195q-7 -10 -20 -10h-29zM543 -16q-142 0 -239 73.5t-128 196.5q-16 68 -16 262q0 181 16 256q30 122 128.5 196t238.5 74
q141 0 241.5 -74.5t126.5 -195.5q15 -64 15 -258q0 -82 -0.5 -110.5t-3.5 -73t-11 -76.5q-28 -121 -127.5 -195.5t-240.5 -74.5zM543 41q122 0 206.5 67t106.5 175q8 45 8 231t-8 229q-21 108 -105.5 175t-207.5 67q-124 0 -207.5 -67t-104.5 -175q-10 -56 -10 -229
q0 -177 10 -231q21 -109 104.5 -175.5t207.5 -66.5z" />
    <glyph glyph-name="otilde" unicode="&#xf5;" horiz-adv-x="1085" 
d="M672 1249q-55 0 -121 49q-22 16 -32.5 23.5t-29 14.5t-36.5 7q-35 0 -61 -12.5t-52 -48.5q-10 -17 -25 -6l-14 10q-12 9 -4 23q60 88 154 88q7 0 14.5 -1t13 -2t13 -3t12 -3.5t12 -5.5t11 -5.5t11.5 -6t11 -6.5t11.5 -7.5t10.5 -6.5q65 -45 101 -45q69 0 114 67
q9 15 23 6l12 -6q15 -9 0 -33q-28 -47 -69 -68.5t-80 -21.5zM543 -16q-142 0 -239 73.5t-128 196.5q-16 68 -16 262q0 181 16 256q30 122 128.5 196t238.5 74q141 0 241.5 -74.5t126.5 -195.5q15 -64 15 -258q0 -82 -0.5 -110.5t-3.5 -73t-11 -76.5q-28 -121 -127.5 -195.5
t-240.5 -74.5zM543 41q122 0 206.5 67t106.5 175q8 45 8 231t-8 229q-21 108 -105.5 175t-207.5 67q-124 0 -207.5 -67t-104.5 -175q-10 -56 -10 -229q0 -177 10 -231q21 -109 104.5 -175.5t207.5 -66.5z" />
    <glyph glyph-name="odieresis" unicode="&#xf6;" horiz-adv-x="1085" 
d="M387 1280q-31 0 -51.5 19t-20.5 47t20.5 46.5t51.5 18.5q28 0 47 -18.5t19 -46.5t-19 -47t-47 -19zM702 1280q-29 0 -49 19t-20 47t20 46.5t49 18.5t48.5 -18.5t19.5 -46.5t-19.5 -47t-48.5 -19zM543 -16q-142 0 -239 73.5t-128 196.5q-16 68 -16 262q0 181 16 256
q30 122 128.5 196t238.5 74q141 0 241.5 -74.5t126.5 -195.5q15 -64 15 -258q0 -82 -0.5 -110.5t-3.5 -73t-11 -76.5q-28 -121 -127.5 -195.5t-240.5 -74.5zM543 41q122 0 206.5 67t106.5 175q8 45 8 231t-8 229q-21 108 -105.5 175t-207.5 67q-124 0 -207.5 -67
t-104.5 -175q-10 -56 -10 -229q0 -177 10 -231q21 -109 104.5 -175.5t207.5 -66.5z" />
    <glyph glyph-name="divide" unicode="&#xf7;" horiz-adv-x="1040" 
d="M518 928q-37 0 -62.5 25.5t-25.5 62.5q0 35 26.5 60.5t61.5 25.5q36 0 63 -25.5t27 -60.5q0 -36 -27 -62t-63 -26zM109 655q-17 0 -17 17v22q0 17 17 17h825q16 0 16 -17v-22q0 -17 -16 -17h-825zM518 305q-37 0 -62.5 25.5t-25.5 62.5q0 35 26.5 60.5t61.5 25.5
q36 0 63 -25.5t27 -60.5q0 -36 -27 -62t-63 -26z" />
    <glyph glyph-name="oslash" unicode="&#xf8;" horiz-adv-x="1091" 
d="M932 514v-42v-40.5v-33.5t-1 -34t-2 -28.5t-2.5 -29.5t-3.5 -25t-5 -27q-28 -121 -128 -195.5t-241 -74.5q-155 0 -256 88q-3 3 -8 -2l-70 -105q-9 -16 -22 -6l-21 14q-12 9 -4 23l78 119q2 4 -2 8q-45 60 -62 131q-16 68 -16 262q0 181 16 256q30 122 128.5 196
t238.5 74t239 -71q4 -3 9 2l59 90q10 16 23 6l22 -14q13 -10 4 -25l-65 -100q-3 -3 2 -8q58 -64 76 -150q3 -13 5 -27t3.5 -26t2.5 -30.5t2 -29t1 -34.5v-33.5v-38.5v-39zM238 283q12 -61 41 -105q4 -8 8 0l469 733q4 5 0 9q-84 65 -207 65q-124 0 -207 -67t-104 -175
q-11 -62 -11 -229q0 -172 11 -231zM862 283q8 45 8 231t-8 229q-15 71 -55 123q-4 8 -8 0l-477 -737q-3 -3 2 -8q86 -80 225 -80q122 0 206.5 67t106.5 175z" />
    <glyph glyph-name="ugrave" unicode="&#xf9;" horiz-adv-x="1093" 
d="M559 1208q5 -8 1 -14t-13 -6h-25q-11 0 -18 10l-137 236q-5 8 -2 14t12 6h31q10 0 18 -12zM836 1010q0 16 16 16h29q16 0 16 -16v-994q0 -16 -16 -16h-29q-16 0 -16 16v123q0 4 -3 4.5t-4 -2.5q-45 -74 -124 -114.5t-183 -40.5q-153 0 -248.5 91.5t-95.5 246.5v686
q0 16 17 16h28q17 0 17 -16v-674q0 -134 80 -213.5t210 -79.5q139 0 222.5 81t83.5 212v674z" />
    <glyph glyph-name="uacute" unicode="&#xfa;" horiz-adv-x="1093" 
d="M674 1454q9 0 12 -6t-2 -14l-137 -236q-7 -10 -19 -10h-24q-9 0 -12.5 6t0.5 14l133 234q8 12 18 12h31zM836 1010q0 16 16 16h29q16 0 16 -16v-994q0 -16 -16 -16h-29q-16 0 -16 16v123q0 4 -3 4.5t-4 -2.5q-45 -74 -124 -114.5t-183 -40.5q-153 0 -248.5 91.5
t-95.5 246.5v686q0 16 17 16h28q17 0 17 -16v-674q0 -134 80 -213.5t210 -79.5q139 0 222.5 81t83.5 212v674z" />
    <glyph glyph-name="ucircumflex" unicode="&#xfb;" horiz-adv-x="1093" 
d="M551 1372q-4 8 -8 0l-154 -194q-7 -11 -20 -11h-29q-9 0 -11.5 6t3.5 15l176 225q7 10 20 10h31q14 0 21 -10l176 -225q6 -9 3.5 -15t-11.5 -6h-29q-14 0 -21 11zM836 1010q0 16 16 16h29q16 0 16 -16v-994q0 -16 -16 -16h-29q-16 0 -16 16v123q0 4 -3 4.5t-4 -2.5
q-45 -74 -124 -114.5t-183 -40.5q-153 0 -248.5 91.5t-95.5 246.5v686q0 16 17 16h28q17 0 17 -16v-674q0 -134 80 -213.5t210 -79.5q139 0 222.5 81t83.5 212v674z" />
    <glyph glyph-name="udieresis" unicode="&#xfc;" horiz-adv-x="1093" 
d="M391 1264q-31 0 -51.5 18.5t-20.5 46.5t20.5 47t51.5 19q28 0 47 -19t19 -47t-19 -46.5t-47 -18.5zM707 1264q-29 0 -49.5 18.5t-20.5 46.5t20.5 47t49.5 19t48 -19t19 -47t-19 -46.5t-48 -18.5zM836 1010q0 16 16 16h29q16 0 16 -16v-994q0 -16 -16 -16h-29
q-16 0 -16 16v123q0 4 -3 4.5t-4 -2.5q-45 -74 -124 -114.5t-183 -40.5q-153 0 -248.5 91.5t-95.5 246.5v686q0 16 17 16h28q17 0 17 -16v-674q0 -134 80 -213.5t210 -79.5q139 0 222.5 81t83.5 212v674z" />
    <glyph glyph-name="yacute" unicode="&#xfd;" horiz-adv-x="890" 
d="M401 1190q-9 0 -13 6t1 14l133 234q8 12 19 12h30q9 0 12.5 -6t-1.5 -14l-138 -236q-7 -10 -18 -10h-25zM127 -410q-14 0 -14 17v22q0 17 14 17h14q39 1 66.5 6t52 22.5t41.5 38.5t37 66t36 91t42 126v8l-357 1004q-3 7 1.5 12.5t13.5 5.5h28q16 0 19 -12l323 -924
q2 -3 5 -3t4 3l317 924q3 12 18 12h29q9 0 13 -5t1 -13l-397 -1129q-34 -97 -61.5 -152.5t-62.5 -87t-71.5 -40.5t-97.5 -9h-14z" />
    <glyph glyph-name="thorn" unicode="&#xfe;" horiz-adv-x="1089" 
d="M918 772q14 -68 14 -262q0 -190 -14 -256q-30 -122 -125 -196t-232 -74q-100 0 -177 42.5t-120 118.5q-2 7 -5 4q-1 -1 -1 -4v-538q0 -17 -16 -17h-29q-16 0 -16 17v1810q0 17 16 17h29q16 0 16 -17v-538q0 -5 2 -5t4 5q44 77 120 120t177 43q138 0 234 -74t123 -196z
M858 274q12 68 12 240q0 181 -14 238q-21 101 -102.5 167t-198.5 66q-116 0 -191.5 -66t-93.5 -167q-10 -44 -12 -97v-290q2 -39 10 -91q20 -100 95 -166.5t192 -66.5q119 0 202.5 65.5t100.5 167.5z" />
    <glyph glyph-name="ydieresis" unicode="&#xff;" horiz-adv-x="890" 
d="M289 1266q-31 0 -51.5 18.5t-20.5 46.5t20.5 47t51.5 19q28 0 46.5 -19t18.5 -47t-18.5 -46.5t-46.5 -18.5zM604 1266q-29 0 -49 18.5t-20 46.5t20 47t49 19t48.5 -19t19.5 -47t-19.5 -46.5t-48.5 -18.5zM127 -410q-14 0 -14 17v22q0 17 14 17h14q39 1 66.5 6t52 22.5
t41.5 38.5t37 66t36 91t42 126v8l-357 1004q-3 7 1.5 12.5t13.5 5.5h28q16 0 19 -12l323 -924q2 -3 5 -3t4 3l317 924q3 12 18 12h29q9 0 13 -5t1 -13l-397 -1129q-34 -97 -61.5 -152.5t-62.5 -87t-71.5 -40.5t-97.5 -9h-14z" />
    <glyph glyph-name="Amacron" unicode="&#x100;" horiz-adv-x="1165" 
d="M827 1696q17 0 17 -17v-20q0 -17 -17 -17h-487q-16 0 -16 17v20q0 17 16 17h487zM1042 0q-14 0 -18 14l-96 293q0 4 -8 4h-672q-8 0 -8 -4l-97 -293q-3 -14 -18 -14h-29q-8 0 -12.5 5.5t-1.5 12.5l463 1401q4 15 18 15h37q14 0 18 -15l465 -1401q3 -7 -1.5 -12.5
t-12.5 -5.5h-27zM260 373q-3 -6 6 -6h633q9 0 6 6l-319 973q-4 8 -8 0z" />
    <glyph glyph-name="amacron" unicode="&#x101;" horiz-adv-x="1024" 
d="M768 1305q16 0 16 -17v-20q0 -17 -16 -17h-487q-17 0 -17 17v20q0 17 17 17h487zM518 1042q174 0 259 -90.5t85 -249.5v-686q0 -16 -16 -16h-29q-16 0 -16 16v113q0 10 -8 2q-51 -72 -142.5 -109.5t-199.5 -37.5q-64 0 -120.5 15t-105.5 46.5t-77.5 88t-28.5 132.5
q0 148 112 233t308 85h256q6 0 6 6v117q0 127 -70 202.5t-219 75.5q-116 0 -192 -48.5t-91 -131.5q-3 -17 -18 -14l-31 6q-17 3 -14 14q20 105 114.5 168t237.5 63zM455 39q88 0 164.5 27t129 87t52.5 144v225q0 6 -6 6h-258q-160 0 -258.5 -69t-98.5 -191q0 -113 77 -171
t198 -58z" />
    <glyph glyph-name="Abreve" unicode="&#x102;" horiz-adv-x="1165" 
d="M582 1561q-81 0 -140 53.5t-67 130.5q0 16 16 16h19q16 0 16 -16q6 -58 51.5 -96.5t104.5 -38.5t103 38.5t50 96.5q0 16 17 16h18q16 0 16 -16q-6 -77 -64.5 -130.5t-139.5 -53.5zM1042 0q-14 0 -18 14l-96 293q0 4 -8 4h-672q-8 0 -8 -4l-97 -293q-3 -14 -18 -14h-29
q-8 0 -12.5 5.5t-1.5 12.5l463 1401q4 15 18 15h37q14 0 18 -15l465 -1401q3 -7 -1.5 -12.5t-12.5 -5.5h-27zM260 373q-3 -6 6 -6h633q9 0 6 6l-319 973q-4 8 -8 0z" />
    <glyph glyph-name="abreve" unicode="&#x103;" horiz-adv-x="1024" 
d="M522 1169q-81 0 -140 54t-67 131q0 16 17 16h18q17 0 17 -16q6 -58 51 -96.5t104 -38.5t103.5 38.5t50.5 96.5q0 16 16 16h19q16 0 16 -16q-6 -77 -65 -131t-140 -54zM518 1042q174 0 259 -90.5t85 -249.5v-686q0 -16 -16 -16h-29q-16 0 -16 16v113q0 10 -8 2
q-51 -72 -142.5 -109.5t-199.5 -37.5q-64 0 -120.5 15t-105.5 46.5t-77.5 88t-28.5 132.5q0 148 112 233t308 85h256q6 0 6 6v117q0 127 -70 202.5t-219 75.5q-116 0 -192 -48.5t-91 -131.5q-3 -17 -18 -14l-31 6q-17 3 -14 14q20 105 114.5 168t237.5 63zM455 39
q88 0 164.5 27t129 87t52.5 144v225q0 6 -6 6h-258q-160 0 -258.5 -69t-98.5 -191q0 -113 77 -171t198 -58z" />
    <glyph glyph-name="Aogonek" unicode="&#x104;" horiz-adv-x="1239" 
d="M1128 -319q18 4 21 -13l4 -16q4 -18 -12 -21q-49 -6 -95.5 -3.5t-85.5 33t-51 85.5q-28 136 125 250q6 3 0 6q-7 2 -10 12l-96 293q0 4 -8 4h-672q-8 0 -8 -4l-97 -293q-3 -14 -18 -14h-29q-8 0 -12.5 5.5t-1.5 12.5l463 1401q4 15 18 15h37q14 0 18 -15l469 -1415v-8
q-3 -6 -16 -16q-125 -109 -106 -218q10 -57 55.5 -75.5t107.5 -5.5zM260 373q-3 -6 6 -6h633q9 0 6 6l-319 973q-4 8 -8 0z" />
    <glyph glyph-name="aogonek" unicode="&#x105;" horiz-adv-x="1228" 
d="M897 -319q18 4 21 -13l4 -16q4 -18 -13 -21q-49 -6 -95.5 -3.5t-85 33t-50.5 85.5q-28 137 127 250q3 3 0 6q-4 8 -4 14v113q0 10 -8 2q-51 -72 -142.5 -109.5t-199.5 -37.5q-64 0 -120.5 15t-105.5 46.5t-77.5 88t-28.5 132.5q0 148 112 233t308 85h256q6 0 6 6v117
q0 127 -70 202.5t-219 75.5q-116 0 -192 -48.5t-91 -131.5q-3 -17 -18 -14l-31 6q-17 3 -14 18q22 104 116.5 165.5t235.5 61.5q174 0 259 -90.5t85 -249.5v-702q0 -2 -8 -8q-62 -49 -97 -109.5t-24 -120.5q10 -57 56 -75.5t108 -5.5zM455 39q88 0 164.5 27t129 87t52.5 144
v225q0 6 -6 6h-258q-160 0 -258.5 -69t-98.5 -191q0 -113 77 -171t198 -58z" />
    <glyph glyph-name="Cacute" unicode="&#x106;" horiz-adv-x="1241" 
d="M588 1612q-9 0 -13 6t0 14l134 234q8 12 18 12h31q9 0 12 -6t-2 -14l-137 -236q-7 -10 -19 -10h-24zM631 -18q-204 0 -328.5 118t-124.5 312v614q0 191 124.5 307.5t328.5 116.5q202 0 326 -116.5t124 -307.5v-6q0 -16 -16 -16l-29 -3q-16 0 -16 15v12q0 164 -107 264.5
t-282 100.5q-177 0 -284 -100.5t-107 -264.5v-622q0 -165 107 -266t284 -101q175 0 282 101.5t107 265.5v8q0 16 16 16l29 -2q16 0 16 -8v-10q0 -192 -124 -310t-326 -118z" />
    <glyph glyph-name="cacute" unicode="&#x107;" horiz-adv-x="1044" 
d="M506 1204q-9 0 -13 7t1 14l133 233q8 12 18 12h31q9 0 12 -6t-2 -14l-137 -236q-7 -10 -19 -10h-24zM549 -16q-140 0 -237 74t-128 196q-24 91 -24 262q0 157 24 256q30 122 127.5 196t237.5 74t241 -71.5t128 -177.5q7 -31 10 -56q3 -14 -15 -18l-28 -2q-16 -3 -19 14
l-6 33q-19 94 -104 157.5t-207 63.5q-125 0 -207.5 -67t-103.5 -175q-17 -91 -17 -229q0 -140 17 -231q22 -110 104 -176t207 -66q123 0 210.5 64.5t102.5 158.5q1 2 1 4.5t1 3.5v9q2 10 19 10l26 -2q15 -3 15 -15v-8q0 -12 -6 -33q-24 -107 -126.5 -178t-242.5 -71z" />
    <glyph glyph-name="Cdotaccent" unicode="&#x10a;" horiz-adv-x="1241" 
d="M631 1649q-29 0 -49.5 18.5t-20.5 46.5t20 46t50 18q29 0 47 -18t18 -46t-18 -46.5t-47 -18.5zM631 -18q-204 0 -328.5 118t-124.5 312v614q0 191 124.5 307.5t328.5 116.5q202 0 326 -116.5t124 -307.5v-6q0 -16 -16 -16l-29 -3q-16 0 -16 15v12q0 164 -107 264.5
t-282 100.5q-177 0 -284 -100.5t-107 -264.5v-622q0 -165 107 -266t284 -101q175 0 282 101.5t107 265.5v8q0 16 16 16l29 -2q16 0 16 -8v-10q0 -192 -124 -310t-326 -118z" />
    <glyph glyph-name="cdotaccent" unicode="&#x10b;" horiz-adv-x="1044" 
d="M549 1241q-29 0 -49.5 19t-20.5 47q0 27 20 45t50 18q29 0 47 -17.5t18 -45.5t-18 -47t-47 -19zM549 -16q-140 0 -237 74t-128 196q-24 91 -24 262q0 157 24 256q30 122 127.5 196t237.5 74t241 -71.5t128 -177.5q7 -31 10 -56q3 -14 -15 -18l-28 -2q-16 -3 -19 14l-6 33
q-19 94 -104 157.5t-207 63.5q-125 0 -207.5 -67t-103.5 -175q-17 -91 -17 -229q0 -140 17 -231q22 -110 104 -176t207 -66q123 0 210.5 64.5t102.5 158.5q1 2 1 4.5t1 3.5v9q2 10 19 10l26 -2q15 -3 15 -15v-8q0 -12 -6 -33q-24 -107 -126.5 -178t-242.5 -71z" />
    <glyph glyph-name="Ccaron" unicode="&#x10c;" horiz-adv-x="1241" 
d="M612 1585q-13 0 -20 10l-174 226q-13 20 8 20h27q13 0 20 -10l154 -195q4 -8 8 0l149 195q7 10 21 10h29q21 0 8 -20l-176 -226q-7 -10 -21 -10h-33zM631 -18q-204 0 -328.5 118t-124.5 312v614q0 191 124.5 307.5t328.5 116.5q202 0 326 -116.5t124 -307.5v-6
q0 -16 -16 -16l-29 -3q-16 0 -16 15v12q0 164 -107 264.5t-282 100.5q-177 0 -284 -100.5t-107 -264.5v-622q0 -165 107 -266t284 -101q175 0 282 101.5t107 265.5v8q0 16 16 16l29 -2q16 0 16 -8v-10q0 -192 -124 -310t-326 -118z" />
    <glyph glyph-name="ccaron" unicode="&#x10d;" horiz-adv-x="1044" 
d="M530 1178q-13 0 -20 10l-174 225q-6 9 -3.5 15t11.5 6h27q13 0 20 -11l154 -194q4 -8 8 0l149 194q7 11 21 11h29q9 0 11.5 -6t-3.5 -15l-176 -225q-7 -10 -21 -10h-33zM549 -16q-140 0 -237 74t-128 196q-24 91 -24 262q0 157 24 256q30 122 127.5 196t237.5 74
t241 -71.5t128 -177.5q7 -31 10 -56q3 -14 -15 -18l-28 -2q-16 -3 -19 14l-6 33q-19 94 -104 157.5t-207 63.5q-125 0 -207.5 -67t-103.5 -175q-17 -91 -17 -229q0 -140 17 -231q22 -110 104 -176t207 -66q123 0 210.5 64.5t102.5 158.5q1 2 1 4.5t1 3.5v9q2 10 19 10l26 -2
q15 -3 15 -15v-8q0 -12 -6 -33q-24 -107 -126.5 -178t-242.5 -71z" />
    <glyph glyph-name="Dcaron" unicode="&#x10e;" horiz-adv-x="1265" 
d="M631 1559q-14 0 -21 10l-174 225q-6 9 -3.5 15t11.5 6h27q14 0 21 -11l153 -192q4 -8 8 0l150 192q7 11 20 11h29q9 0 11.5 -6t-3.5 -15l-176 -225q-7 -10 -20 -10h-33zM248 0q-17 0 -17 16v1401q0 17 17 17h469q186 0 293.5 -100t107.5 -273v-688q0 -173 -107.5 -273
t-293.5 -100h-469zM293 63q0 -6 6 -6h422q155 0 245.5 85t90.5 233v682q0 149 -89.5 234t-246.5 85h-422q-6 0 -6 -6v-1307z" />
    <glyph glyph-name="dcaron" unicode="&#x10f;" horiz-adv-x="1218" 
d="M1151 1442q6 12 18 12h31q9 0 12 -6t-2 -14l-137 -236q-7 -10 -18 -10h-25q-9 0 -12.5 6t0.5 14zM827 874q2 -7 6 -1l1 4v540q0 17 16 17h29q16 0 16 -17v-1401q0 -16 -16 -16h-29q-16 0 -16 16v131q0 6 -3 6q-3 1 -4 -3q-44 -78 -121 -122t-178 -44q-137 0 -231.5 74
t-124.5 196q-14 66 -14 256q0 194 14 262q27 122 122.5 196t233.5 74q102 0 178.5 -44.5t120.5 -123.5zM821 274q13 67 13 238q0 172 -15 240q-18 101 -93 167t-191 66q-117 0 -199 -66t-103 -167q-14 -57 -14 -238q0 -172 12 -240q17 -102 101 -167.5t203 -65.5
q117 0 191.5 66.5t94.5 166.5z" />
    <glyph glyph-name="Dcroat" unicode="&#x110;" horiz-adv-x="1415" 
d="M866 1434q186 0 294 -100t108 -273v-688q0 -173 -108 -273t-294 -100h-469q-16 0 -16 16v701q0 6 -6 6h-127q-17 0 -17 16v21q0 16 17 16h127q6 0 6 6v635q0 17 16 17h469zM1206 375v682q0 149 -89.5 234t-246.5 85h-421q-7 0 -7 -6v-588q0 -6 7 -6h294q17 0 17 -16v-21
q0 -16 -17 -16h-294q-7 0 -7 -6v-654q0 -6 7 -6h421q155 0 245.5 85t90.5 233z" />
    <glyph glyph-name="dcroat" unicode="&#x111;" horiz-adv-x="1228" 
d="M1059 1243q16 0 16 -16v-21q0 -16 -16 -16h-158q-6 0 -6 -6v-1168q0 -16 -16 -16h-29q-16 0 -16 16v131q0 6 -3 6q-3 1 -4 -3q-44 -78 -121 -122t-178 -44q-137 0 -231.5 74t-124.5 196q-14 66 -14 256q0 194 14 262q27 122 122.5 196t233.5 74q102 0 178.5 -44.5
t120.5 -123.5q2 -7 6 -1l1 4v307q0 6 -7 6h-342q-16 0 -16 16v21q0 16 16 16h342q7 0 7 6v168q0 17 16 17h29q16 0 16 -17v-168q0 -6 6 -6h158zM821 274q13 67 13 238q0 172 -15 240q-18 101 -93 167t-191 66q-117 0 -199 -66t-103 -167q-14 -57 -14 -238q0 -172 12 -240
q17 -102 101 -167.5t203 -65.5q117 0 191.5 66.5t94.5 166.5z" />
    <glyph glyph-name="Emacron" unicode="&#x112;" horiz-adv-x="1265" 
d="M911 1716q17 0 17 -16v-21q0 -16 -17 -16h-487q-16 0 -16 16v21q0 16 16 16h487zM1122 1393q0 -17 -16 -17h-807q-6 0 -6 -6v-616q0 -6 6 -6h584q16 0 16 -17v-24q0 -17 -16 -17h-584q-6 0 -6 -6v-621q0 -6 6 -6h807q16 0 16 -16v-25q0 -16 -16 -16h-858q-17 0 -17 16
v1401q0 17 17 17h858q16 0 16 -17v-24z" />
    <glyph glyph-name="emacron" unicode="&#x113;" horiz-adv-x="1077" 
d="M784 1305q17 0 17 -17v-20q0 -17 -17 -17h-487q-16 0 -16 17v20q0 17 16 17h487zM543 41q111 0 190.5 51t112.5 137q1 1 2 4.5t2 4.5q5 10 12 6h8l21 -4q17 -3 10 -21q-38 -106 -133 -170.5t-227 -64.5q-138 0 -234 72.5t-129 193.5q-18 70 -18 266q0 179 16 254
q28 124 125 198t240 74q147 0 245 -77t125 -205q9 -38 11 -81.5t2 -162.5q0 -16 -17 -16h-680q-6 0 -6 -6q0 -172 10 -211q21 -109 104 -175.5t208 -66.5zM541 985q-124 0 -206.5 -66.5t-103.5 -173.5q-10 -49 -10 -186q0 -6 6 -6h629q6 0 6 6q0 138 -10 184
q-22 108 -105 175t-206 67z" />
    <glyph glyph-name="Edotaccent" unicode="&#x116;" horiz-adv-x="1265" 
d="M666 1653q-29 0 -49.5 18.5t-20.5 46.5t20 46t50 18q29 0 47 -18t18 -46t-18 -46.5t-47 -18.5zM1122 1393q0 -17 -16 -17h-807q-6 0 -6 -6v-616q0 -6 6 -6h584q16 0 16 -17v-24q0 -17 -16 -17h-584q-6 0 -6 -6v-621q0 -6 6 -6h807q16 0 16 -16v-25q0 -16 -16 -16h-858
q-17 0 -17 16v1401q0 17 17 17h858q16 0 16 -17v-24z" />
    <glyph glyph-name="edotaccent" unicode="&#x117;" horiz-adv-x="1077" 
d="M539 1241q-29 0 -49.5 19t-20.5 47q0 27 20 45t50 18q29 0 47 -17.5t18 -45.5t-18 -47t-47 -19zM543 41q111 0 190.5 51t112.5 137q1 1 2 4.5t2 4.5q5 10 12 6h8l21 -4q17 -3 10 -21q-38 -106 -133 -170.5t-227 -64.5q-138 0 -234 72.5t-129 193.5q-18 70 -18 266
q0 179 16 254q28 124 125 198t240 74q147 0 245 -77t125 -205q9 -38 11 -81.5t2 -162.5q0 -16 -17 -16h-680q-6 0 -6 -6q0 -172 10 -211q21 -109 104 -175.5t208 -66.5zM541 985q-124 0 -206.5 -66.5t-103.5 -173.5q-10 -49 -10 -186q0 -6 6 -6h629q6 0 6 6q0 138 -10 184
q-22 108 -105 175t-206 67z" />
    <glyph glyph-name="Eogonek" unicode="&#x118;" horiz-adv-x="1265" 
d="M1122 1393q0 -17 -16 -17h-807q-6 0 -6 -6v-616q0 -6 6 -6h584q16 0 16 -17v-24q0 -17 -16 -17h-584q-6 0 -6 -6v-621q0 -6 6 -6h807q16 0 16 -16v-25q0 -16 -16 -16h-397q-1 0 -4.5 -1t-4.5 -1q-135 -114 -114 -225q10 -57 56 -76t108 -6q17 3 20 -13l4 -16
q3 -17 -12 -20q-49 -6 -95.5 -3.5t-85.5 32.5t-51 85q-27 126 107 236q4 3 2.5 5.5t-4.5 2.5h-387q-17 0 -17 16v1401q0 17 17 17h858q16 0 16 -17v-24z" />
    <glyph glyph-name="eogonek" unicode="&#x119;" horiz-adv-x="1077" 
d="M543 41q111 0 190.5 51t112.5 137q1 1 2 4.5t2 4.5q5 10 12 6h8l21 -4q17 -3 10 -21q-36 -100 -122.5 -163t-209.5 -72q-1 0 -4 -1t-4 -1q-136 -115 -115 -226q10 -57 56 -76t108 -6q18 4 21 -12l4 -16q4 -18 -12 -21q-49 -6 -95.5 -3.5t-85.5 33t-51 85.5
q-27 129 111 237q3 1 2 4t-4 3q-122 12 -206.5 83.5t-115.5 182.5q-18 70 -18 266q0 179 16 254q28 124 125 198t240 74q147 0 245 -77t125 -205q9 -38 11 -81.5t2 -162.5q0 -16 -17 -16h-680q-6 0 -6 -6q0 -172 10 -211q21 -109 104 -175.5t208 -66.5zM541 985
q-124 0 -206.5 -66.5t-103.5 -173.5q-10 -49 -10 -186q0 -6 6 -6h629q6 0 6 6q0 138 -10 184q-22 108 -105 175t-206 67z" />
    <glyph glyph-name="Ecaron" unicode="&#x11a;" horiz-adv-x="1265" 
d="M700 1599q-7 -10 -20 -10h-33q-13 0 -20 10l-174 226q-13 20 8 20h26q14 0 21 -10l154 -195q4 -8 8 0l149 195q7 10 21 10h28q9 0 12 -5.5t-3 -14.5zM1122 1393q0 -17 -16 -17h-807q-6 0 -6 -6v-616q0 -6 6 -6h584q16 0 16 -17v-24q0 -17 -16 -17h-584q-6 0 -6 -6v-621
q0 -6 6 -6h807q16 0 16 -16v-25q0 -16 -16 -16h-858q-17 0 -17 16v1401q0 17 17 17h858q16 0 16 -17v-24z" />
    <glyph glyph-name="ecaron" unicode="&#x11b;" horiz-adv-x="1077" 
d="M573 1167q-7 -10 -20 -10h-33q-13 0 -20 10l-174 226q-13 20 8 20h26q14 0 21 -10l154 -193q4 -8 8 0l149 193q7 10 21 10h28q9 0 12 -5.5t-3 -14.5zM543 41q111 0 190.5 51t112.5 137q1 1 2 4.5t2 4.5q5 10 12 6h8l21 -4q17 -3 10 -21q-38 -106 -133 -170.5t-227 -64.5
q-138 0 -234 72.5t-129 193.5q-18 70 -18 266q0 179 16 254q28 124 125 198t240 74q147 0 245 -77t125 -205q9 -38 11 -81.5t2 -162.5q0 -16 -17 -16h-680q-6 0 -6 -6q0 -172 10 -211q21 -109 104 -175.5t208 -66.5zM541 985q-124 0 -206.5 -66.5t-103.5 -173.5
q-10 -49 -10 -186q0 -6 6 -6h629q6 0 6 6q0 138 -10 184q-22 108 -105 175t-206 67z" />
    <glyph glyph-name="Gbreve" unicode="&#x11e;" horiz-adv-x="1239" 
d="M627 1577q-81 0 -140 53.5t-67 130.5q0 17 16 17h19q16 0 16 -17q6 -58 51.5 -96.5t104.5 -38.5t103 38.5t50 96.5q0 17 17 17h18q16 0 16 -17q-6 -77 -64.5 -130.5t-139.5 -53.5zM631 -16q-204 0 -328.5 115t-124.5 304v627q0 189 124.5 304.5t328.5 115.5
q202 0 325 -115t123 -303v-35q0 -16 -16 -16h-29q-16 0 -16 16v37q0 161 -107 260t-280 99q-177 0 -284 -99t-107 -262v-631q0 -163 107 -261.5t284 -98.5q174 0 280.5 97.5t106.5 258.5v238q0 6 -6 6h-348q-17 0 -17 16v23q0 16 17 16h399q16 0 16 -16v-274
q0 -192 -122.5 -307t-325.5 -115z" />
    <glyph glyph-name="gbreve" unicode="&#x11f;" horiz-adv-x="1071" 
d="M549 1171q-81 0 -140 54t-67 131q0 16 16 16h19q16 0 16 -16q6 -58 51.5 -96.5t104.5 -38.5t103 38.5t50 96.5q0 16 17 16h18q17 0 17 -16q-6 -77 -65 -131t-140 -54zM836 1010q0 16 16 16h29q16 0 16 -16v-1004q0 -212 -123.5 -317.5t-370.5 -98.5q-16 0 -16 17l2 26
q0 17 17 17q430 -12 430 356v144q0 4 -3 4.5t-6 -2.5q-43 -77 -119 -121.5t-178 -44.5q-135 0 -230 72.5t-126 195.5q-22 81 -22 256q0 181 22 264q30 120 124.5 194t229.5 74q102 0 179.5 -43t119.5 -120q2 -2 4 -2.5t3.5 0.5t1.5 4v129zM827 283q9 59 9 229q0 166 -9 231
q-16 104 -93.5 173t-196.5 69q-118 0 -198 -68t-108 -174q-18 -74 -18 -227q0 -168 18 -233q23 -105 105.5 -173.5t200.5 -68.5q120 0 197 69.5t93 172.5z" />
    <glyph glyph-name="Gdotaccent" unicode="&#x120;" horiz-adv-x="1239" 
d="M627 1649q-29 0 -49.5 18.5t-20.5 46.5t20 46t50 18q29 0 47 -18t18 -46t-18 -46.5t-47 -18.5zM631 -16q-204 0 -328.5 115t-124.5 304v627q0 189 124.5 304.5t328.5 115.5q202 0 325 -115t123 -303v-35q0 -16 -16 -16h-29q-16 0 -16 16v37q0 161 -107 260t-280 99
q-177 0 -284 -99t-107 -262v-631q0 -163 107 -261.5t284 -98.5q174 0 280.5 97.5t106.5 258.5v238q0 6 -6 6h-348q-17 0 -17 16v23q0 16 17 16h399q16 0 16 -16v-274q0 -192 -122.5 -307t-325.5 -115z" />
    <glyph glyph-name="gdotaccent" unicode="&#x121;" horiz-adv-x="1071" 
d="M549 1243q-29 0 -49.5 19t-20.5 47q0 27 20 45t50 18q29 0 47 -17.5t18 -45.5t-18 -47t-47 -19zM836 1010q0 16 16 16h29q16 0 16 -16v-1004q0 -212 -123.5 -317.5t-370.5 -98.5q-16 0 -16 17l2 26q0 17 17 17q430 -12 430 356v144q0 4 -3 4.5t-6 -2.5
q-43 -77 -119 -121.5t-178 -44.5q-135 0 -230 72.5t-126 195.5q-22 81 -22 256q0 181 22 264q30 120 124.5 194t229.5 74q102 0 179.5 -43t119.5 -120q2 -2 4 -2.5t3.5 0.5t1.5 4v129zM827 283q9 59 9 229q0 166 -9 231q-16 104 -93.5 173t-196.5 69q-118 0 -198 -68
t-108 -174q-18 -74 -18 -227q0 -168 18 -233q23 -105 105.5 -173.5t200.5 -68.5q120 0 197 69.5t93 172.5z" />
    <glyph glyph-name="uni0122" unicode="&#x122;" horiz-adv-x="1239" 
d="M631 -16q-204 0 -328.5 115t-124.5 304v627q0 189 124.5 304.5t328.5 115.5q202 0 325 -115t123 -303v-35q0 -16 -16 -16h-29q-16 0 -16 16v37q0 161 -107 260t-280 99q-177 0 -284 -99t-107 -262v-631q0 -163 107 -261.5t284 -98.5q174 0 280.5 97.5t106.5 258.5v238
q0 6 -6 6h-348q-17 0 -17 16v23q0 16 17 16h399q16 0 16 -16v-274q0 -192 -122.5 -307t-325.5 -115zM537 -406q-9 0 -13 7t0 14l133 233q9 13 19 13h31q9 0 12 -6.5t-2 -14.5l-137 -235q-7 -11 -19 -11h-24z" />
    <glyph glyph-name="uni0123" unicode="&#x123;" horiz-adv-x="1071" 
d="M639 1434q9 0 13 -7t-1 -14l-133 -233q-9 -13 -18 -13h-31q-9 0 -12 6.5t2 14.5l137 235q7 11 18 11h25zM836 1010q0 16 16 16h29q16 0 16 -16v-1004q0 -212 -123.5 -317.5t-370.5 -98.5q-16 0 -16 17l2 26q0 17 17 17q430 -12 430 356v144q0 4 -3 4.5t-6 -2.5
q-43 -77 -119 -121.5t-178 -44.5q-135 0 -230 72.5t-126 195.5q-22 81 -22 256q0 181 22 264q30 120 124.5 194t229.5 74q102 0 179.5 -43t119.5 -120q2 -2 4 -2.5t3.5 0.5t1.5 4v129zM827 283q9 59 9 229q0 166 -9 231q-16 104 -93.5 173t-196.5 69q-118 0 -198 -68
t-108 -174q-18 -74 -18 -227q0 -168 18 -233q23 -105 105.5 -173.5t200.5 -68.5q120 0 197 69.5t93 172.5z" />
    <glyph glyph-name="Hbar" unicode="&#x126;" horiz-adv-x="1370" 
d="M1251 1096q17 0 17 -17v-20q0 -17 -17 -17h-106q-6 0 -6 -6v-1020q0 -16 -17 -16h-28q-17 0 -17 16v668q0 6 -6 6h-772q-6 0 -6 -6v-668q0 -16 -17 -16h-28q-17 0 -17 16v1020q0 6 -6 6h-104q-17 0 -17 17v20q0 17 17 17h104q6 0 6 6v315q0 17 17 17h28q17 0 17 -17v-315
q0 -6 6 -6h772q6 0 6 6v315q0 17 17 17h28q17 0 17 -17v-315q0 -6 6 -6h106zM1071 748q6 0 6 6v282q0 6 -6 6h-772q-6 0 -6 -6v-282q0 -6 6 -6h772z" />
    <glyph glyph-name="hbar" unicode="&#x127;" horiz-adv-x="1095" 
d="M571 1040q154 0 250.5 -95.5t96.5 -248.5v-680q0 -16 -17 -16h-29q-16 0 -16 16v670q0 132 -82 214.5t-211 82.5q-137 0 -221 -81t-84 -212v-674q0 -16 -16 -16h-29q-16 0 -16 16v1131q0 6 -7 6h-135q-16 0 -16 16v21q0 16 16 16h135q7 0 7 6v205q0 17 16 17h29
q16 0 16 -17v-205q0 -6 6 -6h365q16 0 16 -16v-21q0 -16 -16 -16h-365q-6 0 -6 -6v-260q0 -6 4 -6q1 0 2 2q45 76 123.5 116.5t183.5 40.5z" />
    <glyph glyph-name="Imacron" unicode="&#x12a;" horiz-adv-x="524" 
d="M20 1663q-16 0 -16 16v21q0 16 16 16h488q16 0 16 -16v-21q0 -16 -16 -16h-488zM248 0q-17 0 -17 16v1401q0 17 17 17h28q17 0 17 -17v-1401q0 -16 -17 -16h-28z" />
    <glyph glyph-name="imacron" unicode="&#x12b;" horiz-adv-x="428" 
d="M-31 1253q-16 0 -16 17v20q0 17 16 17h488q16 0 16 -17v-20q0 -17 -16 -17h-488zM197 0q-17 0 -17 16v994q0 16 17 16h28q17 0 17 -16v-994q0 -16 -17 -16h-28z" />
    <glyph glyph-name="Iogonek" unicode="&#x12e;" horiz-adv-x="716" 
d="M455 -319q17 3 20 -13l4 -16q4 -18 -12 -21q-49 -6 -95.5 -3.5t-85 33t-50.5 85.5q-27 137 126 252l5 2h-2v1417q0 17 16 17h29q16 0 16 -17v-1401l-2 -16h-2q-66 -52 -104 -113.5t-27 -124.5q10 -57 56 -75.5t108 -5.5z" />
    <glyph glyph-name="iogonek" unicode="&#x12f;" horiz-adv-x="593" 
d="M332 1243q-29 0 -49.5 19t-20.5 47q0 27 20 45t50 18q29 0 47 -17.5t18 -45.5t-18 -47t-47 -19zM393 -319q18 4 21 -13l4 -16q4 -18 -12 -21q-49 -6 -95.5 -3.5t-85.5 33t-51 85.5q-28 137 127 250q2 2 2 8q-2 4 -2 12v994q0 16 16 16h29q16 0 16 -16v-998v-12
q-4 -2 -6 -2q-64 -51 -101 -113t-26 -123q10 -57 56 -75.5t108 -5.5z" />
    <glyph glyph-name="Idotaccent" unicode="&#x130;" horiz-adv-x="524" 
d="M262 1653q-29 0 -49 18.5t-20 46.5t20 46t49 18t47.5 -18t18.5 -46t-18.5 -46.5t-47.5 -18.5zM248 0q-17 0 -17 16v1401q0 17 17 17h28q17 0 17 -17v-1401q0 -16 -17 -16h-28z" />
    <glyph glyph-name="dotlessi" unicode="&#x131;" horiz-adv-x="428" 
d="M197 0q-17 0 -17 16v994q0 16 17 16h28q17 0 17 -16v-994q0 -16 -17 -16h-28z" />
    <glyph glyph-name="ij" unicode="&#x133;" horiz-adv-x="937" 
d="M244 1262q-31 0 -52.5 20t-21.5 49q0 28 21.5 47t52.5 19t51 -19t20 -47q0 -29 -20 -49t-51 -20zM711 1262q-31 0 -50.5 18.5t-19.5 50.5q0 30 19.5 48t50.5 18q35 0 55 -17.5t20 -48.5q0 -32 -20 -50.5t-55 -18.5zM229 0q-16 0 -16 16v994q0 16 16 16h29q16 0 16 -16
v-994q0 -16 -16 -16h-29zM457 -432q-17 0 -17 16v25q0 16 17 16q106 4 164.5 66t58.5 168v1151q0 16 16 16h29q16 0 16 -16v-1151q0 -134 -74 -210.5t-210 -80.5z" />
    <glyph glyph-name="uni0136" unicode="&#x136;" horiz-adv-x="1232" 
d="M248 0q-17 0 -17 16v1401q0 17 17 17h28q17 0 17 -17v-768q0 -3 2.5 -4t5.5 2l752 778q9 9 20 9h31q11 0 14 -7t-4 -14l-530 -561q-3 -3 0 -8l581 -824q6 -9 2.5 -14.5t-12.5 -5.5h-39q-12 0 -18 6q-2 4 -4 6l-553 783q-5 5 -9 2l-235 -232q-4 -4 -4 -8v-541
q0 -16 -17 -16h-28zM575 -389q-9 0 -13 6.5t1 13.5l133 234q8 12 19 12h30q9 0 12.5 -6.5t-1.5 -13.5l-138 -236q-7 -10 -18 -10h-25z" />
    <glyph glyph-name="uni0137" unicode="&#x137;" horiz-adv-x="987" 
d="M213 0q-16 0 -16 16v1401q0 17 16 17h29q16 0 16 -17v-928q0 -3 2.5 -4t5.5 2l527 531q8 8 20 8h39q10 0 13 -6t-5 -14l-262 -267q-3 -7 -2 -8l317 -713q6 -18 -12 -18h-31q-15 0 -20 12l-297 676q-3 5 -8 0l-283 -285q-4 -4 -4 -8v-379q0 -16 -16 -16h-29zM449 -389
q-9 0 -13 6.5t0 13.5l133 234q8 12 19 12h30q9 0 12.5 -6.5t-1.5 -13.5l-137 -236q-7 -10 -19 -10h-24z" />
    <glyph glyph-name="Lacute" unicode="&#x139;" horiz-adv-x="1159" 
d="M219 1595q-9 0 -13 6.5t1 14.5l133 233q9 13 18 13h31q9 0 12 -7t-2 -14l-137 -235q-7 -11 -18 -11h-25zM248 0q-17 0 -17 16v1401q0 17 17 17h28q17 0 17 -17v-1354q0 -6 6 -6h758q16 0 16 -16v-25q0 -16 -16 -16h-809z" />
    <glyph glyph-name="lacute" unicode="&#x13a;" horiz-adv-x="454" 
d="M186 1595q-9 0 -13 6.5t1 14.5l133 233q9 13 19 13h30q9 0 12.5 -7t-1.5 -14l-138 -235q-7 -11 -18 -11h-25zM213 0q-16 0 -16 16v1401q0 17 16 17h29q16 0 16 -17v-1401q0 -16 -16 -16h-29z" />
    <glyph glyph-name="uni013B" unicode="&#x13b;" horiz-adv-x="1159" 
d="M248 0q-17 0 -17 16v1401q0 17 17 17h28q17 0 17 -17v-1354q0 -6 6 -6h758q16 0 16 -16v-25q0 -16 -16 -16h-809zM506 -389q-9 0 -12.5 6.5t0.5 13.5l133 234q8 12 18 12h31q9 0 12 -6.5t-2 -13.5l-137 -236q-7 -10 -19 -10h-24z" />
    <glyph glyph-name="uni013C" unicode="&#x13c;" horiz-adv-x="454" 
d="M213 0q-16 0 -16 16v1401q0 17 16 17h29q16 0 16 -17v-1401q0 -16 -16 -16h-29zM66 -389q-9 0 -13 6.5t0 13.5l133 234q8 12 19 12h31q9 0 12 -6.5t-2 -13.5l-137 -236q-7 -10 -19 -10h-24z" />
    <glyph glyph-name="Lcaron" unicode="&#x13d;" horiz-adv-x="1159" 
d="M244 1548q-14 0 -21 11l-174 225q-13 20 8 20h27q13 0 20 -10l154 -192q4 -8 8 0l150 192q7 10 20 10h29q21 0 8 -20l-176 -225q-7 -11 -21 -11h-32zM248 0q-17 0 -17 16v1401q0 17 17 17h28q17 0 17 -17v-1354q0 -6 6 -6h758q16 0 16 -16v-25q0 -16 -16 -16h-809z" />
    <glyph glyph-name="lcaron" unicode="&#x13e;" horiz-adv-x="454" 
d="M211 1548q-14 0 -21 11l-174 225q-6 9 -3 14.5t12 5.5h26q14 0 21 -10l153 -192q4 -8 8 0l150 192q7 10 20 10h29q21 0 8 -20l-176 -225q-7 -11 -20 -11h-33zM213 0q-16 0 -16 16v1401q0 17 16 17h29q16 0 16 -17v-1401q0 -16 -16 -16h-29z" />
    <glyph glyph-name="Lslash" unicode="&#x141;" horiz-adv-x="1159" 
d="M293 63q0 -6 6 -6h758q16 0 16 -16v-25q0 -16 -16 -16h-809q-17 0 -17 16v547q0 3 -2.5 4t-5.5 -2l-243 -168q-15 -11 -23 2l-12 19q-9 14 4 24l278 195q4 4 4 6v774q0 17 17 17h28q17 0 17 -17v-727q0 -3 2.5 -4t5.5 2l512 359q15 11 25 -5l12 -18q9 -15 -4 -25
l-549 -383q-4 -4 -4 -6v-547z" />
    <glyph glyph-name="lslash" unicode="&#x142;" horiz-adv-x="454" 
d="M489 852q7 -13 -6 -23l-221 -143q-4 -4 -4 -6v-664q0 -16 -16 -16h-29q-16 0 -16 16v621q0 3 -3 5t-6 -1l-129 -84q-13 -10 -22 6l-12 19q-7 12 6 22l162 105q4 4 4 6v702q0 17 16 17h29q16 0 16 -17v-659q0 -3 2.5 -5t5.5 1l189 123q12 9 22 -7z" />
    <glyph glyph-name="Nacute" unicode="&#x143;" horiz-adv-x="1396" 
d="M657 1616q-9 0 -13 6t1 14l133 234q8 12 19 12h30q9 0 12.5 -6t-1.5 -14l-138 -236q-7 -10 -18 -10h-25zM248 0q-17 0 -17 16v1401q0 17 17 17h33q13 0 18 -11l797 -1294q1 -2 3 -2.5t3.5 0.5t1.5 4v1286q0 17 16 17h29q16 0 16 -17v-1401q0 -16 -16 -16h-31
q-13 0 -18 10l-799 1295q-1 2 -3 2.5t-3.5 -0.5t-1.5 -4v-1287q0 -16 -17 -16h-28z" />
    <glyph glyph-name="nacute" unicode="&#x144;" horiz-adv-x="1095" 
d="M674 1454q9 0 12 -6t-2 -14l-137 -236q-7 -10 -19 -10h-24q-9 0 -12.5 6t0.5 14l133 234q8 12 18 12h31zM571 1040q154 0 250.5 -95.5t96.5 -248.5v-680q0 -16 -17 -16h-29q-16 0 -16 16v670q0 132 -82 214.5t-211 82.5q-137 0 -221 -81t-84 -212v-674q0 -16 -16 -16h-29
q-16 0 -16 16v994q0 16 16 16h29q16 0 16 -16v-123q0 -6 4 -6q1 0 2 2q45 76 123.5 116.5t183.5 40.5z" />
    <glyph glyph-name="uni0145" unicode="&#x145;" horiz-adv-x="1396" 
d="M248 0q-17 0 -17 16v1401q0 17 17 17h33q13 0 18 -11l797 -1294q1 -2 3 -2.5t3.5 0.5t1.5 4v1286q0 17 16 17h29q16 0 16 -17v-1401q0 -16 -16 -16h-31q-13 0 -18 10l-799 1295q-1 2 -3 2.5t-3.5 -0.5t-1.5 -4v-1287q0 -16 -17 -16h-28zM618 -389q-9 0 -12.5 6.5
t0.5 13.5l133 234q8 12 19 12h30q9 0 12.5 -6.5t-1.5 -13.5l-137 -236q-7 -10 -19 -10h-25z" />
    <glyph glyph-name="uni0146" unicode="&#x146;" horiz-adv-x="1095" 
d="M571 1040q154 0 250.5 -95.5t96.5 -248.5v-680q0 -16 -17 -16h-29q-16 0 -16 16v670q0 132 -82 214.5t-211 82.5q-137 0 -221 -81t-84 -212v-674q0 -16 -16 -16h-29q-16 0 -16 16v994q0 16 16 16h29q16 0 16 -16v-123q0 -6 4 -6q1 0 2 2q45 76 123.5 116.5t183.5 40.5z
M479 -389q-9 0 -13 6.5t1 13.5l133 234q8 12 18 12h31q9 0 12 -6.5t-2 -13.5l-137 -236q-7 -10 -18 -10h-25z" />
    <glyph glyph-name="Ncaron" unicode="&#x147;" horiz-adv-x="1396" 
d="M682 1589q-13 0 -20 10l-175 226q-6 9 -3 14.5t12 5.5h26q14 0 21 -10l153 -195q2 -3 5 -3t4 3l149 195q7 10 20 10h29q21 0 8 -20l-176 -226q-7 -10 -20 -10h-33zM248 0q-17 0 -17 16v1401q0 17 17 17h33q13 0 18 -11l797 -1294q1 -2 3 -2.5t3.5 0.5t1.5 4v1286
q0 17 16 17h29q16 0 16 -17v-1401q0 -16 -16 -16h-31q-13 0 -18 10l-799 1295q-1 2 -3 2.5t-3.5 -0.5t-1.5 -4v-1287q0 -16 -17 -16h-28z" />
    <glyph glyph-name="ncaron" unicode="&#x148;" horiz-adv-x="1095" 
d="M582 1171q-7 -10 -21 -10h-33q-13 0 -20 10l-174 226q-13 20 8 20h27q13 0 20 -10l154 -195q4 -8 8 0l149 195q7 10 21 10h29q21 0 8 -20zM571 1040q154 0 250.5 -95.5t96.5 -248.5v-680q0 -16 -17 -16h-29q-16 0 -16 16v670q0 132 -82 214.5t-211 82.5q-137 0 -221 -81
t-84 -212v-674q0 -16 -16 -16h-29q-16 0 -16 16v994q0 16 16 16h29q16 0 16 -16v-123q0 -6 4 -6q1 0 2 2q45 76 123.5 116.5t183.5 40.5z" />
    <glyph glyph-name="Eng" unicode="&#x14a;" horiz-adv-x="1398" 
d="M1165 1169l2 -4v-1167q0 -139 -58 -212t-189 -77q-17 0 -17 17v24q0 17 17 17q101 3 143.5 61.5t42.5 169.5q0 2 -2 6l-803 1301q-1 2 -3 2.5t-3.5 -0.5t-1.5 -4v-1287q0 -16 -17 -16h-28q-17 0 -17 16v1401q0 17 17 17h33q13 0 18 -11l797 -1294q1 -2 3 -2.5t3.5 0.5
t1.5 4v1286q0 17 16 17h29q16 0 16 -17v-248z" />
    <glyph glyph-name="eng" unicode="&#x14b;" horiz-adv-x="1095" 
d="M571 1040q154 0 250.5 -95.5t96.5 -248.5v-739q0 -130 -62.5 -207.5t-181.5 -83.5q-17 0 -17 17v22q0 16 17 16q88 6 135 69.5t47 164.5v731q0 132 -82 214.5t-211 82.5q-137 0 -221 -81t-84 -212v-674q0 -16 -16 -16h-29q-16 0 -16 16v994q0 16 16 16h29q16 0 16 -16
v-123q0 -6 4 -6q1 0 2 2q45 76 123.5 116.5t183.5 40.5z" />
    <glyph glyph-name="Omacron" unicode="&#x14c;" horiz-adv-x="1273" 
d="M393 1659q-16 0 -16 16v21q0 16 16 16h488q16 0 16 -16v-21q0 -16 -16 -16h-488zM635 -14q-205 0 -331 123.5t-126 324.5v563q0 203 126 328t331 125q207 0 334 -125t127 -328v-563q0 -201 -127 -324.5t-334 -123.5zM635 41q180 0 289.5 107t109.5 284v567
q0 177 -109.5 285.5t-289.5 108.5q-178 0 -286.5 -108.5t-108.5 -285.5v-567q0 -177 108 -284t287 -107z" />
    <glyph glyph-name="omacron" unicode="&#x14d;" horiz-adv-x="1085" 
d="M301 1251q-16 0 -16 17v20q0 17 16 17h487q17 0 17 -17v-20q0 -17 -17 -17h-487zM543 -16q-142 0 -239 73.5t-128 196.5q-16 68 -16 262q0 181 16 256q30 122 128.5 196t238.5 74q141 0 241.5 -74.5t126.5 -195.5q15 -64 15 -258q0 -82 -0.5 -110.5t-3.5 -73t-11 -76.5
q-28 -121 -127.5 -195.5t-240.5 -74.5zM543 41q122 0 206.5 67t106.5 175q8 45 8 231t-8 229q-21 108 -105.5 175t-207.5 67q-124 0 -207.5 -67t-104.5 -175q-10 -56 -10 -229q0 -177 10 -231q21 -109 104.5 -175.5t207.5 -66.5z" />
    <glyph glyph-name="Ohungarumlaut" unicode="&#x150;" horiz-adv-x="1273" 
d="M453 1608q-9 0 -13 6t0 14l131 234q6 12 19 12h28q9 0 12.5 -7t-1.5 -14l-135 -233q-8 -12 -19 -12h-22zM768 1608q-9 0 -12.5 6t0.5 14l131 234q6 12 18 12h29q9 0 12 -7t-2 -14l-135 -233q-8 -12 -18 -12h-23zM635 -14q-205 0 -331 123.5t-126 324.5v563q0 203 126 328
t331 125q207 0 334 -125t127 -328v-563q0 -201 -127 -324.5t-334 -123.5zM635 41q180 0 289.5 107t109.5 284v567q0 177 -109.5 285.5t-289.5 108.5q-178 0 -286.5 -108.5t-108.5 -285.5v-567q0 -177 108 -284t287 -107z" />
    <glyph glyph-name="ohungarumlaut" unicode="&#x151;" horiz-adv-x="1085" 
d="M360 1200q-9 0 -13 7t1 14l131 233q6 12 19 12h28q9 0 12.5 -6t-1.5 -14l-136 -234q-8 -12 -18 -12h-23zM676 1200q-9 0 -13 7t1 14l131 233q6 12 18 12h29q9 0 12 -6t-2 -14l-135 -234q-8 -12 -19 -12h-22zM543 -16q-142 0 -239 73.5t-128 196.5q-16 68 -16 262
q0 181 16 256q30 122 128.5 196t238.5 74q141 0 241.5 -74.5t126.5 -195.5q15 -64 15 -258q0 -82 -0.5 -110.5t-3.5 -73t-11 -76.5q-28 -121 -127.5 -195.5t-240.5 -74.5zM543 41q122 0 206.5 67t106.5 175q8 45 8 231t-8 229q-21 108 -105.5 175t-207.5 67
q-124 0 -207.5 -67t-104.5 -175q-10 -56 -10 -229q0 -177 10 -231q21 -109 104.5 -175.5t207.5 -66.5z" />
    <glyph glyph-name="OE" unicode="&#x152;" horiz-adv-x="1871" 
d="M1729 1393q0 -17 -17 -17h-688q-6 0 -6 -6v-616q0 -6 6 -6h465q16 0 16 -17v-24q0 -17 -16 -17h-465q-6 0 -6 -6v-621q0 -6 6 -6h688q17 0 17 -16v-25q0 -16 -17 -16h-739q-17 0 -17 16v158q0 10 -8 2q-52 -90 -144 -140t-212 -50q-184 0 -299 115t-115 294v641
q0 180 115 297t299 117q120 0 212 -51t144 -142q8 -8 8 3v157q0 17 17 17h739q17 0 17 -17v-24zM596 41q160 0 260 100t100 252v645q0 153 -100.5 254t-259.5 101t-257.5 -101t-98.5 -254v-645q0 -153 98.5 -252.5t257.5 -99.5z" />
    <glyph glyph-name="oe" unicode="&#x153;" horiz-adv-x="1740" 
d="M1217 41q104 0 181.5 50.5t108.5 135.5q1 2 2 5t2 4q4 12 17 8l22 -4q19 -4 13 -19q-36 -108 -129 -172.5t-222 -64.5q-116 0 -204 58.5t-129 154.5q-1 3 -3 4t-3.5 0t-2.5 -4q-41 -96 -131.5 -154.5t-208.5 -58.5q-137 0 -230.5 73.5t-123.5 196.5q-3 11 -5.5 22.5
t-4 25.5t-2.5 24t-2 28t-1.5 27.5t-0.5 31.5v31v35.5v36.5q0 190 16 256q28 122 123 196t231 74q116 0 207.5 -58.5t132.5 -154.5q1 -3 2.5 -4t3.5 0t3 4q39 96 128 154.5t205 58.5q137 0 234 -74.5t127 -195.5q9 -40 11.5 -85t2.5 -167q0 -16 -16 -16h-662q-6 0 -6 -6
q0 -174 8 -215q21 -109 102.5 -175.5t203.5 -66.5zM834 283q6 34 6 231t-6 229q-21 108 -103 175t-201 67t-198.5 -67t-100.5 -175q-10 -45 -10 -229q0 -188 10 -231q21 -109 100.5 -175.5t198.5 -66.5t201 67t103 175zM1212 985q-119 0 -199.5 -67t-101.5 -175
q-8 -52 -8 -184q0 -6 6 -6h609q6 0 6 6q0 135 -8 184q-22 108 -103.5 175t-200.5 67z" />
    <glyph glyph-name="Racute" unicode="&#x154;" horiz-adv-x="1251" 
d="M754 1862q9 0 12 -7t-2 -14l-137 -235q-7 -11 -19 -11h-24q-9 0 -13 6.5t0 14.5l134 233q9 13 18 13h31zM1096 0q-15 0 -21 12l-332 680q-4 4 -6 4h-438q-6 0 -6 -6v-674q0 -16 -17 -16h-28q-17 0 -17 16v1405q0 17 17 17h500q165 0 266.5 -103.5t101.5 -269.5
q0 -150 -82.5 -248t-222.5 -117q-7 0 -4 -6l326 -676q4 -8 1 -13t-12 -5h-26zM299 1380q-6 0 -6 -6v-616q0 -6 6 -6h449q138 0 222.5 86.5t84.5 226.5q0 141 -84.5 228t-222.5 87h-449z" />
    <glyph glyph-name="racute" unicode="&#x155;" horiz-adv-x="722" 
d="M573 1475q9 0 12.5 -6.5t-1.5 -14.5l-138 -235q-7 -11 -18 -11h-25q-9 0 -13 7t1 14l133 233q9 13 19 13h30zM551 1034q70 0 123 -24q15 -6 8 -21l-12 -33q-7 -13 -17 -10l-8 4q-46 17 -100 17q-124 0 -205.5 -96.5t-81.5 -231.5v-623q0 -16 -16 -16h-29q-16 0 -16 16
v994q0 16 16 16h29q16 0 16 -16v-166q0 -5 2.5 -5.5t3.5 3.5q41 89 115.5 140.5t171.5 51.5z" />
    <glyph glyph-name="uni0156" unicode="&#x156;" horiz-adv-x="1251" 
d="M811 700q-7 0 -4 -6l326 -676q4 -8 1 -13t-12 -5h-26q-15 0 -21 12l-332 680q-4 4 -6 4h-438q-6 0 -6 -6v-674q0 -16 -17 -16h-28q-17 0 -17 16v1405q0 17 17 17h500q165 0 266.5 -103.5t101.5 -269.5q0 -150 -82.5 -248t-222.5 -117zM299 1380q-6 0 -6 -6v-616
q0 -6 6 -6h449q138 0 222.5 86.5t84.5 226.5q0 141 -84.5 228t-222.5 87h-449zM565 -389q-9 0 -13 6.5t1 13.5l133 234q8 12 19 12h30q9 0 12 -6.5t-2 -13.5l-137 -236q-7 -10 -18 -10h-25z" />
    <glyph glyph-name="uni0157" unicode="&#x157;" horiz-adv-x="727" 
d="M551 1034q70 0 123 -24q15 -6 8 -21l-12 -33q-7 -13 -17 -10l-8 4q-46 17 -100 17q-124 0 -205.5 -96.5t-81.5 -231.5v-623q0 -16 -16 -16h-29q-16 0 -16 16v994q0 16 16 16h29q16 0 16 -16v-166q0 -5 2.5 -5.5t3.5 3.5q41 89 115.5 140.5t171.5 51.5zM66 -389
q-9 0 -13 6.5t0 13.5l133 234q8 12 19 12h31q9 0 12 -6.5t-2 -13.5l-137 -236q-7 -10 -19 -10h-24z" />
    <glyph glyph-name="Rcaron" unicode="&#x158;" horiz-adv-x="1251" 
d="M662 1579q-7 -10 -21 -10h-33q-13 0 -20 10l-174 225q-6 9 -3.5 15t11.5 6h27q13 0 20 -10l154 -195q4 -8 8 0l149 195q7 10 21 10h28q9 0 12 -6t-3 -15zM1096 0q-15 0 -21 12l-332 680q-4 4 -6 4h-438q-6 0 -6 -6v-674q0 -16 -17 -16h-28q-17 0 -17 16v1405q0 17 17 17
h500q165 0 266.5 -103.5t101.5 -269.5q0 -150 -82.5 -248t-222.5 -117q-7 0 -4 -6l326 -676q4 -8 1 -13t-12 -5h-26zM299 1380q-6 0 -6 -6v-616q0 -6 6 -6h449q138 0 222.5 86.5t84.5 226.5q0 141 -84.5 228t-222.5 87h-449z" />
    <glyph glyph-name="rcaron" unicode="&#x159;" horiz-adv-x="722" 
d="M481 1192q-7 -10 -20 -10h-33q-13 0 -20 10l-175 225q-6 9 -3 15t12 6h26q14 0 21 -11l153 -194q2 -3 5 -3t4 3l149 194q7 11 21 11h28q9 0 11.5 -6t-3.5 -15zM551 1034q70 0 123 -24q15 -6 8 -21l-12 -33q-7 -13 -17 -10l-8 4q-46 17 -100 17q-124 0 -205.5 -96.5
t-81.5 -231.5v-623q0 -16 -16 -16h-29q-16 0 -16 16v994q0 16 16 16h29q16 0 16 -16v-166q0 -5 2.5 -5.5t3.5 3.5q41 89 115.5 140.5t171.5 51.5z" />
    <glyph glyph-name="Sacute" unicode="&#x15a;" horiz-adv-x="1191" 
d="M541 1612q-9 0 -13 6t0 14l134 234q8 12 18 12h31q9 0 12 -6t-2 -14l-137 -236q-7 -10 -19 -10h-24zM608 -16q-217 0 -343 97t-126 261v76q0 16 17 16h24q17 0 17 -16v-72q0 -138 111.5 -221.5t305.5 -83.5q185 0 285 78t100 215q0 122 -91.5 202.5t-329.5 184.5
q-194 85 -259 126q-112 72 -141 170q-12 43 -12 97q0 163 109 249.5t311 86.5q220 0 340.5 -97t120.5 -263v-54q0 -16 -17 -16h-29q-16 0 -16 16v49q0 140 -105.5 224t-297.5 84q-173 0 -265 -70.5t-92 -204.5q0 -45 10 -81t33.5 -66t52 -53t77 -48t96 -46t119.5 -51
q2 -1 3 -1q116 -49 192.5 -90.5t137 -93.5t88 -113t27.5 -137q0 -160 -118 -257t-335 -97z" />
    <glyph glyph-name="sacute" unicode="&#x15b;" horiz-adv-x="966" 
d="M446 1196q-9 0 -13 7t1 14l133 233q8 12 19 12h30q9 0 12.5 -6t-1.5 -14l-138 -236q-7 -10 -18 -10h-25zM494 -8q-156 0 -255.5 76t-99.5 184v35q0 16 17 16h26q17 0 17 -16v-33q0 -85 82.5 -147t210.5 -62t207 62.5t79 158.5q0 39 -16.5 71t-38.5 52.5t-64.5 40t-73 30
t-85.5 27.5q-15 5 -23 7q-53 16 -85.5 27.5t-76.5 30t-70.5 38t-52 46t-37.5 61t-12 75.5q0 119 94.5 190.5t249.5 71.5q156 0 252.5 -74t96.5 -186v-10q0 -16 -17 -16h-26q-17 0 -17 14v12q0 88 -80.5 146.5t-210.5 58.5q-126 0 -203 -56.5t-77 -146.5q0 -32 9.5 -58
t31 -47.5t42.5 -36.5t60 -31t65.5 -25t75.5 -25q156 -47 215 -79q135 -74 136 -206q0 -121 -95 -198.5t-251 -77.5z" />
    <glyph glyph-name="Scedilla" unicode="&#x15e;" horiz-adv-x="1191" 
d="M1061 338q0 -157 -112 -253.5t-320 -100.5q-5 0 -5.5 -3t3.5 -6q137 -108 110 -237q-12 -55 -50.5 -85.5t-85 -33t-95.5 3.5q-16 3 -12 21l4 16q3 15 20 12q62 -13 108 6t56 76q21 111 -119 230q-4 2 -8 2q-194 12 -305 107.5t-111 248.5v76q0 16 17 16h24q17 0 17 -16
v-72q0 -138 111.5 -221.5t305.5 -83.5q185 0 285 78t100 215q0 122 -91.5 202.5t-329.5 184.5q-194 85 -259 126q-112 72 -141 170q-12 43 -12 97q0 163 109 249.5t311 86.5q220 0 340.5 -97t120.5 -263v-54q0 -16 -17 -16h-29q-16 0 -16 16v49q0 140 -105.5 224t-297.5 84
q-173 0 -265 -70.5t-92 -204.5q0 -45 10 -81t33.5 -66t52 -53t77 -48t96 -46t119.5 -51q2 -1 3 -1q116 -49 192.5 -90.5t137 -93.5t88 -113t27.5 -137z" />
    <glyph glyph-name="scedilla" unicode="&#x15f;" horiz-adv-x="966" 
d="M840 268q0 -115 -85 -191t-229 -85q-3 0 -4 -2t2 -4q140 -111 113 -240q-12 -55 -50.5 -85.5t-85 -33t-95.5 3.5q-17 3 -13 21l4 16q3 17 21 13q62 -13 108 5.5t56 75.5q11 59 -23.5 119t-95.5 111q-4 2 -8 2q-140 9 -228 82.5t-88 175.5v35q0 16 17 16h26q17 0 17 -16
v-33q0 -85 82.5 -147t210.5 -62t207 62.5t79 158.5q0 39 -16.5 71t-38.5 52.5t-64.5 40t-73 30t-85.5 27.5q-15 5 -23 7q-53 16 -85.5 27.5t-76.5 30t-70.5 38t-52 46t-37.5 61t-12 75.5q0 119 94.5 190.5t249.5 71.5q156 0 252.5 -74t96.5 -186v-10q0 -16 -17 -16h-26
q-17 0 -17 14v12q0 88 -80.5 146.5t-210.5 58.5q-126 0 -203 -56.5t-77 -146.5q0 -32 9.5 -58t31 -47.5t42.5 -36.5t60 -31t65.5 -25t75.5 -25q156 -47 215 -79q135 -74 136 -206z" />
    <glyph glyph-name="Scaron" unicode="&#x160;" horiz-adv-x="1191" 
d="M565 1585q-13 0 -20 10l-174 226q-13 20 8 20h27q13 0 20 -10l154 -195q4 -8 8 0l149 195q7 10 21 10h28q9 0 12 -5.5t-3 -14.5l-177 -226q-7 -10 -20 -10h-33zM608 -16q-217 0 -343 97t-126 261v76q0 16 17 16h24q17 0 17 -16v-72q0 -138 111.5 -221.5t305.5 -83.5
q185 0 285 78t100 215q0 122 -91.5 202.5t-329.5 184.5q-194 85 -259 126q-112 72 -141 170q-12 43 -12 97q0 163 109 249.5t311 86.5q220 0 340.5 -97t120.5 -263v-54q0 -16 -17 -16h-29q-16 0 -16 16v49q0 140 -105.5 224t-297.5 84q-173 0 -265 -70.5t-92 -204.5
q0 -45 10 -81t33.5 -66t52 -53t77 -48t96 -46t119.5 -51q2 -1 3 -1q116 -49 192.5 -90.5t137 -93.5t88 -113t27.5 -137q0 -160 -118 -257t-335 -97z" />
    <glyph glyph-name="scaron" unicode="&#x161;" horiz-adv-x="966" 
d="M471 1169q-13 0 -20 11l-175 225q-6 9 -3 14.5t12 5.5h26q14 0 21 -10l153 -194q1 -3 4 -3t5 3l149 194q7 10 21 10h28q21 0 8 -20l-176 -225q-7 -11 -20 -11h-33zM494 -8q-156 0 -255.5 76t-99.5 184v35q0 16 17 16h26q17 0 17 -16v-33q0 -85 82.5 -147t210.5 -62
t207 62.5t79 158.5q0 39 -16.5 71t-38.5 52.5t-64.5 40t-73 30t-85.5 27.5q-15 5 -23 7q-53 16 -85.5 27.5t-76.5 30t-70.5 38t-52 46t-37.5 61t-12 75.5q0 119 94.5 190.5t249.5 71.5q156 0 252.5 -74t96.5 -186v-10q0 -16 -17 -16h-26q-17 0 -17 14v12q0 88 -80.5 146.5
t-210.5 58.5q-126 0 -203 -56.5t-77 -146.5q0 -32 9.5 -58t31 -47.5t42.5 -36.5t60 -31t65.5 -25t75.5 -25q156 -47 215 -79q135 -74 136 -206q0 -121 -95 -198.5t-251 -77.5z" />
    <glyph glyph-name="uni0162" unicode="&#x162;" horiz-adv-x="1146" 
d="M1040 1393q0 -17 -16 -17h-424q-6 0 -6 -6v-1364q0 -6 4 -6q146 -113 119 -246q-12 -55 -51 -85t-85.5 -32.5t-95.5 3.5q-15 3 -12 20l4 16q3 17 21 13q62 -13 108 6t56 76q21 110 -117 227q-4 2 -8 2q-1 1 -3 2t-2 2v2v2v1362q0 6 -6 6h-403q-17 0 -17 17v24q0 17 17 17
h901q16 0 16 -17v-24z" />
    <glyph glyph-name="uni0163" unicode="&#x163;" horiz-adv-x="724" 
d="M514 0q-3 0 -5 -2.5t1 -5.5q118 -102 94 -223q-12 -55 -50.5 -85.5t-85 -33t-95.5 3.5q-16 3 -13 20l5 17q3 15 20 12q62 -13 108 6t56 76q19 108 -107 217q-4 2 -8 2q-93 16 -141.5 73.5t-48.5 178.5v709q0 6 -6 6h-132q-16 0 -16 16v23q0 16 16 16h132q6 0 6 6v238
q0 16 16 16h27q16 0 16 -16v-238q0 -6 6 -6h256q17 0 17 -16v-23q0 -16 -17 -16h-256q-6 0 -6 -6v-705q0 -114 53.5 -158.5t167.5 -44.5h45q17 0 17 -16v-25q0 -16 -17 -16h-55z" />
    <glyph glyph-name="Tcaron" unicode="&#x164;" horiz-adv-x="1146" 
d="M598 1559q-7 -11 -20 -11h-33q-14 0 -21 11l-174 225q-13 20 8 20h27q14 0 21 -10l153 -192q4 -8 8 0l150 192q7 10 20 10h29q21 0 8 -20zM1024 1434q16 0 16 -17v-24q0 -17 -16 -17h-424q-6 0 -6 -6v-1354q0 -16 -16 -16h-29q-17 0 -17 16v1354q0 6 -6 6h-403
q-17 0 -17 17v24q0 17 17 17h901z" />
    <glyph glyph-name="tcaron" unicode="&#x165;" horiz-adv-x="724" 
d="M309 1409q-7 -10 -20 -10h-33q-13 0 -20 10l-175 225q-6 9 -3 15t12 6h26q14 0 21 -10l153 -193q2 -3 5 -3t4 3l149 193q7 10 21 10h28q9 0 11.5 -6t-3.5 -15zM524 57h45q17 0 17 -16v-25q0 -16 -17 -16h-49q-65 0 -112 11t-86 38.5t-58.5 79t-19.5 127.5v709q0 6 -6 6
h-132q-16 0 -16 16v23q0 16 16 16h132q6 0 6 6v238q0 16 16 16h27q16 0 16 -16v-238q0 -6 6 -6h256q17 0 17 -16v-23q0 -16 -17 -16h-256q-6 0 -6 -6v-705q0 -114 53.5 -158.5t167.5 -44.5z" />
    <glyph glyph-name="Tbar" unicode="&#x166;" horiz-adv-x="1228" 
d="M1040 1393q0 -17 -16 -17h-424q-6 0 -6 -6v-496q0 -6 6 -6h246q16 0 16 -16v-21q0 -16 -16 -16h-246q-6 0 -6 -6v-793q0 -16 -16 -16h-29q-17 0 -17 16v793q0 6 -6 6h-254q-16 0 -16 16v21q0 16 16 16h254q6 0 6 6v496q0 6 -6 6h-403q-17 0 -17 17v24q0 17 17 17h901
q16 0 16 -17v-24z" />
    <glyph glyph-name="tbar" unicode="&#x167;" horiz-adv-x="1228" 
d="M524 57h45q17 0 17 -16v-25q0 -16 -17 -16h-49q-65 0 -112 11t-86 38.5t-58.5 79t-19.5 127.5v399q0 7 -6 7h-117q-17 0 -17 16v20q0 17 17 17h117q6 0 6 6v244q0 6 -6 6h-132q-16 0 -16 16v23q0 16 16 16h132q6 0 6 6v238q0 16 16 16h27q16 0 16 -16v-238q0 -6 6 -6h256
q17 0 17 -16v-23q0 -16 -17 -16h-256q-6 0 -6 -6v-244q0 -6 6 -6h252q17 0 17 -17v-20q0 -16 -17 -16h-252q-6 0 -6 -7v-395q0 -114 53.5 -158.5t167.5 -44.5z" />
    <glyph glyph-name="Umacron" unicode="&#x16a;" horiz-adv-x="1349" 
d="M432 1667q-16 0 -16 16v21q0 16 16 16h488q16 0 16 -16v-21q0 -16 -16 -16h-488zM674 -16q-207 0 -334 121t-127 319v993q0 17 16 17h29q16 0 16 -17v-999q0 -169 110 -273t290 -104q181 0 290 104t109 273v999q0 17 17 17h28q17 0 17 -17v-993q0 -198 -127 -319
t-334 -121z" />
    <glyph glyph-name="umacron" unicode="&#x16b;" horiz-adv-x="1093" 
d="M793 1288q16 0 16 -16v-21q0 -16 -16 -16h-488q-16 0 -16 16v21q0 16 16 16h488zM836 1010q0 16 16 16h29q16 0 16 -16v-994q0 -16 -16 -16h-29q-16 0 -16 16v123q0 4 -3 4.5t-4 -2.5q-45 -74 -124 -114.5t-183 -40.5q-153 0 -248.5 91.5t-95.5 246.5v686q0 16 17 16h28
q17 0 17 -16v-674q0 -134 80 -213.5t210 -79.5q139 0 222.5 81t83.5 212v674z" />
    <glyph glyph-name="Uring" unicode="&#x16e;" horiz-adv-x="1349" 
d="M674 1608q-86 0 -145.5 57.5t-59.5 142.5q0 84 59.5 142.5t145.5 58.5q85 0 144 -59t59 -142q0 -84 -59 -142t-144 -58zM674 1657q64 0 108.5 43.5t44.5 107.5t-45 108t-108 44q-64 0 -109 -44t-45 -108t45 -107.5t109 -43.5zM674 -16q-207 0 -334 121t-127 319v993
q0 17 16 17h29q16 0 16 -17v-999q0 -169 110 -273t290 -104q181 0 290 104t109 273v999q0 17 17 17h28q17 0 17 -17v-993q0 -198 -127 -319t-334 -121z" />
    <glyph glyph-name="uring" unicode="&#x16f;" horiz-adv-x="1093" 
d="M547 1176q-86 0 -145.5 57.5t-59.5 142.5q0 84 59.5 142.5t145.5 58.5q85 0 144 -59t59 -142q0 -84 -59 -142t-144 -58zM547 1528q-64 0 -109 -44t-45 -108t45 -107.5t109 -43.5t108.5 43.5t44.5 107.5t-45 108t-108 44zM836 1010q0 16 16 16h29q16 0 16 -16v-994
q0 -16 -16 -16h-29q-16 0 -16 16v123q0 4 -3 4.5t-4 -2.5q-45 -74 -124 -114.5t-183 -40.5q-153 0 -248.5 91.5t-95.5 246.5v686q0 16 17 16h28q17 0 17 -16v-674q0 -134 80 -213.5t210 -79.5q139 0 222.5 81t83.5 212v674z" />
    <glyph glyph-name="Uhungarumlaut" unicode="&#x170;" horiz-adv-x="1349" 
d="M492 1616q-9 0 -13 6t0 14l131 234q6 12 19 12h28q9 0 12.5 -6t-1.5 -14l-136 -234q-8 -12 -18 -12h-22zM807 1616q-9 0 -13 6t1 14l131 234q6 12 18 12h29q9 0 12 -6t-2 -14l-135 -234q-8 -12 -19 -12h-22zM674 -16q-207 0 -334 121t-127 319v993q0 17 16 17h29
q16 0 16 -17v-999q0 -169 110 -273t290 -104q181 0 290 104t109 273v999q0 17 17 17h28q17 0 17 -17v-993q0 -198 -127 -319t-334 -121z" />
    <glyph glyph-name="uhungarumlaut" unicode="&#x171;" horiz-adv-x="1093" 
d="M530 1450q9 0 12.5 -6t-1.5 -14l-135 -234q-8 -12 -19 -12h-22q-9 0 -13 6t0 14l131 234q6 12 19 12h28zM846 1450q9 0 12 -6t-2 -14l-135 -234q-8 -12 -19 -12h-22q-9 0 -13 6t1 14l131 234q6 12 18 12h29zM836 1010q0 16 16 16h29q16 0 16 -16v-994q0 -16 -16 -16h-29
q-16 0 -16 16v123q0 4 -3 4.5t-4 -2.5q-45 -74 -124 -114.5t-183 -40.5q-153 0 -248.5 91.5t-95.5 246.5v686q0 16 17 16h28q17 0 17 -16v-674q0 -134 80 -213.5t210 -79.5q139 0 222.5 81t83.5 212v674z" />
    <glyph glyph-name="Uogonek" unicode="&#x172;" horiz-adv-x="1349" 
d="M1073 1417q0 17 17 17h28q17 0 17 -17v-993q0 -193 -121.5 -313.5t-319.5 -126.5q-1 0 -4 -1t-4 -1q-115 -107 -96 -209q10 -57 56 -76t108 -6q17 3 20 -13l4 -16q3 -17 -12 -20q-49 -6 -95.5 -3.5t-85 32.5t-50.5 85q-25 123 90 224q5 2 2 5l-4 1q-187 15 -298.5 134
t-111.5 304v993q0 17 16 17h29q16 0 16 -17v-999q0 -169 110 -273t290 -104q181 0 290 104t109 273v999z" />
    <glyph glyph-name="uogonek" unicode="&#x173;" horiz-adv-x="1093" 
d="M930 -319q17 3 20 -13l4 -16q4 -18 -12 -21q-49 -6 -95.5 -3.5t-85 33t-50.5 85.5q-27 137 127 250q2 4 0 6q-2 4 -2 14v123q0 4 -3 4.5t-4 -2.5q-45 -74 -124 -114.5t-183 -40.5q-153 0 -248.5 91.5t-95.5 246.5v686q0 16 17 16h28q17 0 17 -16v-674q0 -134 80 -213.5
t210 -79.5q139 0 222.5 81t83.5 212v674q0 16 16 16h29q16 0 16 -16v-998q0 -12 -10 -20q-62 -49 -97 -109.5t-24 -120.5q10 -57 56 -75.5t108 -5.5z" />
    <glyph glyph-name="Wcircumflex" unicode="&#x174;" horiz-adv-x="1798" 
d="M690 1575q-21 0 -8 20l176 226q7 10 21 10h30q14 0 21 -10l176 -226q13 -20 -8 -20h-29q-13 0 -20 10l-148 195q-4 8 -8 0l-154 -195q-7 -10 -20 -10h-29zM489 0q-15 0 -18 14l-410 1401q-3 7 1 13t12 6h30q15 0 19 -15l379 -1292q4 -8 8 0l348 1292q4 15 19 15h32
q15 0 19 -15l356 -1292q4 -8 8 0l385 1292q4 15 19 15h28q8 0 12 -6t1 -13l-416 -1401q-3 -14 -18 -14h-33q-16 0 -19 14l-352 1307q-4 8 -8 0l-352 -1307q-3 -14 -19 -14h-31z" />
    <glyph glyph-name="wcircumflex" unicode="&#x175;" horiz-adv-x="1400" 
d="M492 1167q-9 0 -12 6t3 15l176 225q7 10 21 10h31q13 0 20 -10l176 -225q6 -9 3.5 -15t-11.5 -6h-29q-13 0 -20 11l-148 194q-4 8 -8 0l-153 -194q-7 -11 -21 -11h-28zM383 0q-15 0 -18 14l-287 994q-4 18 12 18h29q15 0 18 -14l258 -920q4 -8 8 0l263 920q4 14 18 14h31
q15 0 18 -14l262 -918q1 -3 4 -3t5 3l260 918q4 14 18 14h29q8 0 11.5 -5.5t0.5 -12.5l-289 -994q-4 -14 -18 -14h-31q-15 0 -18 14l-265 895q-4 8 -8 0l-260 -895q-4 -14 -18 -14h-33z" />
    <glyph glyph-name="Ycircumflex" unicode="&#x176;" horiz-adv-x="1101" 
d="M344 1573q-21 0 -8 20l176 226q7 10 20 10h31q14 0 21 -10l176 -226q13 -20 -8 -20h-29q-14 0 -21 10l-147 195q-4 8 -8 0l-154 -195q-7 -10 -20 -10h-29zM537 0q-17 0 -17 16v664q0 4 -2 8l-430 725q-5 7 -2 14t12 7h29q11 0 18 -11l402 -675q4 -8 8 0l401 675
q7 11 19 11h29q9 0 12 -7t-2 -14l-430 -725q-2 -4 -2 -8v-664q0 -16 -17 -16h-28z" />
    <glyph glyph-name="ycircumflex" unicode="&#x177;" horiz-adv-x="890" 
d="M238 1169q-9 0 -12 6t3 15l177 225q7 10 20 10h31q13 0 20 -10l176 -225q6 -9 3.5 -15t-11.5 -6h-29q-13 0 -20 11l-147 194q-1 3 -4 3t-5 -3l-153 -194q-7 -11 -21 -11h-28zM127 -410q-14 0 -14 17v22q0 17 14 17h14q39 1 66.5 6t52 22.5t41.5 38.5t37 66t36 91t42 126
v8l-357 1004q-3 7 1.5 12.5t13.5 5.5h28q16 0 19 -12l323 -924q2 -3 5 -3t4 3l317 924q3 12 18 12h29q9 0 13 -5t1 -13l-397 -1129q-34 -97 -61.5 -152.5t-62.5 -87t-71.5 -40.5t-97.5 -9h-14z" />
    <glyph glyph-name="Ydieresis" unicode="&#x178;" horiz-adv-x="1101" 
d="M395 1669q-31 0 -51 19t-20 47t20 46.5t51 18.5q28 0 47 -18.5t19 -46.5t-19 -47t-47 -19zM711 1669q-29 0 -49.5 19t-20.5 47t20.5 46.5t49.5 18.5t48 -18.5t19 -46.5t-19 -47t-48 -19zM537 0q-17 0 -17 16v664q0 4 -2 8l-430 725q-5 7 -2 14t12 7h29q11 0 18 -11
l402 -675q4 -8 8 0l401 675q7 11 19 11h29q9 0 12 -7t-2 -14l-430 -725q-2 -4 -2 -8v-664q0 -16 -17 -16h-28z" />
    <glyph glyph-name="Zacute" unicode="&#x179;" horiz-adv-x="1114" 
d="M494 1622q-9 0 -13 6t0 14l133 234q8 12 19 12h31q9 0 12 -6t-2 -14l-137 -236q-7 -10 -19 -10h-24zM125 0q-16 0 -16 16v31q0 9 6 21l803 1300q4 8 -5 8h-788q-16 0 -16 17v24q0 17 16 17h848q16 0 16 -17v-31q0 -8 -6 -20l-803 -1300q-4 -9 4 -9h789q16 0 16 -16v-25
q0 -16 -16 -16h-848z" />
    <glyph glyph-name="zacute" unicode="&#x17a;" horiz-adv-x="894" 
d="M399 1206q-9 0 -13 7t1 14l133 233q9 13 19 13h30q9 0 12.5 -6.5t-1.5 -14.5l-138 -235q-7 -11 -18 -11h-25zM96 0q-16 0 -16 16v31q0 10 6 19l653 895q4 8 -4 8h-633q-16 0 -16 16v25q0 16 16 16h695q16 0 16 -16v-31q0 -9 -6 -18l-653 -895q-4 -9 4 -9h635q16 0 16 -16
v-25q0 -16 -16 -16h-697z" />
    <glyph glyph-name="Zdotaccent" unicode="&#x17b;" horiz-adv-x="1114" 
d="M537 1659q-29 0 -49.5 18.5t-20.5 46.5t20 46t50 18q29 0 47 -18t18 -46t-18 -46.5t-47 -18.5zM125 0q-16 0 -16 16v31q0 9 6 21l803 1300q4 8 -5 8h-788q-16 0 -16 17v24q0 17 16 17h848q16 0 16 -17v-31q0 -8 -6 -20l-803 -1300q-4 -9 4 -9h789q16 0 16 -16v-25
q0 -16 -16 -16h-848z" />
    <glyph glyph-name="zdotaccent" unicode="&#x17c;" horiz-adv-x="894" 
d="M442 1243q-29 0 -49 19t-20 47t19.5 45.5t49.5 17.5q29 0 47.5 -17.5t18.5 -45.5t-18.5 -47t-47.5 -19zM96 0q-16 0 -16 16v31q0 10 6 19l653 895q4 8 -4 8h-633q-16 0 -16 16v25q0 16 16 16h695q16 0 16 -16v-31q0 -9 -6 -18l-653 -895q-4 -9 4 -9h635q16 0 16 -16v-25
q0 -16 -16 -16h-697z" />
    <glyph glyph-name="Zcaron" unicode="&#x17d;" horiz-adv-x="1114" 
d="M518 1595q-13 0 -20 11l-174 225q-13 20 8 20h26q14 0 21 -10l153 -194q2 -3 5 -3t4 3l149 194q7 10 21 10h28q9 0 12 -5.5t-3 -14.5l-177 -225q-7 -11 -20 -11h-33zM125 0q-16 0 -16 16v31q0 9 6 21l803 1300q4 8 -5 8h-788q-16 0 -16 17v24q0 17 16 17h848q16 0 16 -17
v-31q0 -8 -6 -20l-803 -1300q-4 -9 4 -9h789q16 0 16 -16v-25q0 -16 -16 -16h-848z" />
    <glyph glyph-name="zcaron" unicode="&#x17e;" horiz-adv-x="894" 
d="M424 1180q-14 0 -21 10l-174 225q-6 9 -3 15t12 6h26q14 0 21 -11l153 -194q4 -8 8 0l150 194q7 11 20 11h29q9 0 11.5 -6t-3.5 -15l-176 -225q-7 -10 -20 -10h-33zM96 0q-16 0 -16 16v31q0 10 6 19l653 895q4 8 -4 8h-633q-16 0 -16 16v25q0 16 16 16h695q16 0 16 -16
v-31q0 -9 -6 -18l-653 -895q-4 -9 4 -9h635q16 0 16 -16v-25q0 -16 -16 -16h-697z" />
    <glyph glyph-name="florin" unicode="&#x192;" horiz-adv-x="1114" 
d="M610 1104q16 101 42 163t72.5 100t109.5 52t163 15q17 0 17 -17v-24q0 -17 -17 -17h-57q-69 0 -117 -17t-78 -54.5t-46.5 -84.5t-28.5 -118l-52 -326q0 -6 5 -6h221q16 0 16 -16v-27q0 -16 -16 -16h-230q-2 0 -4 -2.5t-2 -3.5l-125 -785q-17 -101 -43 -163t-72.5 -100
t-109.5 -52t-162 -15q-16 0 -16 17v24q0 17 16 17h58q69 0 116.5 17.5t77.5 54.5t47 84t29 118l123 783q0 6 -4 6h-170q-17 0 -17 16v27q0 16 17 16h178q1 0 3.5 2t2.5 4z" />
    <glyph glyph-name="uni01CD" unicode="&#x1cd;" horiz-adv-x="1165" 
d="M616 1559q-7 -11 -20 -11h-33q-13 0 -20 11l-174 225q-13 20 8 20h26q14 0 21 -10l154 -192q4 -8 8 0l149 192q7 10 21 10h28q9 0 12 -5.5t-3 -14.5zM1042 0q-14 0 -18 14l-96 293q0 4 -8 4h-672q-8 0 -8 -4l-97 -293q-3 -14 -18 -14h-29q-8 0 -12.5 5.5t-1.5 12.5
l463 1401q4 15 18 15h37q14 0 18 -15l465 -1401q3 -7 -1.5 -12.5t-12.5 -5.5h-27zM260 373q-3 -6 6 -6h633q9 0 6 6l-319 973q-4 8 -8 0z" />
    <glyph glyph-name="uni01CE" unicode="&#x1ce;" horiz-adv-x="1024" 
d="M557 1167q-7 -10 -20 -10h-33q-14 0 -21 10l-174 226q-13 20 8 20h27q14 0 21 -10l153 -193q4 -8 8 0l150 193q7 10 20 10h29q21 0 8 -20zM518 1042q174 0 259 -90.5t85 -249.5v-686q0 -16 -16 -16h-29q-16 0 -16 16v113q0 10 -8 2q-51 -72 -142.5 -109.5t-199.5 -37.5
q-64 0 -120.5 15t-105.5 46.5t-77.5 88t-28.5 132.5q0 148 112 233t308 85h256q6 0 6 6v117q0 127 -70 202.5t-219 75.5q-116 0 -192 -48.5t-91 -131.5q-3 -17 -18 -14l-31 6q-17 3 -14 14q20 105 114.5 168t237.5 63zM455 39q88 0 164.5 27t129 87t52.5 144v225q0 6 -6 6
h-258q-160 0 -258.5 -69t-98.5 -191q0 -113 77 -171t198 -58z" />
    <glyph glyph-name="uni0218" unicode="&#x218;" horiz-adv-x="1191" 
d="M608 -16q-217 0 -343 97t-126 261v76q0 16 17 16h24q17 0 17 -16v-72q0 -138 111.5 -221.5t305.5 -83.5q185 0 285 78t100 215q0 122 -91.5 202.5t-329.5 184.5q-194 85 -259 126q-112 72 -141 170q-12 43 -12 97q0 163 109 249.5t311 86.5q220 0 340.5 -97t120.5 -263
v-54q0 -16 -17 -16h-29q-16 0 -16 16v49q0 140 -105.5 224t-297.5 84q-173 0 -265 -70.5t-92 -204.5q0 -45 10 -81t33.5 -66t52 -53t77 -48t96 -46t119.5 -51q2 -1 3 -1q116 -49 192.5 -90.5t137 -93.5t88 -113t27.5 -137q0 -160 -118 -257t-335 -97zM504 -406q-9 0 -13 7
t1 14l133 233q9 13 18 13h31q9 0 12 -6.5t-2 -14.5l-137 -235q-7 -11 -19 -11h-24z" />
    <glyph glyph-name="uni0219" unicode="&#x219;" horiz-adv-x="966" 
d="M494 -8q-156 0 -255.5 76t-99.5 184v35q0 16 17 16h26q17 0 17 -16v-33q0 -85 82.5 -147t210.5 -62t207 62.5t79 158.5q0 39 -16.5 71t-38.5 52.5t-64.5 40t-73 30t-85.5 27.5q-15 5 -23 7q-53 16 -85.5 27.5t-76.5 30t-70.5 38t-52 46t-37.5 61t-12 75.5
q0 119 94.5 190.5t249.5 71.5q156 0 252.5 -74t96.5 -186v-10q0 -16 -17 -16h-26q-17 0 -17 14v12q0 88 -80.5 146.5t-210.5 58.5q-126 0 -203 -56.5t-77 -146.5q0 -32 9.5 -58t31 -47.5t42.5 -36.5t60 -31t65.5 -25t75.5 -25q156 -47 215 -79q135 -74 136 -206
q0 -121 -95 -198.5t-251 -77.5zM403 -397q-9 0 -13 6.5t1 13.5l133 234q8 12 19 12h30q9 0 12.5 -6.5t-1.5 -14.5l-138 -235q-7 -10 -18 -10h-25z" />
    <glyph glyph-name="uni021A" unicode="&#x21a;" horiz-adv-x="1148" 
d="M106 1417q0 17 17 17h901q16 0 16 -17v-24q0 -17 -16 -17h-424q-6 0 -6 -6v-1354q0 -16 -16 -16h-29q-17 0 -17 16v1354q0 6 -6 6h-403q-17 0 -17 17v24zM403 -389q-9 0 -13 6.5t1 13.5l133 234q8 12 19 12h30q9 0 12.5 -6.5t-1.5 -13.5l-138 -236q-7 -10 -18 -10h-25z
" />
    <glyph glyph-name="uni021B" unicode="&#x21b;" horiz-adv-x="724" 
d="M524 57h45q17 0 17 -16v-25q0 -16 -17 -16h-49q-65 0 -112 11t-86 38.5t-58.5 79t-19.5 127.5v709q0 6 -6 6h-132q-16 0 -16 16v23q0 16 16 16h132q6 0 6 6v238q0 16 16 16h27q16 0 16 -16v-238q0 -6 6 -6h256q17 0 17 -16v-23q0 -16 -17 -16h-256q-6 0 -6 -6v-705
q0 -114 53.5 -158.5t167.5 -44.5zM371 -375q-9 0 -13 6.5t0 14.5l134 233q8 12 18 12h31q9 0 12 -6.5t-2 -13.5l-137 -236q-7 -10 -19 -10h-24z" />
    <glyph glyph-name="uni0228" unicode="&#x228;" horiz-adv-x="1265" 
d="M1122 1393q0 -17 -16 -17h-807q-6 0 -6 -6v-616q0 -6 6 -6h584q16 0 16 -17v-24q0 -17 -16 -17h-584q-6 0 -6 -6v-621q0 -6 6 -6h807q16 0 16 -16v-25q0 -16 -16 -16h-397q-3 0 -4 -2.5t2 -5.5q137 -108 110 -238q-12 -55 -50.5 -85t-85 -32.5t-95.5 3.5q-16 3 -13 20
l5 16q3 16 20 13q62 -13 108 6t56 76q21 110 -117 227q-4 2 -8 2h-389q-17 0 -17 16v1401q0 17 17 17h858q16 0 16 -17v-24z" />
    <glyph glyph-name="uni0229" unicode="&#x229;" horiz-adv-x="1077" 
d="M543 41q111 0 190.5 51t112.5 137q1 1 2 4.5t2 4.5q5 10 12 6h8l21 -4q17 -3 10 -21q-36 -101 -123 -164.5t-211 -70.5q-3 0 -4 -3t2 -4q140 -110 113 -239q-12 -55 -51 -85.5t-85.5 -33t-95.5 3.5q-16 3 -12 21l4 16q3 16 21 12q62 -13 108 6t56 76q21 111 -119 230
q-4 2 -8 2q-121 12 -204.5 83t-113.5 181q-18 70 -18 266q0 179 16 254q28 124 125 198t240 74q147 0 245 -77t125 -205q9 -38 11 -81.5t2 -162.5q0 -16 -17 -16h-680q-6 0 -6 -6q0 -172 10 -211q21 -109 104 -175.5t208 -66.5zM541 985q-124 0 -206.5 -66.5t-103.5 -173.5
q-10 -49 -10 -186q0 -6 6 -6h629q6 0 6 6q0 138 -10 184q-22 108 -105 175t-206 67z" />
    <glyph glyph-name="circumflex" unicode="&#x2c6;" horiz-adv-x="456" 
d="M25 1167q-9 0 -12 6t3 15l177 225q7 10 20 10h31q13 0 20 -10l176 -225q6 -9 3.5 -15t-11.5 -6h-29q-13 0 -20 11l-147 194q-2 3 -5 3t-4 -3l-153 -194q-7 -11 -21 -11h-28z" />
    <glyph glyph-name="caron" unicode="&#x2c7;" horiz-adv-x="598" 
d="M283 1167q-14 0 -21 11l-174 225q-13 20 8 20h27q13 0 20 -10l154 -194q4 -8 8 0l150 194q7 10 20 10h29q21 0 8 -20l-176 -225q-7 -11 -21 -11h-32z" />
    <glyph glyph-name="uni02C9" unicode="&#x2c9;" horiz-adv-x="520" 
d="M16 1235q-16 0 -16 16v21q0 16 16 16h488q16 0 16 -16v-21q0 -16 -16 -16h-488z" />
    <glyph glyph-name="breve" unicode="&#x2d8;" horiz-adv-x="555" 
d="M279 1153q-81 0 -140 53.5t-67 130.5q0 17 16 17h18q17 0 17 -17q6 -58 51.5 -96.5t104.5 -38.5t103 38.5t50 96.5q0 17 17 17h18q16 0 16 -17q-6 -77 -64.5 -130.5t-139.5 -53.5z" />
    <glyph glyph-name="dotaccent" unicode="&#x2d9;" horiz-adv-x="278" 
d="M141 1225q-29 0 -49 18.5t-20 46.5t20 46t49 18t47.5 -18t18.5 -46t-18.5 -46.5t-47.5 -18.5z" />
    <glyph glyph-name="ring" unicode="&#x2da;" horiz-adv-x="550" 
d="M276 1176q-86 0 -145 57.5t-59 142.5q0 84 59 142.5t145 58.5q85 0 144 -59t59 -142q0 -84 -59 -142t-144 -58zM276 1225q64 0 109 43.5t45 107.5t-45 108t-109 44q-63 0 -108 -44t-45 -108t44.5 -107.5t108.5 -43.5z" />
    <glyph glyph-name="ogonek" unicode="&#x2db;" horiz-adv-x="251" 
d="M248 -348q4 -18 -12 -21q-49 -6 -95.5 -3.5t-85.5 33t-51 85.5q-28 135 121 248q12 6 20 6h15q11 0 13 -6t-7 -14q-126 -109 -107 -218q10 -57 56 -75.5t108 -5.5q18 4 21 -13z" />
    <glyph glyph-name="tilde" unicode="&#x2dc;" horiz-adv-x="690" 
d="M455 1233q-55 0 -121 49q-22 16 -32.5 23.5t-29 14.5t-36.5 7q-35 0 -61 -12.5t-52 -48.5q-10 -17 -25 -6l-14 10q-12 9 -4 22q60 88 153 88q23 0 47 -8.5t35 -14.5t39 -24q65 -45 101 -45q68 0 114 68q9 15 23 6l12 -6q15 -9 0 -33q-28 -47 -69 -68.5t-80 -21.5z" />
    <glyph glyph-name="hungarumlaut" unicode="&#x2dd;" horiz-adv-x="671" 
d="M92 1204q-9 0 -13 7t1 14l133 233q8 12 18 12h31q9 0 12 -6t-2 -14l-137 -236q-7 -10 -18 -10h-25zM410 1204q-9 0 -13 7t0 14l133 233q8 12 19 12h31q9 0 12 -6t-2 -14l-137 -236q-7 -10 -19 -10h-24z" />
    <glyph glyph-name="gravecomb" unicode="&#x300;" 
d="M-8 1208q5 -8 1 -14t-13 -6h-25q-11 0 -18 10l-138 236q-5 8 -1.5 14t12.5 6h30q11 0 19 -12z" />
    <glyph glyph-name="acutecomb" unicode="&#x301;" 
d="M-334 1188q-9 0 -12.5 6t0.5 14l133 234q8 12 18 12h31q9 0 12 -6t-2 -14l-137 -236q-7 -10 -18 -10h-25z" />
    <glyph glyph-name="uni0302" unicode="&#x302;" 
d="M-432 1167q-9 0 -11.5 6t3.5 15l176 225q7 10 20 10h31q13 0 20 -10l177 -225q6 -9 3 -15t-12 -6h-28q-14 0 -21 11l-147 194q-4 8 -8 0l-154 -194q-7 -11 -20 -11h-29z" />
    <glyph glyph-name="tildecomb" unicode="&#x303;" 
d="M-166 1233q-55 0 -121 49q-22 16 -32.5 23.5t-29 14.5t-36.5 7q-35 0 -61 -12.5t-52 -48.5q-10 -17 -24 -6l-15 10q-12 9 -4 22q60 88 154 88q23 0 47 -8.5t35 -14.5t39 -24q65 -45 100 -45q69 0 115 68q8 14 22 6l13 -6q15 -9 0 -33q-28 -47 -69.5 -68.5t-80.5 -21.5z
" />
    <glyph glyph-name="uni0304" unicode="&#x304;" 
d="M-504 1235q-16 0 -16 16v21q0 16 16 16h488q16 0 16 -16v-21q0 -16 -16 -16h-488z" />
    <glyph glyph-name="uni0306" unicode="&#x306;" 
d="M-276 1114q-81 0 -140 53.5t-67 130.5q0 17 16 17h18q17 0 17 -17q6 -58 51.5 -96.5t104.5 -38.5t103 38.5t50 96.5q0 17 17 17h18q16 0 16 -17q-6 -77 -64.5 -130.5t-139.5 -53.5z" />
    <glyph glyph-name="uni0307" unicode="&#x307;" 
d="M-66 1225q-29 0 -49 18.5t-20 46.5t20 46t49 18t47.5 -18t18.5 -46t-18.5 -46.5t-47.5 -18.5z" />
    <glyph glyph-name="uni0308" unicode="&#x308;" 
d="M-383 1264q-31 0 -51.5 18.5t-20.5 46.5t20.5 47t51.5 19q28 0 47 -19t19 -47t-19 -46.5t-47 -18.5zM-68 1264q-29 0 -49 18.5t-20 46.5t20 47t49 19t48.5 -19t19.5 -47t-19.5 -46.5t-48.5 -18.5z" />
    <glyph glyph-name="uni030A" unicode="&#x30a;" 
d="M-203 1176q-86 0 -145.5 57.5t-59.5 142.5q0 84 59.5 142.5t145.5 58.5q85 0 144 -59t59 -142q0 -84 -59 -142t-144 -58zM-203 1225q64 0 109 43.5t45 107.5t-45 108t-109 44q-63 0 -108 -44t-45 -108t44.5 -107.5t108.5 -43.5z" />
    <glyph glyph-name="uni030B" unicode="&#x30b;" 
d="M-573 1184q-9 0 -13 6t0 14l131 234q6 12 19 12h28q9 0 12.5 -6t-1.5 -14l-135 -234q-8 -12 -19 -12h-22zM-258 1184q-9 0 -12.5 6t0.5 14l131 234q6 12 18 12h29q9 0 12 -6t-2 -14l-135 -234q-8 -12 -19 -12h-22z" />
    <glyph glyph-name="uni030C" unicode="&#x30c;" 
d="M-315 1147q-14 0 -21 10l-174 225q-6 9 -3.5 15t11.5 6h27q13 0 20 -10l154 -193q4 -8 8 0l150 193q7 10 20 10h29q9 0 11.5 -6t-3.5 -15l-176 -225q-7 -10 -21 -10h-32z" />
    <glyph glyph-name="uni0312" unicode="&#x312;" 
d="M-92 1417q9 0 12.5 -6.5t-0.5 -13.5l-133 -234q-8 -12 -18 -12h-31q-9 0 -12 6.5t2 13.5l137 236q7 10 18 10h25z" />
    <glyph glyph-name="uni0313" unicode="&#x313;" 
d="M-190 1188q-9 0 -13 6t0 14l133 234q8 12 19 12h31q9 0 12 -6t-2 -14l-137 -236q-7 -10 -19 -10h-24z" />
    <glyph glyph-name="uni0326" unicode="&#x326;" 
d="M-264 -389q-9 0 -12.5 6.5t0.5 13.5l133 234q8 12 18 12h31q9 0 12 -6.5t-2 -13.5l-137 -236q-7 -10 -19 -10h-24z" />
    <glyph glyph-name="uni0327" unicode="&#x327;" 
d="M-236 -369q-16 3 -12 21l4 16q3 17 21 13q62 -13 108 5.5t56 75.5q19 109 -107 218q-9 8 -7 14t11 6h17q8 0 20 -6q149 -113 121 -248q-12 -55 -51 -85.5t-85.5 -33t-95.5 3.5z" />
    <glyph glyph-name="uni0328" unicode="&#x328;" 
d="M-4 -348q4 -18 -12 -21q-49 -6 -95.5 -3.5t-85.5 33t-51 85.5q-28 135 121 248q12 6 21 6h14q11 0 13 -6t-7 -14q-126 -109 -107 -218q10 -57 56 -75.5t108 -5.5q18 4 21 -13z" />
    <glyph glyph-name="uni0335" unicode="&#x335;" 
d="M-606 1227q0 16 16 16h574q16 0 16 -16v-21q0 -16 -16 -16h-574q-16 0 -16 16v21z" />
    <glyph glyph-name="uni0336" unicode="&#x336;" 
d="M-1147 1063q-16 0 -16 16v21q0 16 16 16h1131q16 0 16 -16v-21q0 -16 -16 -16h-1131z" />
    <glyph glyph-name="uni0337" unicode="&#x337;" 
d="M-762 164q-13 -10 -22 2l-13 18q-9 15 4 25l865 604q15 11 24 -4l13 -18q9 -15 -5 -25z" />
    <glyph glyph-name="uni0338" unicode="&#x338;" 
d="M-731 -63q-18 0 -12 18l677 1548q5 13 21 13h25q18 0 12 -19l-678 -1548q-5 -12 -21 -12h-24z" />
    <glyph glyph-name="uni0394" unicode="&#x394;" horiz-adv-x="1280" 
d="M92 0q-16 0 -16 16v31q0 5 4 21l526 1353q5 13 19 13h30q14 0 19 -13l526 -1355q4 -16 4 -21v-29q0 -16 -16 -16h-1096zM139 61q-3 -6 6 -6h990q9 0 6 6l-498 1287q-4 8 -8 0z" />
    <glyph glyph-name="uni03A9" unicode="&#x3a9;" horiz-adv-x="1320" 
d="M195 0q-17 0 -17 16v25q0 16 17 16h223q5 0 5.5 2.5t-3.5 3.5q-103 54 -160 155.5t-57 234.5v544q0 203 125.5 328t330.5 125q206 0 333.5 -125.5t127.5 -327.5v-544q0 -132 -58 -233.5t-161 -156.5q-4 -1 -3.5 -3.5t5.5 -2.5h223q17 0 17 -16v-25q0 -16 -17 -16h-348
q-16 0 -16 16v27q0 13 14 16q109 22 196 130t87 257v553q0 177 -110 285.5t-290 108.5q-178 0 -286.5 -108.5t-108.5 -285.5v-553q0 -149 85 -257t190 -130q14 -3 14 -16v-27q0 -16 -16 -16h-342z" />
    <glyph glyph-name="uni03BC" unicode="&#x3bc;" horiz-adv-x="1112" 
d="M854 1010q0 16 16 16h29q16 0 16 -16v-994q0 -16 -16 -16h-29q-16 0 -16 16v123q0 4 -2 4.5t-4 -2.5q-45 -74 -124 -114.5t-183 -40.5q-184 0 -275 120q-3 3 -5.5 2t-2.5 -4v-497q0 -17 -16 -17h-29q-16 0 -16 17v1403q0 16 16 16h29q16 0 16 -16v-674
q0 -134 80.5 -213.5t210.5 -79.5q139 0 222 81t83 212v674z" />
    <glyph glyph-name="pi" unicode="&#x3c0;" horiz-adv-x="1302" 
d="M1210 987q0 -16 -16 -16h-166q-6 0 -6 -6v-701q0 -117 31 -159.5t116 -45.5q17 0 17 -16v-25q0 -16 -17 -16q-52 2 -87.5 13t-64 38.5t-42.5 77.5t-14 125v709q0 6 -7 6h-585q-7 0 -7 -6v-949q0 -16 -16 -16h-29q-16 0 -16 16v949q0 6 -6 6h-186q-17 0 -17 16v23
q0 16 17 16h1085q16 0 16 -16v-23z" />
    <glyph glyph-name="Wgrave" unicode="&#x1e80;" horiz-adv-x="1798" 
d="M909 1616q5 -8 1 -14.5t-13 -6.5h-25q-11 0 -18 11l-137 235q-5 7 -2 14t12 7h31q9 0 18 -13zM489 0q-15 0 -18 14l-410 1401q-3 7 1 13t12 6h30q15 0 19 -15l379 -1292q4 -8 8 0l348 1292q4 15 19 15h32q15 0 19 -15l356 -1292q4 -8 8 0l385 1292q4 15 19 15h28
q8 0 12 -6t1 -13l-416 -1401q-3 -14 -18 -14h-33q-16 0 -19 14l-352 1307q-4 8 -8 0l-352 -1307q-3 -14 -19 -14h-31z" />
    <glyph glyph-name="wgrave" unicode="&#x1e81;" horiz-adv-x="1400" 
d="M711 1208q4 -8 0 -14t-13 -6h-24q-12 0 -19 10l-137 236q-5 8 -2 14t12 6h31q11 0 19 -12zM383 0q-15 0 -18 14l-287 994q-4 18 12 18h29q15 0 18 -14l258 -920q4 -8 8 0l263 920q4 14 18 14h31q15 0 18 -14l262 -918q1 -3 4 -3t5 3l260 918q4 14 18 14h29q8 0 11.5 -5.5
t0.5 -12.5l-289 -994q-4 -14 -18 -14h-31q-15 0 -18 14l-265 895q-4 8 -8 0l-260 -895q-4 -14 -18 -14h-33z" />
    <glyph glyph-name="Wacute" unicode="&#x1e82;" horiz-adv-x="1798" 
d="M854 1595q-9 0 -13 6.5t1 14.5l133 233q9 13 18 13h31q9 0 12 -7t-2 -14l-137 -235q-7 -11 -18 -11h-25zM489 0q-15 0 -18 14l-410 1401q-3 7 1 13t12 6h30q15 0 19 -15l379 -1292q4 -8 8 0l348 1292q4 15 19 15h32q15 0 19 -15l356 -1292q4 -8 8 0l385 1292q4 15 19 15
h28q8 0 12 -6t1 -13l-416 -1401q-3 -14 -18 -14h-33q-16 0 -19 14l-352 1307q-4 8 -8 0l-352 -1307q-3 -14 -19 -14h-31z" />
    <glyph glyph-name="wacute" unicode="&#x1e83;" horiz-adv-x="1400" 
d="M655 1188q-9 0 -13 6t1 14l133 234q8 12 19 12h30q9 0 12.5 -6t-1.5 -14l-138 -236q-7 -10 -18 -10h-25zM383 0q-15 0 -18 14l-287 994q-4 18 12 18h29q15 0 18 -14l258 -920q4 -8 8 0l263 920q4 14 18 14h31q15 0 18 -14l262 -918q1 -3 4 -3t5 3l260 918q4 14 18 14h29
q8 0 11.5 -5.5t0.5 -12.5l-289 -994q-4 -14 -18 -14h-31q-15 0 -18 14l-265 895q-4 8 -8 0l-260 -895q-4 -14 -18 -14h-33z" />
    <glyph glyph-name="Wdieresis" unicode="&#x1e84;" horiz-adv-x="1798" 
d="M741 1671q-31 0 -51 19t-20 47t20 46.5t51 18.5q28 0 47 -18.5t19 -46.5t-19 -47t-47 -19zM1057 1671q-29 0 -49.5 19t-20.5 47t20.5 46.5t49.5 18.5t48 -18.5t19 -46.5t-19 -47t-48 -19zM489 0q-15 0 -18 14l-410 1401q-3 7 1 13t12 6h30q15 0 19 -15l379 -1292
q4 -8 8 0l348 1292q4 15 19 15h32q15 0 19 -15l356 -1292q4 -8 8 0l385 1292q4 15 19 15h28q8 0 12 -6t1 -13l-416 -1401q-3 -14 -18 -14h-33q-16 0 -19 14l-352 1307q-4 8 -8 0l-352 -1307q-3 -14 -19 -14h-31z" />
    <glyph glyph-name="wdieresis" unicode="&#x1e85;" horiz-adv-x="1400" 
d="M543 1264q-31 0 -51.5 18.5t-20.5 46.5t20.5 47t51.5 19q28 0 46.5 -19t18.5 -47t-18.5 -46.5t-46.5 -18.5zM858 1264q-29 0 -49.5 18.5t-20.5 46.5t20.5 47t49.5 19t48.5 -19t19.5 -47t-19.5 -46.5t-48.5 -18.5zM383 0q-15 0 -18 14l-287 994q-4 18 12 18h29
q15 0 18 -14l258 -920q4 -8 8 0l263 920q4 14 18 14h31q15 0 18 -14l262 -918q1 -3 4 -3t5 3l260 918q4 14 18 14h29q8 0 11.5 -5.5t0.5 -12.5l-289 -994q-4 -14 -18 -14h-31q-15 0 -18 14l-265 895q-4 8 -8 0l-260 -895q-4 -14 -18 -14h-33z" />
    <glyph glyph-name="Ygrave" unicode="&#x1ef2;" horiz-adv-x="1101" 
d="M563 1614q5 -8 1 -14.5t-13 -6.5h-25q-11 0 -18 11l-137 235q-5 7 -2 14t12 7h31q9 0 18 -13zM537 0q-17 0 -17 16v664q0 4 -2 8l-430 725q-5 7 -2 14t12 7h29q11 0 18 -11l402 -675q4 -8 8 0l401 675q7 11 19 11h29q9 0 12 -7t-2 -14l-430 -725q-2 -4 -2 -8v-664
q0 -16 -17 -16h-28z" />
    <glyph glyph-name="ygrave" unicode="&#x1ef3;" horiz-adv-x="890" 
d="M457 1210q4 -8 0 -14t-13 -6h-24q-12 0 -19 10l-137 236q-5 8 -2 14t12 6h31q11 0 19 -12zM127 -410q-14 0 -14 17v22q0 17 14 17h14q39 1 66.5 6t52 22.5t41.5 38.5t37 66t36 91t42 126v8l-357 1004q-3 7 1.5 12.5t13.5 5.5h28q16 0 19 -12l323 -924q2 -3 5 -3t4 3
l317 924q3 12 18 12h29q9 0 13 -5t1 -13l-397 -1129q-34 -97 -61.5 -152.5t-62.5 -87t-71.5 -40.5t-97.5 -9h-14z" />
    <glyph glyph-name="endash" unicode="&#x2013;" horiz-adv-x="890" 
d="M109 549q-17 0 -17 16v25q0 16 17 16h673q17 0 17 -16v-25q0 -16 -17 -16h-673z" />
    <glyph glyph-name="emdash" unicode="&#x2014;" horiz-adv-x="1435" 
d="M109 549q-17 0 -17 16v25q0 16 17 16h1218q16 0 16 -16v-25q0 -16 -16 -16h-1218z" />
    <glyph glyph-name="quoteleft" unicode="&#x2018;" horiz-adv-x="210" 
d="M20 1040q-9 0 -12 5.5t0 13.5l146 362q5 13 18 13h18q9 0 13.5 -5.5t1.5 -13.5l-131 -362q-3 -13 -19 -13h-35z" />
    <glyph glyph-name="quoteright" unicode="&#x2019;" horiz-adv-x="210" 
d="M190 1434q9 0 12.5 -5.5t0.5 -13.5l-146 -362q-5 -13 -18 -13h-19q-9 0 -13 5.5t-1 13.5l131 362q3 13 19 13h34z" />
    <glyph glyph-name="quotesinglbase" unicode="&#x201a;" horiz-adv-x="1228" 
d="M182 -139q-7 0 -11.5 5t-2.5 13l104 420q4 14 19 14h26q18 0 15 -18l-109 -420q-3 -14 -18 -14h-23z" />
    <glyph glyph-name="quotedblleft" unicode="&#x201c;" horiz-adv-x="430" 
d="M20 1040q-9 0 -12 5.5t0 13.5l144 362q5 13 18 13h18q9 0 13.5 -5.5t1.5 -13.5l-131 -362q-3 -13 -19 -13h-33zM242 1040q-9 0 -12.5 5.5t-0.5 13.5l144 362q5 13 18 13h19q9 0 13 -5.5t1 -13.5l-131 -362q-3 -13 -19 -13h-32z" />
    <glyph glyph-name="quotedblright" unicode="&#x201d;" horiz-adv-x="430" 
d="M188 1434q9 0 12.5 -5.5t0.5 -13.5l-144 -362q-5 -13 -18 -13h-19q-9 0 -13 5.5t-1 13.5l131 362q3 13 19 13h32zM410 1434q9 0 12 -5.5t0 -13.5l-143 -362q-5 -13 -19 -13h-18q-9 0 -13.5 5.5t-1.5 13.5l131 362q3 13 19 13h33z" />
    <glyph glyph-name="quotedblbase" unicode="&#x201e;" horiz-adv-x="432" 
d="M188 260q20 0 13 -18l-144 -363q-5 -12 -18 -12h-19q-9 0 -13 5t-1 13l131 363q3 12 19 12h32zM410 260q19 0 12 -18l-143 -363q-5 -12 -19 -12h-18q-9 0 -13.5 5.5t-1.5 12.5l131 363q3 12 19 12h33z" />
    <glyph glyph-name="dagger" unicode="&#x2020;" horiz-adv-x="849" 
d="M741 936q17 0 17 -16v-23q0 -16 -17 -16h-280q-6 0 -6 -7v-1267q0 -17 -17 -17h-28q-17 0 -17 17v1267q0 7 -6 7h-278q-17 0 -17 16v23q0 16 17 16h278q6 0 6 6v475q0 17 17 17h28q17 0 17 -17v-475q0 -6 6 -6h280z" />
    <glyph glyph-name="daggerdbl" unicode="&#x2021;" horiz-adv-x="849" 
d="M758 897q0 -16 -17 -16h-280q-6 0 -6 -7v-724q0 -7 6 -7h280q17 0 17 -16v-23q0 -16 -17 -16h-280q-6 0 -6 -6v-475q0 -17 -17 -17h-28q-17 0 -17 17v475q0 6 -6 6h-278q-17 0 -17 16v23q0 16 17 16h278q6 0 6 7v724q0 7 -6 7h-278q-17 0 -17 16v23q0 16 17 16h278
q6 0 6 6v475q0 17 17 17h28q17 0 17 -17v-475q0 -6 6 -6h280q17 0 17 -16v-23z" />
    <glyph glyph-name="bullet" unicode="&#x2022;" horiz-adv-x="622" 
d="M311 315q-89 0 -154 65.5t-65 156.5q0 90 64.5 153.5t154.5 63.5t154.5 -63.5t64.5 -153.5q0 -91 -65 -156.5t-154 -65.5z" />
    <glyph glyph-name="ellipsis" unicode="&#x2026;" horiz-adv-x="1550" 
d="M279 12q-38 0 -65.5 26.5t-27.5 63.5q0 36 28 62t65 26q36 0 64 -26t28 -62q0 -37 -27.5 -63.5t-64.5 -26.5zM776 12q-38 0 -65 26.5t-27 63.5q0 36 27.5 62t64.5 26q36 0 64 -26t28 -62q0 -37 -27.5 -63.5t-64.5 -26.5zM1260 12q-38 0 -65.5 26.5t-27.5 63.5q0 36 28 62
t65 26q36 0 64 -26t28 -62q0 -37 -27.5 -63.5t-64.5 -26.5z" />
    <glyph glyph-name="perthousand" unicode="&#x2030;" horiz-adv-x="2289" 
d="M324 567q-110 0 -177 65.5t-67 172.5v409q0 106 67 171t177 65q113 0 181 -65t68 -171v-409q0 -108 -67.5 -173t-181.5 -65zM381 0q-9 0 -13 6t1 14l911 1403q6 11 18 11h23q9 0 13 -7t-1 -14l-911 -1403q-5 -10 -19 -10h-22zM324 618q89 0 142.5 50t53.5 133v418
q0 82 -53.5 132t-142.5 50q-85 0 -138 -50t-53 -132v-418q0 -83 53 -133t138 -50zM1339 -16q-110 0 -176.5 65t-66.5 172v410q0 106 66.5 170.5t176.5 64.5q114 0 182 -64.5t68 -170.5v-410q0 -107 -68 -172t-182 -65zM1976 -16q-110 0 -176.5 65t-66.5 172v410
q0 106 66.5 170.5t176.5 64.5q114 0 182 -64.5t68 -170.5v-410q0 -107 -68 -172t-182 -65zM1339 35q89 0 143 49.5t54 132.5v418q0 82 -54 132t-143 50q-85 0 -137.5 -50t-52.5 -132v-418q0 -83 52.5 -132.5t137.5 -49.5zM1976 35q89 0 143 49.5t54 132.5v418q0 82 -54 132
t-143 50q-85 0 -137.5 -50t-52.5 -132v-418q0 -83 52.5 -132.5t137.5 -49.5z" />
    <glyph glyph-name="guilsinglleft" unicode="&#x2039;" horiz-adv-x="778" 
d="M528 240q6 -8 4 -14.5t-12 -6.5h-24q-16 0 -21 8l-295 336q-9 13 0 25l295 336q5 8 21 8h24q10 0 12 -7t-4 -14l-290 -331q-2 -4 0 -9z" />
    <glyph glyph-name="guilsinglright" unicode="&#x203a;" horiz-adv-x="839" 
d="M258 219q-10 0 -12 6.5t4 14.5l291 331q2 5 0 9l-291 331q-6 7 -4 14t12 7h25q15 0 20 -8l295 -336q9 -12 0 -25l-295 -336q-5 -8 -20 -8h-25z" />
    <glyph glyph-name="fraction" unicode="&#x2044;" horiz-adv-x="497" 
d="M-215 0q-9 0 -13 6t1 14l911 1403q6 11 18 11h23q9 0 13 -7t-1 -14l-911 -1403q-5 -10 -19 -10h-22z" />
    <glyph glyph-name="uni2074" unicode="&#x2074;" horiz-adv-x="653" 
d="M555 1229q16 0 16 -17v-18q0 -16 -16 -16h-45q-6 0 -6 -7v-219q0 -16 -17 -16h-22q-16 0 -16 16v219q0 7 -7 7h-358q-16 0 -16 16v18q0 9 4 21l258 551q6 12 20 12h23q19 0 12 -18l-254 -541q-4 -8 4 -8h307q7 0 7 6v209q0 16 16 16h22q17 0 17 -16v-209q0 -6 6 -6h45z
" />
    <glyph glyph-name="uni2075" unicode="&#x2075;" horiz-adv-x="602" 
d="M518 1335q25 -64 25 -143q0 -82 -25 -143q-55 -129 -207 -129q-83 0 -140.5 44t-76.5 117q-6 19 -12 70q0 16 16 16h25q16 0 16 -16l6 -47q11 -60 55.5 -96.5t110.5 -36.5q114 0 156 98q22 55 22 121q0 76 -24 129q-45 92 -150 92q-60 0 -106.5 -25.5t-63.5 -70.5
q-6 -15 -18 -15h-27q-16 0 -16 17v457q0 16 16 16h392q16 0 16 -16v-17q0 -16 -16 -16h-347q-6 0 -6 -6v-332q0 -3 2.5 -4t5.5 2q64 61 175 61q142 0 196 -127z" />
    <glyph glyph-name="uni2076" unicode="&#x2076;" horiz-adv-x="620" 
d="M543 1300q10 -41 10 -108q0 -72 -10 -111q-19 -72 -78.5 -116.5t-142.5 -44.5q-84 0 -140.5 44t-79.5 117q-12 41 -12 111v381q0 107 63 167t169 60q93 0 153 -57.5t60 -151.5v-6q0 -16 -17 -16h-22q-17 0 -17 12v10q0 70 -45 114t-112 44q-80 0 -128.5 -47t-48.5 -131
v-195q0 -4 3 -4.5t6 2.5q60 86 172 86q82 0 140.5 -44t76.5 -116zM492 1102q6 27 6 88q0 52 -6 86q-11 61 -57 98t-113 37q-66 0 -111 -37t-57 -96q-7 -24 -7 -88q0 -57 5 -88q11 -59 57 -95t113 -36q66 0 111 36t59 95z" />
    <glyph glyph-name="uni2077" unicode="&#x2077;" horiz-adv-x="546" 
d="M184 936q-9 0 -13 5t-1 13l287 787q3 6 -6 6h-367q-6 0 -6 -6v-66q0 -16 -17 -16h-14q-16 0 -16 16v105q0 16 16 16h455q16 0 16 -16v-23q0 -4 -4 -20l-287 -789q-3 -12 -18 -12h-25z" />
    <glyph glyph-name="uni2078" unicode="&#x2078;" horiz-adv-x="626" 
d="M532 1257q11 -38 11 -90q0 -57 -8 -88q-21 -72 -81 -115.5t-143 -43.5q-84 0 -140 43t-79 116q-12 43 -12 90q0 39 12 86q25 89 105 131q3 2 3 5t-3 4q-78 37 -105 118q-12 37 -12 70q0 37 12 72q54 145 219 145q84 0 141.5 -38.5t79.5 -106.5q13 -35 13 -72
q0 -32 -13 -67q-25 -86 -106 -121q-3 -1 -3 -4t3 -5q82 -42 106 -129zM141 1536q12 -56 56 -89.5t114 -33.5t117 33.5t55 89.5q4 28 4 47q0 29 -4 47q-13 57 -59.5 89t-112.5 32q-68 0 -112 -33t-56 -88q-10 -27 -10 -49q0 -9 8 -45zM483 1106q2 12 2 65q0 49 -2 62
q-11 59 -58 97t-114 38q-68 0 -112 -37t-56 -98q-8 -36 -8 -64q0 -25 6 -63q11 -61 56.5 -98t113.5 -37q67 0 114 38t58 97z" />
    <glyph glyph-name="uni2079" unicode="&#x2079;" horiz-adv-x="620" 
d="M518 1638q12 -41 12 -110v-381q0 -107 -62.5 -167t-168.5 -60q-94 0 -153.5 57t-59.5 151v7q0 16 16 16h23q16 0 16 -10v-13q0 -69 45.5 -113t112.5 -44q80 0 128 46.5t48 131.5v194q0 11 -8 3q-60 -86 -172 -86q-82 0 -141 44t-76 115q-10 41 -10 109q0 71 10 110
q19 72 78.5 117t142.5 45t139.5 -44t79.5 -118zM467 1442q6 20 6 88q0 63 -4 88q-11 59 -57 95t-113 36q-66 0 -111 -36t-59 -95q-6 -27 -6 -88q0 -52 6 -86q11 -61 57 -98t113 -37q66 0 111 37t57 96z" />
    <glyph glyph-name="franc" unicode="&#x20a3;" horiz-adv-x="1355" 
d="M1303 1393q0 -17 -17 -17h-805q-6 0 -6 -6v-616q0 -6 6 -6h582q16 0 16 -17v-24q0 -17 -16 -17h-582q-6 0 -6 -6v-311q0 -6 6 -6h340q17 0 17 -17v-20q0 -17 -17 -17h-340q-6 0 -6 -6v-291q0 -16 -16 -16h-29q-16 0 -16 16v291q0 6 -6 6h-160q-17 0 -17 17v20q0 17 17 17
h160q6 0 6 6v1044q0 17 16 17h856q17 0 17 -17v-24z" />
    <glyph glyph-name="Euro" unicode="&#x20ac;" horiz-adv-x="1304" 
d="M750 39q138 0 227.5 76.5t101.5 206.5q3 17 19 14l28 -6q18 -4 15 -19q-19 -150 -124 -239.5t-267 -89.5q-180 0 -289 107t-109 282v192q0 6 -6 6h-151q-17 0 -17 17v18q0 17 17 17h151q6 0 6 6v172q0 6 -6 6h-151q-17 0 -17 16v19q0 16 17 16h151q6 0 6 6v205
q0 172 109 277.5t289 105.5q165 0 271 -91.5t120 -244.5q3 -14 -15 -18l-28 -4q-16 -3 -19 14q-11 131 -100.5 209t-228.5 78q-151 0 -243.5 -89t-92.5 -235v-207q0 -6 6 -6h549q18 0 12 -18l-8 -21q-5 -12 -21 -12h-532q-6 0 -6 -6v-172q0 -6 6 -6h479q18 0 12 -19l-8 -20
q-5 -13 -20 -13h-463q-6 0 -6 -6v-198q0 -146 92.5 -236t243.5 -90z" />
    <glyph glyph-name="uni20BA" unicode="&#x20ba;" horiz-adv-x="1292" 
d="M1071 518q0 17 16 17h29q17 0 17 -17q-6 -189 -139 -329t-353 -175q-77 -14 -176 -14q-16 0 -16 16v674q0 4 -7 4l-233 -65q-18 -4 -21 12l-4 14q-6 14 11 21l247 69q7 3 7 9v145q0 4 -7 4l-233 -65q-14 -7 -21 8q0 2 -1 4.5t-1 3.5l-4 12q-3 15 13 21l247 69q7 4 7 9
v452q0 17 16 17h29q16 0 16 -17v-434q0 -6 6 -6l281 80q13 6 20 -8q0 -2 1 -5t1 -4l4 -12q3 -14 -12 -20l-295 -82q-6 -3 -6 -8v-146q0 -6 6 -6l281 80q16 7 20 -12l4 -15q6 -14 -10 -20l-295 -82q-6 -3 -6 -8v-648q0 -6 8 -6q160 7 285.5 71.5t194 167t73.5 224.5z" />
    <glyph glyph-name="uni20BD" unicode="&#x20bd;" horiz-adv-x="1429" 
d="M971 688h-465q-6 0 -6 -6v-213q0 -6 6 -6h557q16 0 16 -17v-18q0 -16 -16 -16h-557q-6 0 -6 -6v-390q0 -16 -17 -16h-28q-17 0 -17 16v390q0 6 -6 6h-184q-17 0 -17 16v18q0 17 17 17h184q6 0 6 6v213q0 6 -6 6h-184q-17 0 -17 17v22q0 16 17 16h184q6 0 6 7v671
q0 17 17 17h518q166 0 267 -104t101 -273t-101.5 -271t-268.5 -102zM506 1380q-6 0 -6 -6v-624q0 -7 6 -7h467q138 0 222.5 87.5t84.5 230.5q0 144 -84.5 231.5t-222.5 87.5h-467z" />
    <glyph glyph-name="uni2113" unicode="&#x2113;" horiz-adv-x="1028" 
d="M608 37q111 0 191 63q17 14 20 -8l4 -18q3 -13 -6 -21q-29 -29 -93 -49t-128 -20q-118 0 -182 78.5t-64 218.5l-2 290q0 3 -2.5 5t-5.5 -1q-75 -61 -96 -81q-13 -13 -23 0l-14 16q-10 13 2 22q29 29 135 117q4 4 4 6l-2 375q-2 161 73 284.5t187 135.5q95 10 160 -62.5
t65 -185.5q0 -47 -14 -94t-32 -85.5t-56 -86t-65 -78t-81 -79.5t-83 -73t-90 -75q-4 -4 -4 -6l2 -342q0 -246 200 -246zM403 1028l3 -319q0 -3 2.5 -5t5.5 1q67 55 109.5 92.5t95.5 92t83 99.5t51 101t21 110q0 91 -46.5 149.5t-117.5 49.5q-87 -12 -147 -119.5t-60 -251.5z
" />
    <glyph glyph-name="trademark" unicode="&#x2122;" horiz-adv-x="1331" 
d="M70 1386q-17 0 -17 17v14q0 17 17 17h452q17 0 17 -17v-14q0 -17 -17 -17h-200q-7 0 -7 -6v-649q0 -16 -16 -16h-18q-17 0 -17 16v649q0 6 -6 6h-188zM1157 1423q5 11 19 11h22q16 0 16 -17v-686q0 -16 -16 -16h-18q-17 0 -17 16v594q0 4 -3.5 4.5t-4.5 -2.5l-170 -262
q-5 -10 -18 -10h-4q-14 0 -19 10l-172 262q-1 2 -3 2.5t-3.5 -0.5t-1.5 -4v-594q0 -16 -16 -16h-21q-16 0 -16 16v686q0 17 16 17h25q12 0 18 -11l188 -297q2 -3 5 -3t4 3z" />
    <glyph glyph-name="uni2126" unicode="&#x2126;" horiz-adv-x="1320" 
d="M195 0q-17 0 -17 16v25q0 16 17 16h223q5 0 5.5 2.5t-3.5 3.5q-103 54 -160 155.5t-57 234.5v544q0 203 125.5 328t330.5 125q206 0 333.5 -125.5t127.5 -327.5v-544q0 -132 -58 -233.5t-161 -156.5q-4 -1 -3.5 -3.5t5.5 -2.5h223q17 0 17 -16v-25q0 -16 -17 -16h-348
q-16 0 -16 16v27q0 13 14 16q109 22 196 130t87 257v553q0 177 -110 285.5t-290 108.5q-178 0 -286.5 -108.5t-108.5 -285.5v-553q0 -149 85 -257t190 -130q14 -3 14 -16v-27q0 -16 -16 -16h-342z" />
    <glyph glyph-name="estimated" unicode="&#x212e;" horiz-adv-x="1843" 
d="M922 1450q213 0 383 -96t265 -264.5t95 -378.5q0 -9 -16 -9h-1309q-6 0 -6 -6l-2 -356q0 -2 1 -4.5t1 -3.5q92 -142 245.5 -222.5t342.5 -80.5q201 0 361.5 94t248.5 254q6 12 18 12h21q9 0 12.5 -5.5t-0.5 -12.5q-91 -178 -265.5 -282.5t-395.5 -104.5q-159 0 -298 56
t-236.5 152.5t-153.5 231t-56 287.5q0 157 56 294t153.5 235t236.5 154t298 56zM336 1102q-2 -4 -2 -8v-340q0 -6 6 -6h1161q6 0 6 6v340q0 1 -1 4t-1 4q-92 142 -244 222.5t-339 80.5q-188 0 -341 -80.5t-245 -222.5z" />
    <glyph glyph-name="oneeighth" unicode="&#x215b;" horiz-adv-x="1591" 
d="M256 590q0 -17 -16 -17h-25q-16 0 -16 17v774q0 6 -6 6l-87 -24q-7 -3 -12.5 0.5t-5.5 11.5v12q0 15 12 21l84 36q5 5 9 5q4 2 16 2h31q16 0 16 -17v-827zM1128 1423q6 11 19 11h22q9 0 13 -7t0 -14l-912 -1403q-5 -10 -18 -10h-23q-9 0 -13 6t1 14zM1497 322
q10 -34 10 -91t-8 -88q-21 -72 -80.5 -115.5t-142.5 -43.5q-84 0 -140 43t-79 116q-13 47 -13 90q0 35 13 86q25 90 104 132q8 4 0 8q-77 36 -104 119q-13 40 -13 69q0 34 13 72q54 145 219 145q84 0 141.5 -38.5t79.5 -106.5q12 -32 12 -72q0 -35 -12 -67
q-25 -86 -106 -121q-8 -4 0 -8q82 -42 106 -129zM1106 600q12 -56 56 -89.5t114 -33.5t117 33.5t55 89.5q4 28 4 47q0 29 -4 47q-13 57 -59.5 89t-112.5 32q-68 0 -112 -33t-56 -88q-10 -27 -10 -49q0 -9 8 -45zM1448 170q2 11 2 66q0 48 -2 61q-11 59 -58 97t-114 38
q-68 0 -112 -37t-56 -98q-8 -36 -8 -64q0 -25 6 -63q11 -61 56.5 -98t113.5 -37q67 0 114 38t58 97z" />
    <glyph glyph-name="threeeighths" unicode="&#x215c;" horiz-adv-x="1804" 
d="M528 696q-56 -116 -202 -116q-82 0 -139 44.5t-81 120.5q-10 36 -10 82q0 17 17 17h24q17 0 17 -17q0 -45 4 -63q11 -59 57 -96t111 -37q103 0 151 88q27 56 27 129q0 85 -31 145q-44 84 -147 84q-9 0 -33 -4q-12 -3 -21 6l-8 11q-13 13 -2 24l219 279q4 8 -4 8h-360
q-17 0 -17 16v17q0 16 17 16h422q16 0 16 -16v-21q0 -11 -6 -20l-201 -263q-4 -8 2 -8q124 -6 174 -106q35 -68 35 -168q0 -92 -31 -152zM1341 1423q5 11 19 11h22q9 0 13 -7t0 -14l-912 -1403q-5 -10 -18 -10h-23q-9 0 -12.5 6t0.5 14zM1710 322q10 -34 10 -91t-8 -88
q-21 -72 -80.5 -115.5t-142.5 -43.5q-84 0 -140 43t-79 116q-13 47 -13 90q0 35 13 86q25 90 104 132q8 4 0 8q-77 36 -104 119q-13 40 -13 69q0 34 13 72q54 145 219 145q84 0 141.5 -38.5t79.5 -106.5q12 -32 12 -72q0 -35 -12 -67q-25 -86 -106 -121q-8 -4 0 -8
q82 -42 106 -129zM1319 600q12 -56 56 -89.5t114 -33.5t117 33.5t55 89.5q4 28 4 47q0 29 -4 47q-13 57 -59.5 89t-112.5 32q-68 0 -112 -33t-56 -88q-10 -27 -10 -49q0 -9 8 -45zM1661 170q2 11 2 66q0 48 -2 61q-11 59 -58 97t-114 38q-68 0 -112 -37t-56 -98
q-8 -36 -8 -64q0 -25 6 -63q11 -61 56.5 -98t113.5 -37q67 0 114 38t58 97z" />
    <glyph glyph-name="fiveeighths" unicode="&#x215d;" horiz-adv-x="1728" 
d="M518 692q-55 -129 -207 -129q-83 0 -140.5 44t-76.5 118q-6 19 -12 70q0 16 16 16h25q16 0 16 -16l6 -47q11 -60 56 -97t110 -37q114 0 156 99q22 55 22 121q0 76 -24 129q-45 92 -150 92q-60 0 -106.5 -26t-63.5 -71q-6 -14 -18 -14h-27q-16 0 -16 17v456q0 17 16 17
h392q16 0 16 -17v-16q0 -17 -16 -17h-347q-6 0 -6 -6v-331q0 -3 2.5 -4.5t5.5 1.5q65 62 175 62q142 0 196 -127q25 -64 25 -143q0 -83 -25 -144zM1266 1423q6 11 18 11h23q9 0 13 -7t-1 -14l-911 -1403q-5 -10 -19 -10h-22q-9 0 -13 6t0 14zM1634 322q11 -38 11 -91t-9 -88
q-21 -72 -80.5 -115.5t-142.5 -43.5q-84 0 -140 43t-79 116q-12 43 -12 90q0 39 12 86q25 90 104 132q8 4 0 8q-77 36 -104 119q-12 37 -12 69q0 37 12 72q54 145 219 145q84 0 141.5 -38.5t79.5 -106.5q13 -35 13 -72q0 -32 -13 -67q-25 -86 -106 -121q-8 -4 0 -8
q82 -42 106 -129zM1243 600q12 -56 56 -89.5t114 -33.5t117 33.5t55 89.5q4 28 4 47q0 29 -4 47q-13 57 -59.5 89t-112.5 32q-68 0 -112 -33t-56 -88q-10 -27 -10 -49q0 -9 8 -45zM1585 170q2 11 2 66q0 48 -2 61q-11 59 -58 97t-114 38q-68 0 -112 -37t-56 -98
q-8 -36 -8 -64q0 -25 6 -63q11 -61 56.5 -98t113.5 -37q67 0 114 38t58 97z" />
    <glyph glyph-name="seveneighths" unicode="&#x215e;" horiz-adv-x="1589" 
d="M227 586q-3 -13 -18 -13h-25q-9 0 -13 5.5t-1 13.5l287 786q3 6 -6 6h-367q-6 0 -6 -6v-65q0 -17 -17 -17h-14q-16 0 -16 17v104q0 17 16 17h455q16 0 16 -17v-22q0 -5 -4 -21zM1126 1423q6 11 19 11h22q9 0 13 -7t0 -14l-912 -1403q-5 -10 -18 -10h-23q-9 0 -13 6t1 14z
M1495 322q10 -34 10 -91t-8 -88q-21 -72 -80.5 -115.5t-142.5 -43.5q-84 0 -140 43t-79 116q-13 47 -13 90q0 35 13 86q25 90 104 132q8 4 0 8q-77 36 -104 119q-13 40 -13 69q0 34 13 72q54 145 219 145q84 0 141.5 -38.5t79.5 -106.5q12 -32 12 -72q0 -35 -12 -67
q-25 -86 -106 -121q-8 -4 0 -8q82 -42 106 -129zM1104 600q12 -56 56 -89.5t114 -33.5t117 33.5t55 89.5q4 28 4 47q0 29 -4 47q-13 57 -59.5 89t-112.5 32q-68 0 -112 -33t-56 -88q-10 -27 -10 -49q0 -9 8 -45zM1446 170q2 11 2 66q0 48 -2 61q-11 59 -58 97t-114 38
q-68 0 -112 -37t-56 -98q-8 -36 -8 -64q0 -25 6 -63q11 -61 56.5 -98t113.5 -37q67 0 114 38t58 97z" />
    <glyph glyph-name="partialdiff" unicode="&#x2202;" horiz-adv-x="1189" 
d="M993 690q0 -74 -3 -137.5t-14.5 -138t-30.5 -133.5t-53 -116.5t-79.5 -95.5t-112 -61.5t-149.5 -23.5q-178 0 -285.5 118.5t-107.5 315.5q0 198 120 324t295 126q112 0 204 -53t149 -135q8 -8 8 2v27q-8 361 -131 538q-89 127 -236 144q-130 15 -241 -62q-17 -13 -23 6
l-8 19q-5 12 8 22q115 87 264 72q177 -18 283 -166q139 -193 143 -592zM553 41q188 0 279 134t102 392q0 6 -2 8q-44 99 -138 166.5t-214 67.5q-153 0 -257 -109t-104 -282q0 -170 92 -273.5t242 -103.5z" />
    <glyph glyph-name="uni2206" unicode="&#x2206;" horiz-adv-x="1280" 
d="M92 0q-16 0 -16 16v31q0 5 4 21l526 1353q5 13 19 13h30q14 0 19 -13l526 -1355q4 -16 4 -21v-29q0 -16 -16 -16h-1096zM139 61q-3 -6 6 -6h990q9 0 6 6l-498 1287q-4 8 -8 0z" />
    <glyph glyph-name="product" unicode="&#x220f;" horiz-adv-x="1363" 
d="M1118 1638q17 0 17 -16v-2015q0 -17 -17 -17h-28q-17 0 -17 17v1968q0 6 -6 6h-768q-6 0 -6 -6v-1968q0 -17 -17 -17h-28q-17 0 -17 17v2015q0 16 17 16h870z" />
    <glyph glyph-name="summation" unicode="&#x2211;" horiz-adv-x="1273" 
d="M248 -408q-17 0 -17 17v29q0 6 7 20l507 936q2 4 0 8l-505 774q-7 14 -7 21v28q0 17 17 17h864q16 0 16 -17v-22q0 -17 -16 -17h-805q-8 0 -4 -8l504 -770q7 -13 2 -22l-506 -930q-4 -8 4 -8h805q16 0 16 -17v-22q0 -17 -16 -17h-866z" />
    <glyph glyph-name="minus" unicode="&#x2212;" horiz-adv-x="1040" 
d="M109 629q-17 0 -17 16v23q0 16 17 16h825q16 0 16 -16v-23q0 -16 -16 -16h-825z" />
    <glyph glyph-name="uni2215" unicode="&#x2215;" horiz-adv-x="940" 
d="M94 0q-9 0 -12.5 5t0.5 13l721 1403q7 13 18 13h25q9 0 12.5 -6t-0.5 -13l-719 -1403q-6 -12 -18 -12h-27z" />
    <glyph glyph-name="uni2219" unicode="&#x2219;" horiz-adv-x="622" 
d="M311 434q-90 0 -154.5 64.5t-64.5 154.5t64.5 153.5t154.5 63.5t154.5 -63.5t64.5 -153.5t-64.5 -154.5t-154.5 -64.5z" />
    <glyph glyph-name="radical" unicode="&#x221a;" horiz-adv-x="1421" 
d="M346 -410q-15 0 -18 13l-250 688q-6 16 10 22l25 9q13 3 20 -11l221 -612q4 -8 8 0l515 1900q4 15 18 15h313q17 0 17 -17v-22q0 -16 -17 -16h-272q-8 0 -8 -7l-529 -1947q-4 -15 -18 -15h-35z" />
    <glyph glyph-name="infinity" unicode="&#x221e;" horiz-adv-x="1470" 
d="M1083 946q128 0 211.5 -84.5t83.5 -210.5q0 -125 -83 -209t-216 -84q-114 0 -193.5 61.5t-158.5 178.5q-4 8 -8 0q-40 -56 -71.5 -92.5t-74 -73.5t-90.5 -55.5t-102 -18.5q-122 0 -205.5 85.5t-83.5 211.5q0 124 83.5 207.5t211.5 83.5q57 0 105 -17t88.5 -53.5t70 -72
t68.5 -92.5q3 -5 12 4q91 123 174 177t178 54zM379 412q50 0 95 19.5t84.5 59.5t65.5 73t62 87v8q-39 59 -65.5 93.5t-64 71t-79.5 53t-92 16.5q-103 0 -169 -68t-66 -170q0 -103 66 -173t163 -70zM1079 412q108 0 175 68t67 171q0 104 -66.5 173t-169.5 69q-51 0 -96 -17
t-86 -53t-72 -73t-73 -95v-8q40 -58 66.5 -90.5t67.5 -71t86.5 -56t100.5 -17.5z" />
    <glyph glyph-name="integral" unicode="&#x222b;" horiz-adv-x="829" 
d="M98 -410q-16 0 -16 17l-2 24q0 17 16 17h49q133 0 180.5 65.5t47.5 208.5l2 1182q0 101 16 163t57.5 100t102.5 52t160 15q16 0 16 -17l2 -24q0 -17 -16 -17h-49q-132 0 -180 -66t-48 -208l-2 -1182q-1 -101 -17 -163t-57 -100t-102 -52t-160 -15z" />
    <glyph glyph-name="approxequal" unicode="&#x2248;" horiz-adv-x="985" 
d="M692 799q-45 0 -91 14t-66.5 25t-67.5 39q-85 47 -158 47q-107 0 -168 -90q-10 -16 -22 -7l-15 11q-11 9 -6 22q32 57 86.5 90t124.5 33q53 0 92.5 -14t87.5 -41q81 -47 124 -59q40 -11 81 -11q33 0 61 13.5t44 28.5t43 46q10 13 22 4l17 -10q13 -10 4 -22
q-38 -57 -83.5 -88t-109.5 -31zM692 350q-45 0 -91 14t-66.5 25t-67.5 39q-85 47 -158 47q-107 0 -168 -90q-9 -16 -22 -6l-15 10q-12 9 -6 23q32 57 86.5 90t124.5 33q37 0 71.5 -9t55.5 -19t53 -28q42 -24 61.5 -34t60.5 -22.5t83 -12.5q33 0 61 13.5t44 28.5t43 46
q10 13 22 4l17 -10q14 -10 4 -23q-38 -57 -83.5 -88t-109.5 -31z" />
    <glyph glyph-name="notequal" unicode="&#x2260;" horiz-adv-x="1040" 
d="M950 885q0 -17 -16 -17h-324q-2 0 -6 -4l-188 -379q-4 -8 4 -8h514q16 0 16 -16v-23q0 -16 -16 -16h-545q-2 0 -6 -4l-84 -170q-6 -12 -20 -12h-17q-9 0 -12.5 5t0.5 13l78 160q4 8 -4 8h-215q-17 0 -17 16v23q0 16 17 16h245q2 0 6 4l189 379q4 8 -4 8h-436
q-17 0 -17 17v22q0 17 17 17h469q2 0 6 4l104 213q6 12 21 12h16q9 0 12.5 -5.5t-0.5 -12.5l-98 -203q-4 -8 4 -8h291q16 0 16 -17v-22z" />
    <glyph glyph-name="lessequal" unicode="&#x2264;" horiz-adv-x="1040" 
d="M948 203q0 -20 -18 -13l-828 396q-12 6 -12 20v35q0 15 12 21l828 395q18 7 18 -13v-30q0 -15 -12 -21l-778 -366q-3 -1 -3 -4t3 -5l778 -364q12 -6 12 -21v-30zM948 16q0 -16 -16 -16h-826q-16 0 -16 16v23q0 16 16 16h826q16 0 16 -16v-23z" />
    <glyph glyph-name="greaterequal" unicode="&#x2265;" horiz-adv-x="1040" 
d="M111 190q-8 -3 -13.5 0.5t-5.5 12.5v30q0 15 12 21l779 364q3 2 3 5t-3 4l-779 366q-12 6 -12 21v30q0 9 5.5 12.5t13.5 0.5l827 -395q12 -6 12 -21v-35q0 -14 -12 -20zM109 0q-17 0 -17 16v23q0 16 17 16h825q16 0 16 -16v-23q0 -16 -16 -16h-825z" />
    <glyph glyph-name="lozenge" unicode="&#x25ca;" horiz-adv-x="937" 
d="M453 -84q-16 0 -21 12l-336 779q-3 10 0 20l338 778q5 13 21 13h28q16 0 21 -13l338 -778q3 -10 0 -20l-336 -779q-5 -12 -21 -12h-32zM465 -12q1 -3 2.5 -4t3 0t2.5 4l307 725v8l-307 725q-1 3 -2.5 4t-3 0t-2.5 -4l-307 -725v-8z" />
    <glyph glyph-name="i.loclTRK" horiz-adv-x="428" 
d="M211 1243q-29 0 -49.5 19t-20.5 47q0 27 20 45t50 18q29 0 47 -17.5t18 -45.5t-18 -47t-47 -19zM197 0q-17 0 -17 16v994q0 16 17 16h28q17 0 17 -16v-994q0 -16 -17 -16h-28z" />
    <glyph glyph-name="a.alt" horiz-adv-x="1091" 
d="M834 1010q0 16 16 16h29q16 0 16 -16v-994q0 -16 -16 -16h-29q-16 0 -16 16v131q0 6 -3 6q-3 1 -4 -3q-44 -78 -121 -122t-178 -44q-137 0 -231.5 74t-124.5 196q-14 66 -14 256q0 194 14 262q27 122 122.5 196t233.5 74q102 0 178.5 -44.5t120.5 -123.5q2 -7 6 -1l1 4
v133zM821 274q13 67 13 238q0 172 -15 240q-18 101 -93 167t-191 66q-117 0 -199 -66t-103 -167q-14 -57 -14 -238q0 -172 12 -240q17 -102 101 -167.5t203 -65.5q117 0 191.5 66.5t94.5 166.5z" />
    <glyph glyph-name="a.sc" horiz-adv-x="1019" 
d="M901 0q-15 0 -18 14l-80 234q0 4 -8 4h-568q-8 0 -8 -4l-80 -234q-3 -14 -18 -14h-27q-8 0 -12.5 5.5t-1.5 12.5l391 1147q4 15 18 15h37q16 0 19 -13l397 -1149q3 -7 -1.5 -12.5t-12.5 -5.5h-27zM242 313q-3 -6 6 -6h526q9 0 6 6l-266 781q-4 8 -8 0z" />
    <glyph glyph-name="aacute.sc" horiz-adv-x="1019" 
d="M637 1608q9 0 12 -7t-2 -14l-137 -235q-7 -11 -18 -11h-25q-9 0 -13 6.5t1 14.5l133 233q9 13 18 13h31zM901 0q-15 0 -18 14l-80 234q0 4 -8 4h-568q-8 0 -8 -4l-80 -234q-3 -14 -18 -14h-27q-8 0 -12.5 5.5t-1.5 12.5l391 1147q4 15 18 15h37q16 0 19 -13l397 -1149
q3 -7 -1.5 -12.5t-12.5 -5.5h-27zM242 313q-3 -6 6 -6h526q9 0 6 6l-266 781q-4 8 -8 0z" />
    <glyph glyph-name="abreve.sc" horiz-adv-x="1019" 
d="M510 1268q-81 0 -140 53.5t-67 130.5q0 16 16 16h19q16 0 16 -16q6 -58 51.5 -96.5t104.5 -38.5t103.5 38.5t50.5 96.5q0 16 16 16h18q17 0 17 -16q-6 -77 -65 -130.5t-140 -53.5zM901 0q-15 0 -18 14l-80 234q0 4 -8 4h-568q-8 0 -8 -4l-80 -234q-3 -14 -18 -14h-27
q-8 0 -12.5 5.5t-1.5 12.5l391 1147q4 15 18 15h37q16 0 19 -13l397 -1149q3 -7 -1.5 -12.5t-12.5 -5.5h-27zM242 313q-3 -6 6 -6h526q9 0 6 6l-266 781q-4 8 -8 0z" />
    <glyph glyph-name="uni01CE.sc" horiz-adv-x="1019" 
d="M545 1305q-7 -11 -21 -11h-32q-14 0 -21 11l-174 225q-13 20 8 20h27q13 0 20 -10l154 -192q4 -8 8 0l150 192q7 10 20 10h29q21 0 8 -20zM901 0q-15 0 -18 14l-80 234q0 4 -8 4h-568q-8 0 -8 -4l-80 -234q-3 -14 -18 -14h-27q-8 0 -12.5 5.5t-1.5 12.5l391 1147
q4 15 18 15h37q16 0 19 -13l397 -1149q3 -7 -1.5 -12.5t-12.5 -5.5h-27zM242 313q-3 -6 6 -6h526q9 0 6 6l-266 781q-4 8 -8 0z" />
    <glyph glyph-name="acircumflex.sc" horiz-adv-x="1019" 
d="M514 1526q-4 8 -8 0l-154 -195q-7 -10 -20 -10h-29q-21 0 -8 20l176 226q7 10 21 10h30q14 0 21 -10l176 -226q13 -20 -8 -20h-29q-13 0 -20 10zM901 0q-15 0 -18 14l-80 234q0 4 -8 4h-568q-8 0 -8 -4l-80 -234q-3 -14 -18 -14h-27q-8 0 -12.5 5.5t-1.5 12.5l391 1147
q4 15 18 15h37q16 0 19 -13l397 -1149q3 -7 -1.5 -12.5t-12.5 -5.5h-27zM242 313q-3 -6 6 -6h526q9 0 6 6l-266 781q-4 8 -8 0z" />
    <glyph glyph-name="adieresis.sc" horiz-adv-x="1019" 
d="M354 1417q-31 0 -51 19t-20 47t20 46.5t51 18.5q28 0 47 -18.5t19 -46.5t-19 -47t-47 -19zM670 1417q-29 0 -49.5 19t-20.5 47t20.5 46.5t49.5 18.5t48 -18.5t19 -46.5t-19 -47t-48 -19zM901 0q-15 0 -18 14l-80 234q0 4 -8 4h-568q-8 0 -8 -4l-80 -234q-3 -14 -18 -14
h-27q-8 0 -12.5 5.5t-1.5 12.5l391 1147q4 15 18 15h37q16 0 19 -13l397 -1149q3 -7 -1.5 -12.5t-12.5 -5.5h-27zM242 313q-3 -6 6 -6h526q9 0 6 6l-266 781q-4 8 -8 0z" />
    <glyph glyph-name="agrave.sc" horiz-adv-x="1019" 
d="M522 1362q5 -8 1 -14.5t-13 -6.5h-25q-11 0 -18 11l-137 235q-5 7 -2 14t12 7h31q9 0 18 -13zM901 0q-15 0 -18 14l-80 234q0 4 -8 4h-568q-8 0 -8 -4l-80 -234q-3 -14 -18 -14h-27q-8 0 -12.5 5.5t-1.5 12.5l391 1147q4 15 18 15h37q16 0 19 -13l397 -1149
q3 -7 -1.5 -12.5t-12.5 -5.5h-27zM242 313q-3 -6 6 -6h526q9 0 6 6l-266 781q-4 8 -8 0z" />
    <glyph glyph-name="amacron.sc" horiz-adv-x="1019" 
d="M756 1442q16 0 16 -17v-20q0 -16 -16 -16h-488q-16 0 -16 16v20q0 17 16 17h488zM901 0q-15 0 -18 14l-80 234q0 4 -8 4h-568q-8 0 -8 -4l-80 -234q-3 -14 -18 -14h-27q-8 0 -12.5 5.5t-1.5 12.5l391 1147q4 15 18 15h37q16 0 19 -13l397 -1149q3 -7 -1.5 -12.5
t-12.5 -5.5h-27zM242 313q-3 -6 6 -6h526q9 0 6 6l-266 781q-4 8 -8 0z" />
    <glyph glyph-name="aogonek.sc" horiz-adv-x="1081" 
d="M979 -319q17 3 20 -13l5 -16q4 -18 -13 -21q-49 -6 -95.5 -3.5t-85 33t-50.5 85.5q-28 136 125 250q5 2 2 8q-1 1 -2 3t-2 3q0 1 -1 4t-1 4l-78 230q0 4 -8 4h-568q-8 0 -8 -4l-80 -234q-3 -14 -18 -14h-27q-8 0 -12.5 5.5t-1.5 12.5l391 1147q4 15 18 15h37q16 0 19 -13
l399 -1153l4 -14q-4 -2 -6 -2q-64 -51 -101 -113t-26 -123q10 -57 56 -75.5t108 -5.5zM242 313q-3 -6 6 -6h526q9 0 6 6l-266 781q-4 8 -8 0z" />
    <glyph glyph-name="aring.sc" horiz-adv-x="1019" 
d="M510 1329q-86 0 -145.5 58t-59.5 143q0 84 59.5 142.5t145.5 58.5q85 0 144 -59t59 -142q0 -85 -59 -143t-144 -58zM510 1681q-64 0 -109 -43.5t-45 -107.5t45 -108t109 -44t109 44t45 108t-45 107.5t-109 43.5zM901 0q-15 0 -18 14l-80 234q0 4 -8 4h-568q-8 0 -8 -4
l-80 -234q-3 -14 -18 -14h-27q-8 0 -12.5 5.5t-1.5 12.5l391 1147q4 15 18 15h37q16 0 19 -13l397 -1149q3 -7 -1.5 -12.5t-12.5 -5.5h-27zM242 313q-3 -6 6 -6h526q9 0 6 6l-266 781q-4 8 -8 0z" />
    <glyph glyph-name="atilde.sc" horiz-adv-x="1019" 
d="M420 1481q-35 0 -61 -13t-52 -49q-10 -17 -24 -6l-15 10q-12 9 -4 23q60 88 154 88q23 0 47 -8.5t35 -14.5t39 -24q65 -45 100 -45q70 0 115 67q9 15 22 7l12 -7q16 -10 7 -22q-28 -52 -71.5 -76.5t-84.5 -24.5q-54 0 -121 50q-22 16 -32.5 23.5t-29 14.5t-36.5 7zM901 0
q-15 0 -18 14l-80 234q0 4 -8 4h-568q-8 0 -8 -4l-80 -234q-3 -14 -18 -14h-27q-8 0 -12.5 5.5t-1.5 12.5l391 1147q4 15 18 15h37q16 0 19 -13l397 -1149q3 -7 -1.5 -12.5t-12.5 -5.5h-27zM242 313q-3 -6 6 -6h526q9 0 6 6l-266 781q-4 8 -8 0z" />
    <glyph glyph-name="ae.sc" horiz-adv-x="1589" 
d="M1468 1139q0 -17 -16 -17h-616q-7 0 -7 -6v-489q0 -6 7 -6h424q16 0 16 -17v-24q0 -17 -16 -17h-424q-7 0 -7 -6v-494q0 -6 7 -6h616q16 0 16 -16v-25q0 -16 -16 -16h-670q-16 0 -16 16v230q0 6 -6 6h-473q-4 0 -6 -4l-131 -236q-6 -12 -19 -12h-35q-9 0 -12.5 6t0.5 14
l643 1147q7 13 18 13h707q16 0 16 -17v-24zM317 315q-4 -8 5 -8h438q6 0 6 6v795q0 5 -3 5.5t-5 -3.5z" />
    <glyph glyph-name="b.sc" horiz-adv-x="1105" 
d="M754 614q-8 -4 0 -8q99 -34 153 -110t54 -181q0 -145 -93 -230t-247 -85h-410q-16 0 -16 16v1147q0 17 16 17h397q154 0 247 -82t93 -221q0 -96 -50.5 -164t-143.5 -99zM262 1122q-6 0 -6 -6v-473q0 -6 6 -6h348q124 0 200.5 65.5t76.5 171.5q0 112 -76 180t-201 68h-348
zM621 59q125 0 201.5 71t76.5 189t-79.5 190.5t-207.5 72.5h-350q-6 0 -6 -7v-509q0 -7 6 -7h359z" />
    <glyph glyph-name="c.sc" horiz-adv-x="1060" 
d="M541 -16q-179 0 -285 101.5t-106 274.5v461q0 171 106 272t285 101q175 0 281 -100.5t106 -270.5v-4q0 -18 -17 -18l-28 -2q-17 0 -17 12v12q0 144 -88 226t-237 88q-148 7 -239 -80t-91 -234v-467q0 -145 90 -230t240 -85q147 0 236 85t89 230v6q0 15 17 15l28 -2
q17 0 17 -8v-9q0 -171 -106 -272.5t-281 -101.5z" />
    <glyph glyph-name="cacute.sc" horiz-adv-x="1060" 
d="M498 1356q-9 0 -13 6t0 14l133 234q8 12 19 12h31q9 0 12 -6t-2 -14l-137 -236q-7 -10 -19 -10h-24zM541 -16q-179 0 -285 101.5t-106 274.5v461q0 171 106 272t285 101q175 0 281 -100.5t106 -270.5v-4q0 -18 -17 -18l-28 -2q-17 0 -17 12v12q0 144 -88 226t-237 88
q-148 7 -239 -80t-91 -234v-467q0 -145 90 -230t240 -85q147 0 236 85t89 230v6q0 15 17 15l28 -2q17 0 17 -8v-9q0 -171 -106 -272.5t-281 -101.5z" />
    <glyph glyph-name="ccaron.sc" horiz-adv-x="1060" 
d="M522 1309q-13 0 -20 10l-174 225q-6 9 -3.5 15t11.5 6h26q14 0 21 -11l154 -192q4 -8 8 0l149 192q7 11 21 11h28q9 0 12 -6t-3 -15l-177 -225q-7 -10 -20 -10h-33zM541 -16q-179 0 -285 101.5t-106 274.5v461q0 171 106 272t285 101q175 0 281 -100.5t106 -270.5v-4
q0 -18 -17 -18l-28 -2q-17 0 -17 12v12q0 144 -88 226t-237 88q-148 7 -239 -80t-91 -234v-467q0 -145 90 -230t240 -85q147 0 236 85t89 230v6q0 15 17 15l28 -2q17 0 17 -8v-9q0 -171 -106 -272.5t-281 -101.5z" />
    <glyph glyph-name="ccedilla.sc" horiz-adv-x="1060" 
d="M928 813q0 -12 -17 -12l-28 -2q-17 0 -17 12v12q0 144 -88 226t-237 88q-148 7 -239 -80t-91 -234v-467q0 -145 90 -230t240 -85q147 0 236 85t89 230v6q0 15 17 15l28 -2q17 0 17 -8v-9q0 -171 -106 -272.5t-281 -101.5h-25q-9 0 -2 -7q138 -111 111 -239
q-12 -55 -51 -85.5t-85.5 -33t-95.5 3.5q-16 3 -12 21l4 16q3 16 21 12q38 -7 72 -4t59 25t32 61q19 109 -106 217q-25 21 -21 21q-16 4 -20 6q-127 29 -199.5 125.5t-72.5 236.5v461q0 171 106 272t285 101q175 0 281 -100.5t106 -270.5v-10z" />
    <glyph glyph-name="cdotaccent.sc" horiz-adv-x="1060" 
d="M541 1393q-29 0 -49.5 18.5t-20.5 46.5t20 46t50 18q29 0 47 -18t18 -46t-18 -46.5t-47 -18.5zM541 -16q-179 0 -285 101.5t-106 274.5v461q0 171 106 272t285 101q175 0 281 -100.5t106 -270.5v-4q0 -18 -17 -18l-28 -2q-17 0 -17 12v12q0 144 -88 226t-237 88
q-148 7 -239 -80t-91 -234v-467q0 -145 90 -230t240 -85q147 0 236 85t89 230v6q0 15 17 15l28 -2q17 0 17 -8v-9q0 -171 -106 -272.5t-281 -101.5z" />
    <glyph glyph-name="d.sc" horiz-adv-x="1083" 
d="M211 0q-16 0 -16 16v1147q0 17 16 17h401q160 0 254.5 -84t94.5 -226v-559q0 -144 -94.5 -227.5t-254.5 -83.5h-401zM256 63q0 -6 6 -6h354q129 0 206 69t77 187v551q0 120 -76 189t-207 69h-354q-6 0 -6 -6v-1053z" />
    <glyph glyph-name="eth.sc" horiz-adv-x="1210" 
d="M739 1180q160 0 254 -84t94 -226v-559q0 -144 -94 -227.5t-254 -83.5h-401q-16 0 -16 16v566q0 6 -7 6h-104q-16 0 -16 16v17q0 16 16 16h104q7 0 7 6v520q0 17 16 17h401zM1026 313v551q0 120 -76 189t-207 69h-354q-6 0 -6 -6v-473q0 -6 6 -6h244q16 0 16 -16v-17
q0 -16 -16 -16h-244q-6 0 -6 -6v-519q0 -6 6 -6h354q129 0 206 69t77 187z" />
    <glyph glyph-name="dcaron.sc" horiz-adv-x="1083" 
d="M537 1303q-14 0 -21 10l-174 225q-6 9 -3.5 15t11.5 6h27q13 0 20 -11l154 -192q4 -8 8 0l150 192q7 11 20 11h29q9 0 11.5 -6t-3.5 -15l-176 -225q-7 -10 -21 -10h-32zM211 0q-16 0 -16 16v1147q0 17 16 17h401q160 0 254.5 -84t94.5 -226v-559q0 -144 -94.5 -227.5
t-254.5 -83.5h-401zM256 63q0 -6 6 -6h354q129 0 206 69t77 187v551q0 120 -76 189t-207 69h-354q-6 0 -6 -6v-1053z" />
    <glyph glyph-name="dcroat.sc" horiz-adv-x="1210" 
d="M739 1180q160 0 254 -84t94 -226v-559q0 -144 -94 -227.5t-254 -83.5h-401q-16 0 -16 16v566q0 6 -7 6h-104q-16 0 -16 16v17q0 16 16 16h104q7 0 7 6v520q0 17 16 17h401zM1026 313v551q0 120 -76 189t-207 69h-354q-6 0 -6 -6v-473q0 -6 6 -6h244q16 0 16 -16v-17
q0 -16 -16 -16h-244q-6 0 -6 -6v-519q0 -6 6 -6h354q129 0 206 69t77 187z" />
    <glyph glyph-name="e.sc" horiz-adv-x="1081" 
d="M961 1137q0 -17 -17 -17h-682q-6 0 -6 -6v-487q0 -6 6 -6h492q16 0 16 -17v-24q0 -17 -16 -17h-492q-6 0 -6 -6v-494q0 -6 6 -6h682q17 0 17 -16v-25q0 -16 -17 -16h-733q-16 0 -16 16v1145q0 17 16 17h733q17 0 17 -17v-24z" />
    <glyph glyph-name="eacute.sc" horiz-adv-x="1081" 
d="M655 1624q9 0 12.5 -6t-1.5 -14l-138 -236q-7 -10 -18 -10h-25q-9 0 -13 6t1 14l133 234q8 12 19 12h30zM961 1137q0 -17 -17 -17h-682q-6 0 -6 -6v-487q0 -6 6 -6h492q16 0 16 -17v-24q0 -17 -16 -17h-492q-6 0 -6 -6v-494q0 -6 6 -6h682q17 0 17 -16v-25q0 -16 -17 -16
h-733q-16 0 -16 16v1145q0 17 16 17h733q17 0 17 -17v-24z" />
    <glyph glyph-name="ecaron.sc" horiz-adv-x="1081" 
d="M563 1321q-7 -10 -20 -10h-33q-14 0 -21 10l-174 225q-6 9 -3 15t12 6h26q14 0 21 -11l153 -192q4 -8 8 0l150 192q7 11 20 11h29q9 0 11.5 -6t-3.5 -15zM961 1137q0 -17 -17 -17h-682q-6 0 -6 -6v-487q0 -6 6 -6h492q16 0 16 -17v-24q0 -17 -16 -17h-492q-6 0 -6 -6
v-494q0 -6 6 -6h682q17 0 17 -16v-25q0 -16 -17 -16h-733q-16 0 -16 16v1145q0 17 16 17h733q17 0 17 -17v-24z" />
    <glyph glyph-name="uni0229.sc" horiz-adv-x="1081" 
d="M961 1137q0 -17 -17 -17h-682q-6 0 -6 -6v-487q0 -6 6 -6h492q16 0 16 -17v-24q0 -17 -16 -17h-492q-6 0 -6 -6v-494q0 -6 6 -6h682q17 0 17 -16v-25q0 -16 -17 -16h-383q-3 0 -4 -2.5t2 -5.5q138 -108 111 -238q-12 -55 -51 -85t-85.5 -32.5t-95.5 3.5q-15 3 -12 20
l4 16q3 17 21 13q38 -7 72 -4t59 25t32 61q21 111 -116 227q-4 2 -9 2h-278q-16 0 -16 16v1145q0 17 16 17h733q17 0 17 -17v-24z" />
    <glyph glyph-name="ecircumflex.sc" horiz-adv-x="1081" 
d="M532 1542q-4 8 -8 0l-153 -194q-7 -11 -21 -11h-28q-9 0 -12 6t3 15l176 225q7 10 21 10h31q13 0 20 -10l176 -225q6 -9 3.5 -15t-11.5 -6h-29q-13 0 -20 11zM961 1137q0 -17 -17 -17h-682q-6 0 -6 -6v-487q0 -6 6 -6h492q16 0 16 -17v-24q0 -17 -16 -17h-492q-6 0 -6 -6
v-494q0 -6 6 -6h682q17 0 17 -16v-25q0 -16 -17 -16h-733q-16 0 -16 16v1145q0 17 16 17h733q17 0 17 -17v-24z" />
    <glyph glyph-name="edieresis.sc" horiz-adv-x="1081" 
d="M373 1434q-31 0 -51.5 18.5t-20.5 46.5t20.5 47t51.5 19q28 0 46.5 -19t18.5 -47t-18.5 -46.5t-46.5 -18.5zM688 1434q-29 0 -49.5 18.5t-20.5 46.5t20.5 47t49.5 19t48.5 -19t19.5 -47t-19.5 -46.5t-48.5 -18.5zM961 1137q0 -17 -17 -17h-682q-6 0 -6 -6v-487q0 -6 6 -6
h492q16 0 16 -17v-24q0 -17 -16 -17h-492q-6 0 -6 -6v-494q0 -6 6 -6h682q17 0 17 -16v-25q0 -16 -17 -16h-733q-16 0 -16 16v1145q0 17 16 17h733q17 0 17 -17v-24z" />
    <glyph glyph-name="edotaccent.sc" horiz-adv-x="1081" 
d="M528 1395q-29 0 -49 18.5t-20 46.5t20 46t49 18t47.5 -18t18.5 -46t-18.5 -46.5t-47.5 -18.5zM961 1137q0 -17 -17 -17h-682q-6 0 -6 -6v-487q0 -6 6 -6h492q16 0 16 -17v-24q0 -17 -16 -17h-492q-6 0 -6 -6v-494q0 -6 6 -6h682q17 0 17 -16v-25q0 -16 -17 -16h-733
q-16 0 -16 16v1145q0 17 16 17h733q17 0 17 -17v-24z" />
    <glyph glyph-name="egrave.sc" horiz-adv-x="1081" 
d="M541 1378q4 -8 0 -14t-13 -6h-24q-12 0 -19 10l-137 236q-5 8 -2 14t12 6h31q11 0 19 -12zM961 1137q0 -17 -17 -17h-682q-6 0 -6 -6v-487q0 -6 6 -6h492q16 0 16 -17v-24q0 -17 -16 -17h-492q-6 0 -6 -6v-494q0 -6 6 -6h682q17 0 17 -16v-25q0 -16 -17 -16h-733
q-16 0 -16 16v1145q0 17 16 17h733q17 0 17 -17v-24z" />
    <glyph glyph-name="emacron.sc" horiz-adv-x="1081" 
d="M774 1458q17 0 17 -16v-21q0 -16 -17 -16h-487q-17 0 -17 16v21q0 16 17 16h487zM961 1137q0 -17 -17 -17h-682q-6 0 -6 -6v-487q0 -6 6 -6h492q16 0 16 -17v-24q0 -17 -16 -17h-492q-6 0 -6 -6v-494q0 -6 6 -6h682q17 0 17 -16v-25q0 -16 -17 -16h-733q-16 0 -16 16
v1145q0 17 16 17h733q17 0 17 -17v-24z" />
    <glyph glyph-name="eogonek.sc" horiz-adv-x="1081" 
d="M961 1137q0 -17 -17 -17h-682q-6 0 -6 -6v-487q0 -6 6 -6h492q16 0 16 -17v-24q0 -17 -16 -17h-492q-6 0 -6 -6v-494q0 -6 6 -6h682q17 0 17 -16v-25q0 -16 -17 -16h-383q-1 0 -4 -1t-4 -1q-136 -115 -115 -225q10 -57 56 -76t108 -6q18 4 21 -13l4 -16q3 -17 -13 -20
q-49 -6 -95.5 -3.5t-85 32.5t-50.5 85q-27 127 106 236q4 3 2.5 5.5t-4.5 2.5h-276q-16 0 -16 16v1145q0 17 16 17h733q17 0 17 -17v-24z" />
    <glyph glyph-name="f.sc" horiz-adv-x="1001" 
d="M958 1139q0 -17 -16 -17h-680q-6 0 -6 -6v-489q0 -6 6 -6h490q16 0 16 -17v-24q0 -17 -16 -17h-490q-6 0 -6 -6v-541q0 -16 -16 -16h-29q-16 0 -16 16v1147q0 17 16 17h731q16 0 16 -17v-24z" />
    <glyph glyph-name="g.sc" horiz-adv-x="1071" 
d="M547 -14q-183 0 -289 104t-106 293v414q0 189 106 293t289 104q178 0 283.5 -103t105.5 -286v-6q0 -17 -16 -17h-29q-17 0 -17 13v12q0 157 -88.5 243.5t-238.5 86.5q-154 0 -244 -88t-90 -252v-414q0 -164 90 -252t244 -88q151 0 239 88t88 252v131q0 6 -6 6h-290
q-17 0 -17 17v22q0 16 17 16h342q16 0 16 -16v-176q0 -189 -105.5 -293t-283.5 -104z" />
    <glyph glyph-name="gbreve.sc" horiz-adv-x="1071" 
d="M543 1282q-81 0 -140 53.5t-67 130.5q0 17 16 17h19q16 0 16 -17q6 -58 51.5 -96.5t104.5 -38.5t103 38.5t50 96.5q0 17 17 17h18q17 0 17 -17q-6 -77 -65 -130.5t-140 -53.5zM547 -14q-183 0 -289 104t-106 293v414q0 189 106 293t289 104q178 0 283.5 -103t105.5 -286
v-6q0 -17 -16 -17h-29q-17 0 -17 13v12q0 157 -88.5 243.5t-238.5 86.5q-154 0 -244 -88t-90 -252v-414q0 -164 90 -252t244 -88q151 0 239 88t88 252v131q0 6 -6 6h-290q-17 0 -17 17v22q0 16 17 16h342q16 0 16 -16v-176q0 -189 -105.5 -293t-283.5 -104z" />
    <glyph glyph-name="uni0123.sc" horiz-adv-x="1071" 
d="M547 -14q-183 0 -289 104t-106 293v414q0 189 106 293t289 104q178 0 283.5 -103t105.5 -286v-6q0 -17 -16 -17h-29q-17 0 -17 13v12q0 157 -88.5 243.5t-238.5 86.5q-154 0 -244 -88t-90 -252v-414q0 -164 90 -252t244 -88q151 0 239 88t88 252v131q0 6 -6 6h-290
q-17 0 -17 17v22q0 16 17 16h342q16 0 16 -16v-176q0 -189 -105.5 -293t-283.5 -104zM453 -403q-9 0 -13 6.5t0 13.5l133 233q9 13 19 13h31q9 0 12 -6.5t-2 -14.5l-137 -235q-7 -10 -19 -10h-24z" />
    <glyph glyph-name="gdotaccent.sc" horiz-adv-x="1071" 
d="M543 1393q-29 0 -49.5 18.5t-20.5 46.5t20 46t50 18q29 0 47 -18t18 -46t-18 -46.5t-47 -18.5zM547 -14q-183 0 -289 104t-106 293v414q0 189 106 293t289 104q178 0 283.5 -103t105.5 -286v-6q0 -17 -16 -17h-29q-17 0 -17 13v12q0 157 -88.5 243.5t-238.5 86.5
q-154 0 -244 -88t-90 -252v-414q0 -164 90 -252t244 -88q151 0 239 88t88 252v131q0 6 -6 6h-290q-17 0 -17 17v22q0 16 17 16h342q16 0 16 -16v-176q0 -189 -105.5 -293t-283.5 -104z" />
    <glyph glyph-name="h.sc" horiz-adv-x="1169" 
d="M915 1163q0 17 17 17h29q16 0 16 -17v-1147q0 -16 -16 -16h-29q-17 0 -17 16v541q0 6 -6 6h-647q-6 0 -6 -6v-541q0 -16 -16 -16h-29q-16 0 -16 16v1147q0 17 16 17h29q16 0 16 -17v-536q0 -6 6 -6h647q6 0 6 6v536z" />
    <glyph glyph-name="hbar.sc" horiz-adv-x="1169" 
d="M1153 913q16 0 16 -16v-20q0 -17 -16 -17h-170q-6 0 -6 -6v-838q0 -16 -16 -16h-29q-17 0 -17 16v541q0 6 -6 6h-647q-6 0 -6 -6v-541q0 -16 -16 -16h-29q-16 0 -16 16v838q0 6 -7 6h-165q-17 0 -17 17v20q0 16 17 16h165q7 0 7 7v243q0 17 16 17h29q16 0 16 -17v-243
q0 -7 6 -7h647q6 0 6 7v243q0 17 17 17h29q16 0 16 -17v-243q0 -7 6 -7h170zM909 621q6 0 6 6v227q0 6 -6 6h-647q-6 0 -6 -6v-227q0 -6 6 -6h647z" />
    <glyph glyph-name="i.sc" horiz-adv-x="450" 
d="M211 0q-16 0 -16 16v1145q0 17 16 17h29q16 0 16 -17v-1145q0 -16 -16 -16h-29z" />
    <glyph glyph-name="iacute.sc" horiz-adv-x="450" 
d="M182 1358q-9 0 -13 6t1 14l133 234q8 12 19 12h30q9 0 12 -6t-2 -14l-137 -236q-7 -10 -18 -10h-25zM211 0q-16 0 -16 16v1145q0 17 16 17h29q16 0 16 -17v-1145q0 -16 -16 -16h-29z" />
    <glyph glyph-name="icircumflex.sc" horiz-adv-x="450" 
d="M18 1337q-9 0 -11.5 6t3.5 15l176 225q7 10 21 10h31q13 0 20 -10l176 -225q6 -9 3.5 -15t-11.5 -6h-29q-13 0 -20 11l-148 194q-4 8 -8 0l-153 -194q-7 -11 -21 -11h-29zM211 0q-16 0 -16 16v1145q0 17 16 17h29q16 0 16 -17v-1145q0 -16 -16 -16h-29z" />
    <glyph glyph-name="idieresis.sc" horiz-adv-x="450" 
d="M70 1434q-31 0 -51.5 18.5t-20.5 46.5t20.5 47t51.5 19q28 0 46.5 -19t18.5 -47t-18.5 -46.5t-46.5 -18.5zM385 1434q-29 0 -49.5 18.5t-20.5 46.5t20.5 47t49.5 19t48.5 -19t19.5 -47t-19.5 -46.5t-48.5 -18.5zM211 0q-16 0 -16 16v1145q0 17 16 17h29q16 0 16 -17
v-1145q0 -16 -16 -16h-29z" />
    <glyph glyph-name="i.sc.loclTRK" horiz-adv-x="450" 
d="M225 1395q-29 0 -49 18.5t-20 46.5t20 46t49 18t47.5 -18t18.5 -46t-18.5 -46.5t-47.5 -18.5zM211 0q-16 0 -16 16v1145q0 17 16 17h29q16 0 16 -17v-1145q0 -16 -16 -16h-29z" />
    <glyph glyph-name="igrave.sc" horiz-adv-x="450" 
d="M238 1378q4 -8 0 -14t-13 -6h-24q-12 0 -19 10l-137 236q-5 8 -2 14t12 6h31q10 0 18 -12zM211 0q-16 0 -16 16v1145q0 17 16 17h29q16 0 16 -17v-1145q0 -16 -16 -16h-29z" />
    <glyph glyph-name="ij.sc" horiz-adv-x="1458" 
d="M887 -14q-171 0 -274 97.5t-103 262.5v68q0 16 16 16h29q16 0 16 -16v-70q0 -139 86.5 -220t229.5 -81q142 0 228.5 81.5t86.5 219.5v819q0 17 17 17h28q17 0 17 -17v-817q0 -165 -103.5 -262.5t-273.5 -97.5zM211 0q-16 0 -16 16v1145q0 17 16 17h29q16 0 16 -17v-1145
q0 -16 -16 -16h-29z" />
    <glyph glyph-name="imacron.sc" horiz-adv-x="450" 
d="M-16 1405q-17 0 -17 16v21q0 16 17 16h487q16 0 16 -16v-21q0 -16 -16 -16h-487zM211 0q-16 0 -16 16v1145q0 17 16 17h29q16 0 16 -17v-1145q0 -16 -16 -16h-29z" />
    <glyph glyph-name="iogonek.sc" horiz-adv-x="493" 
d="M293 -319q17 3 20 -13l4 -16q4 -18 -12 -21q-49 -6 -95.5 -3.5t-85 33t-50.5 85.5q-28 137 127 250q3 3 -2 6q-4 4 -4 14v1145q0 17 16 17h29q16 0 16 -17v-1157q0 -4 -2 -6q-4 -7 -18 -18q-126 -109 -107 -218q10 -57 56 -75.5t108 -5.5z" />
    <glyph glyph-name="j.sc" horiz-adv-x="1007" 
d="M436 -14q-171 0 -274 97.5t-103 262.5v68q0 16 17 16h28q17 0 17 -16v-70q0 -139 86 -220t229 -81q142 0 229 81.5t87 219.5v819q0 17 16 17h29q16 0 16 -17v-817q0 -165 -103.5 -262.5t-273.5 -97.5z" />
    <glyph glyph-name="k.sc" horiz-adv-x="1056" 
d="M211 0q-16 0 -16 16v1147q0 17 16 17h29q16 0 16 -17v-618q0 -3 2.5 -4t5.5 2l631 628q9 9 20 9h29q10 0 13 -7t-5 -14l-444 -457q-3 -3 0 -8l491 -674q6 -9 2.5 -14.5t-12.5 -5.5h-37q-13 0 -20 10l-467 637q-5 5 -8 2l-197 -190q-4 -4 -4 -8v-435q0 -16 -16 -16h-29z
" />
    <glyph glyph-name="uni0137.sc" horiz-adv-x="1054" 
d="M211 0q-16 0 -16 16v1147q0 17 16 17h29q16 0 16 -17v-618q0 -3 2.5 -4t5.5 2l631 628q9 9 20 9h29q10 0 13 -7t-5 -14l-444 -457q-3 -3 0 -8l491 -674q6 -9 2.5 -14.5t-12.5 -5.5h-37q-13 0 -20 10l-467 637q-5 5 -8 2l-197 -190q-4 -4 -4 -8v-435q0 -16 -16 -16h-29z
M494 -389q-9 0 -13 6.5t0 13.5l133 234q8 12 19 12h31q9 0 12 -6.5t-2 -13.5l-137 -236q-7 -10 -19 -10h-24z" />
    <glyph glyph-name="l.sc" horiz-adv-x="991" 
d="M211 0q-16 0 -16 16v1147q0 17 16 17h29q16 0 16 -17v-1100q0 -6 6 -6h641q17 0 17 -16v-25q0 -16 -17 -16h-692z" />
    <glyph glyph-name="lacute.sc" horiz-adv-x="991" 
d="M182 1341q-9 0 -13 6.5t1 14.5l133 233q9 13 19 13h30q9 0 12 -7t-2 -14l-137 -235q-7 -11 -18 -11h-25zM211 0q-16 0 -16 16v1147q0 17 16 17h29q16 0 16 -17v-1100q0 -6 6 -6h641q17 0 17 -16v-25q0 -16 -17 -16h-692z" />
    <glyph glyph-name="lcaron.sc" horiz-adv-x="991" 
d="M207 1294q-14 0 -21 11l-174 225q-13 20 8 20h27q14 0 21 -10l153 -192q4 -8 8 0l150 192q7 10 20 10h29q21 0 8 -20l-176 -225q-7 -11 -20 -11h-33zM211 0q-16 0 -16 16v1147q0 17 16 17h29q16 0 16 -17v-1100q0 -6 6 -6h641q17 0 17 -16v-25q0 -16 -17 -16h-692z" />
    <glyph glyph-name="uni013C.sc" horiz-adv-x="991" 
d="M211 0q-16 0 -16 16v1147q0 17 16 17h29q16 0 16 -17v-1100q0 -6 6 -6h641q17 0 17 -16v-25q0 -16 -17 -16h-692zM420 -389q-9 0 -12.5 6.5t0.5 13.5l133 234q8 12 18 12h31q9 0 12 -6.5t-2 -13.5l-137 -236q-7 -10 -19 -10h-24z" />
    <glyph glyph-name="lslash.sc" horiz-adv-x="1083" 
d="M256 63q0 -6 6 -6h641q17 0 17 -16v-25q0 -16 -17 -16h-692q-16 0 -16 16v381q0 3 -3 4t-6 -2l-143 -100q-14 -11 -25 4l-12 19q-9 14 4 24l180 127q5 5 5 6v684q0 17 16 17h29q16 0 16 -17v-637q0 -3 2.5 -4t5.5 2l602 420q16 12 25 -4l12 -18q9 -15 -4 -25l-639 -446
q-4 -4 -4 -7v-381z" />
    <glyph glyph-name="m.sc" horiz-adv-x="1255" 
d="M211 0q-16 0 -16 16v1147q0 17 16 17h33q12 0 18 -11l361 -544q4 -8 8 0l362 544q5 11 19 11h32q17 0 17 -17v-1147q0 -16 -17 -16h-28q-17 0 -17 16v1049q0 4 -3.5 4.5t-4.5 -2.5l-336 -508q-5 -10 -18 -10h-14q-14 0 -19 10l-340 510q-1 2 -3 2t-3.5 -1.5t-1.5 -4.5
v-1049q0 -16 -16 -16h-29z" />
    <glyph glyph-name="n.sc" horiz-adv-x="1198" 
d="M211 0q-16 0 -16 16v1145q0 17 16 17h33q12 0 18 -11l672 -1050q1 -2 3 -2.5t3.5 0.5t1.5 4v1042q0 17 16 17h29q17 0 17 -17v-1145q0 -16 -17 -16h-33q-13 0 -18 10l-672 1053q-1 2 -3 2.5t-3.5 -0.5t-1.5 -4v-1045q0 -16 -16 -16h-29z" />
    <glyph glyph-name="nacute.sc" horiz-adv-x="1198" 
d="M557 1358q-9 0 -13 6t1 14l133 234q8 12 18 12h31q9 0 12 -6t-2 -14l-137 -236q-7 -10 -18 -10h-25zM211 0q-16 0 -16 16v1145q0 17 16 17h33q12 0 18 -11l672 -1050q1 -2 3 -2.5t3.5 0.5t1.5 4v1042q0 17 16 17h29q17 0 17 -17v-1145q0 -16 -17 -16h-33q-13 0 -18 10
l-672 1053q-1 2 -3 2.5t-3.5 -0.5t-1.5 -4v-1045q0 -16 -16 -16h-29z" />
    <glyph glyph-name="ncaron.sc" horiz-adv-x="1198" 
d="M582 1311q-14 0 -21 10l-174 225q-6 9 -3.5 15t11.5 6h27q13 0 20 -11l154 -192q4 -8 8 0l150 192q7 11 20 11h29q9 0 11.5 -6t-3.5 -15l-176 -225q-7 -10 -21 -10h-32zM211 0q-16 0 -16 16v1145q0 17 16 17h33q12 0 18 -11l672 -1050q1 -2 3 -2.5t3.5 0.5t1.5 4v1042
q0 17 16 17h29q17 0 17 -17v-1145q0 -16 -17 -16h-33q-13 0 -18 10l-672 1053q-1 2 -3 2.5t-3.5 -0.5t-1.5 -4v-1045q0 -16 -16 -16h-29z" />
    <glyph glyph-name="uni0146.sc" horiz-adv-x="1198" 
d="M211 0q-16 0 -16 16v1145q0 17 16 17h33q12 0 18 -11l672 -1050q1 -2 3 -2.5t3.5 0.5t1.5 4v1042q0 17 16 17h29q17 0 17 -17v-1145q0 -16 -17 -16h-33q-13 0 -18 10l-672 1053q-1 2 -3 2.5t-3.5 -0.5t-1.5 -4v-1045q0 -16 -16 -16h-29zM514 -389q-9 0 -12.5 6.5
t0.5 13.5l133 234q8 12 18 12h31q9 0 12 -6.5t-2 -13.5l-137 -236q-7 -10 -18 -10h-25z" />
    <glyph glyph-name="eng.sc" horiz-adv-x="1198" 
d="M942 1161q0 17 16 17h29q17 0 17 -17v-1149v-12q-3 -2 -3 -4q0 -117 -51.5 -177.5t-167.5 -64.5q-16 0 -16 17v24q0 17 16 17q87 3 122.5 50t35.5 138q0 4 -2 8l-674 1055q-1 2 -3 2.5t-3.5 -0.5t-1.5 -4v-1045q0 -16 -16 -16h-29q-16 0 -16 16v1145q0 17 16 17h33
q12 0 18 -11l670 -1046q1 -2 3 -2.5t3.5 0.5t1.5 4v823v6q2 2 2 9v200z" />
    <glyph glyph-name="ntilde.sc" horiz-adv-x="1198" 
d="M729 1403q-55 0 -121 49q-22 16 -32.5 23.5t-29 14.5t-36.5 7q-35 0 -61 -12.5t-52 -48.5q-10 -17 -24 -6l-15 10q-12 9 -4 22q60 88 154 88q23 0 47 -8.5t35 -14.5t39 -24q65 -45 100 -45q69 0 115 68q8 14 22 6l13 -6q15 -9 0 -33q-28 -47 -69.5 -68.5t-80.5 -21.5z
M211 0q-16 0 -16 16v1145q0 17 16 17h33q12 0 18 -11l672 -1050q1 -2 3 -2.5t3.5 0.5t1.5 4v1042q0 17 16 17h29q17 0 17 -17v-1145q0 -16 -17 -16h-33q-13 0 -18 10l-672 1053q-1 2 -3 2.5t-3.5 -0.5t-1.5 -4v-1045q0 -16 -16 -16h-29z" />
    <glyph glyph-name="o.sc" horiz-adv-x="1093" 
d="M545 -12q-180 0 -287.5 105.5t-107.5 287.5v416q0 183 107.5 290t287.5 107q181 0 290 -107t109 -290v-416q0 -182 -109 -287.5t-290 -105.5zM545 43q154 0 246 90t92 248v418q0 157 -92 247.5t-246 90.5q-153 0 -243.5 -90.5t-90.5 -247.5v-418q0 -158 90 -248t244 -90z
" />
    <glyph glyph-name="oacute.sc" horiz-adv-x="1093" 
d="M502 1356q-9 0 -13 6t0 14l134 234q8 12 18 12h31q9 0 12 -6t-2 -14l-137 -236q-7 -10 -19 -10h-24zM545 -12q-180 0 -287.5 105.5t-107.5 287.5v416q0 183 107.5 290t287.5 107q181 0 290 -107t109 -290v-416q0 -182 -109 -287.5t-290 -105.5zM545 43q154 0 246 90
t92 248v418q0 157 -92 247.5t-246 90.5q-153 0 -243.5 -90.5t-90.5 -247.5v-418q0 -158 90 -248t244 -90z" />
    <glyph glyph-name="ocircumflex.sc" horiz-adv-x="1093" 
d="M338 1335q-9 0 -11.5 6t3.5 15l176 225q7 10 20 10h31q14 0 21 -10l176 -225q6 -9 3 -15t-12 -6h-28q-14 0 -21 11l-147 194q-4 8 -8 0l-154 -194q-7 -11 -20 -11h-29zM545 -12q-180 0 -287.5 105.5t-107.5 287.5v416q0 183 107.5 290t287.5 107q181 0 290 -107t109 -290
v-416q0 -182 -109 -287.5t-290 -105.5zM545 43q154 0 246 90t92 248v418q0 157 -92 247.5t-246 90.5q-153 0 -243.5 -90.5t-90.5 -247.5v-418q0 -158 90 -248t244 -90z" />
    <glyph glyph-name="odieresis.sc" horiz-adv-x="1093" 
d="M389 1432q-31 0 -51.5 18.5t-20.5 46.5t20.5 47t51.5 19q28 0 47 -19t19 -47t-19 -46.5t-47 -18.5zM705 1432q-29 0 -49.5 18.5t-20.5 46.5t20.5 47t49.5 19t48 -19t19 -47t-19 -46.5t-48 -18.5zM545 -12q-180 0 -287.5 105.5t-107.5 287.5v416q0 183 107.5 290
t287.5 107q181 0 290 -107t109 -290v-416q0 -182 -109 -287.5t-290 -105.5zM545 43q154 0 246 90t92 248v418q0 157 -92 247.5t-246 90.5q-153 0 -243.5 -90.5t-90.5 -247.5v-418q0 -158 90 -248t244 -90z" />
    <glyph glyph-name="ograve.sc" horiz-adv-x="1093" 
d="M557 1376q5 -8 1 -14t-13 -6h-25q-11 0 -18 10l-137 236q-5 8 -2 14t12 6h31q10 0 18 -12zM545 -12q-180 0 -287.5 105.5t-107.5 287.5v416q0 183 107.5 290t287.5 107q181 0 290 -107t109 -290v-416q0 -182 -109 -287.5t-290 -105.5zM545 43q154 0 246 90t92 248v418
q0 157 -92 247.5t-246 90.5q-153 0 -243.5 -90.5t-90.5 -247.5v-418q0 -158 90 -248t244 -90z" />
    <glyph glyph-name="ohungarumlaut.sc" horiz-adv-x="1093" 
d="M362 1352q-9 0 -12.5 6t0.5 14l131 234q6 12 19 12h28q9 0 12.5 -7t-1.5 -14l-136 -233q-8 -12 -18 -12h-23zM678 1352q-9 0 -12.5 6t0.5 14l131 234q6 12 18 12h29q9 0 12 -7t-2 -14l-135 -233q-8 -12 -19 -12h-22zM545 -12q-180 0 -287.5 105.5t-107.5 287.5v416
q0 183 107.5 290t287.5 107q181 0 290 -107t109 -290v-416q0 -182 -109 -287.5t-290 -105.5zM545 43q154 0 246 90t92 248v418q0 157 -92 247.5t-246 90.5q-153 0 -243.5 -90.5t-90.5 -247.5v-418q0 -158 90 -248t244 -90z" />
    <glyph glyph-name="omacron.sc" horiz-adv-x="1093" 
d="M303 1403q-16 0 -16 16v21q0 16 16 16h488q16 0 16 -16v-21q0 -16 -16 -16h-488zM545 -12q-180 0 -287.5 105.5t-107.5 287.5v416q0 183 107.5 290t287.5 107q181 0 290 -107t109 -290v-416q0 -182 -109 -287.5t-290 -105.5zM545 43q154 0 246 90t92 248v418
q0 157 -92 247.5t-246 90.5q-153 0 -243.5 -90.5t-90.5 -247.5v-418q0 -158 90 -248t244 -90z" />
    <glyph glyph-name="oslash.sc" horiz-adv-x="1093" 
d="M809 1116q-3 -3 2 -8q133 -111 133 -311v-416q0 -182 -109 -287.5t-290 -105.5q-115 0 -203 45q-4 0 -8 -4l-88 -201q-5 -12 -21 -12h-24q-19 0 -13 18l99 227q3 3 -2 9q-135 107 -135 311v416q0 183 107.5 290t287.5 107q123 0 211 -49q4 0 8 4l102 233q5 13 21 13h24
q19 0 13 -19zM211 381q0 -166 96 -256q6 -3 8 2l420 954q1 1 0.5 5t-2.5 4q-80 47 -188 47q-153 0 -243.5 -90.5t-90.5 -247.5v-418zM883 381v418q0 158 -95 250q-5 5 -8 0l-420 -955q-2 -2 0 -5t5 -3q73 -43 180 -43q154 0 246 90t92 248z" />
    <glyph glyph-name="otilde.sc" horiz-adv-x="1093" 
d="M674 1401q-55 0 -121 49q-22 16 -32.5 23.5t-29 14.5t-36.5 7q-35 0 -61 -12.5t-52 -48.5q-11 -18 -25 -7l-14 11q-12 9 -4 22q60 88 154 88q7 0 14.5 -1t13 -2t13 -3t12 -3.5t12 -5.5t11 -5.5t11.5 -6t11 -6.5t11.5 -7.5t10.5 -6.5q65 -45 101 -45q68 0 114 68
q9 15 23 6l12 -6q15 -9 0 -33q-28 -47 -69 -68.5t-80 -21.5zM545 -12q-180 0 -287.5 105.5t-107.5 287.5v416q0 183 107.5 290t287.5 107q181 0 290 -107t109 -290v-416q0 -182 -109 -287.5t-290 -105.5zM545 43q154 0 246 90t92 248v418q0 157 -92 247.5t-246 90.5
q-153 0 -243.5 -90.5t-90.5 -247.5v-418q0 -158 90 -248t244 -90z" />
    <glyph glyph-name="oe.sc" horiz-adv-x="1603" 
d="M1483 1139q0 -17 -17 -17h-581q-6 0 -6 -6v-489q0 -6 6 -6h391q16 0 16 -17v-24q0 -17 -16 -17h-391q-6 0 -6 -6v-494q0 -6 6 -6h581q17 0 17 -16v-25q0 -16 -17 -16h-632q-17 0 -17 16v129q0 10 -8 2q-43 -76 -122.5 -117.5t-182.5 -41.5q-157 0 -255.5 99.5
t-98.5 260.5v481q0 162 98.5 263.5t255.5 101.5q104 0 183 -42.5t122 -119.5q8 -8 8 2v129q0 17 17 17h632q17 0 17 -17v-24zM510 43q137 0 222 83.5t85 219.5v485q0 136 -85 221t-222 85q-133 0 -216 -84.5t-83 -221.5v-485q0 -136 82.5 -219.5t216.5 -83.5z" />
    <glyph glyph-name="p.sc" horiz-adv-x="1032" 
d="M637 1184q144 0 232.5 -87t88.5 -227q0 -141 -88 -226t-233 -85h-389q-6 0 -6 -6v-537q0 -16 -17 -16h-28q-17 0 -17 16v1151q0 17 17 17h440zM639 614q116 0 187 70t71 184q0 117 -71 187.5t-187 70.5h-391q-6 0 -6 -6v-499q0 -7 6 -7h391z" />
    <glyph glyph-name="thorn.sc" horiz-adv-x="980" 
d="M588 901q145 0 232 -86.5t87 -226.5q0 -139 -88 -224t-233 -85h-338q-6 0 -6 -7v-256q0 -16 -17 -16h-28q-17 0 -17 16v1147q0 17 17 17h28q17 0 17 -17v-256q0 -6 6 -6h340zM590 332q116 0 186 70t70 186t-70.5 187t-185.5 71h-342q-6 0 -6 -6v-502q0 -6 6 -6h342z" />
    <glyph glyph-name="q.sc" horiz-adv-x="997" 
d="M500 1194q172 0 275.5 -102.5t103.5 -278.5v-446q0 -166 -92.5 -267.5t-249.5 -113.5q-7 0 -7 -6v-170q0 -17 -16 -17h-29q-16 0 -16 17v170q0 6 -6 6q-158 12 -251 113.5t-93 267.5v446q0 176 104 278.5t277 102.5zM817 365v450q0 149 -86.5 235.5t-230.5 86.5
q-146 0 -233 -86t-87 -236v-450q0 -150 87 -236t233 -86q144 0 230.5 86.5t86.5 235.5z" />
    <glyph glyph-name="r.sc" horiz-adv-x="1069" 
d="M930 0q-13 0 -19 12l-278 551q-4 4 -6 4h-365q-6 0 -6 -6v-545q0 -16 -16 -16h-29q-16 0 -16 16v1151q0 17 16 17h426q144 0 232.5 -86.5t88.5 -225.5q0 -122 -70.5 -203t-191.5 -98q-7 0 -4 -6l277 -547q4 -8 0 -13t-13 -5h-26zM262 1126q-6 0 -6 -6v-491q0 -6 6 -6h377
q115 0 186.5 68.5t71.5 180.5q0 114 -72 184t-186 70h-377z" />
    <glyph glyph-name="racute.sc" horiz-adv-x="1069" 
d="M664 1608q9 0 12 -7t-2 -14l-137 -235q-7 -11 -19 -11h-24q-9 0 -13 6.5t0 14.5l133 233q9 13 19 13h31zM930 0q-13 0 -19 12l-278 551q-4 4 -6 4h-365q-6 0 -6 -6v-545q0 -16 -16 -16h-29q-16 0 -16 16v1151q0 17 16 17h426q144 0 232.5 -86.5t88.5 -225.5
q0 -122 -70.5 -203t-191.5 -98q-7 0 -4 -6l277 -547q4 -8 0 -13t-13 -5h-26zM262 1126q-6 0 -6 -6v-491q0 -6 6 -6h377q115 0 186.5 68.5t71.5 180.5q0 114 -72 184t-186 70h-377z" />
    <glyph glyph-name="rcaron.sc" horiz-adv-x="1069" 
d="M571 1305q-7 -11 -20 -11h-33q-13 0 -20 11l-174 225q-13 20 8 20h26q14 0 21 -10l153 -192q2 -3 5 -3t4 3l149 192q7 10 21 10h28q9 0 12 -5.5t-3 -14.5zM930 0q-13 0 -19 12l-278 551q-4 4 -6 4h-365q-6 0 -6 -6v-545q0 -16 -16 -16h-29q-16 0 -16 16v1151q0 17 16 17
h426q144 0 232.5 -86.5t88.5 -225.5q0 -122 -70.5 -203t-191.5 -98q-7 0 -4 -6l277 -547q4 -8 0 -13t-13 -5h-26zM262 1126q-6 0 -6 -6v-491q0 -6 6 -6h377q115 0 186.5 68.5t71.5 180.5q0 114 -72 184t-186 70h-377z" />
    <glyph glyph-name="uni0157.sc" horiz-adv-x="1069" 
d="M696 571q-7 0 -4 -6l277 -547q4 -8 0 -13t-13 -5h-26q-13 0 -19 12l-278 551q-4 4 -6 4h-365q-6 0 -6 -6v-545q0 -16 -16 -16h-29q-16 0 -16 16v1151q0 17 16 17h426q144 0 232.5 -86.5t88.5 -225.5q0 -122 -70.5 -203t-191.5 -98zM262 1126q-6 0 -6 -6v-491q0 -6 6 -6
h377q115 0 186.5 68.5t71.5 180.5q0 114 -72 184t-186 70h-377zM469 -389q-9 0 -13 6.5t1 13.5l133 234q8 12 18 12h31q9 0 12 -6.5t-2 -13.5l-137 -236q-7 -10 -18 -10h-25z" />
    <glyph glyph-name="s.sc" horiz-adv-x="1024" 
d="M522 -14q-188 0 -295.5 80.5t-107.5 216.5v57q0 16 16 16h25q16 0 16 -16v-49q0 -112 93.5 -180t256.5 -68q156 0 241 63t85 173q0 67 -38 118t-110.5 92.5t-207.5 98.5q-176 73 -233 109q-97 62 -116 153q-6 28 -6 61q0 138 94 210.5t271 72.5q188 0 291.5 -81.5
t103.5 -219.5v-39q0 -16 -16 -16h-29q-16 0 -16 16v33q0 115 -88.5 182.5t-251.5 67.5q-145 0 -221 -57t-76 -167q0 -52 15.5 -88t66 -69.5t88.5 -51.5t139 -59q3 -2 5 -2.5t4.5 -1.5t4.5 -2q203 -80 295 -157t92 -197q0 -136 -102 -217.5t-289 -81.5z" />
    <glyph glyph-name="sacute.sc" horiz-adv-x="1024" 
d="M459 1356q-9 0 -13 6t0 14l134 234q8 12 18 12h31q9 0 12 -6t-2 -14l-137 -236q-7 -10 -19 -10h-24zM522 -14q-188 0 -295.5 80.5t-107.5 216.5v57q0 16 16 16h25q16 0 16 -16v-49q0 -112 93.5 -180t256.5 -68q156 0 241 63t85 173q0 67 -38 118t-110.5 92.5t-207.5 98.5
q-176 73 -233 109q-97 62 -116 153q-6 28 -6 61q0 138 94 210.5t271 72.5q188 0 291.5 -81.5t103.5 -219.5v-39q0 -16 -16 -16h-29q-16 0 -16 16v33q0 115 -88.5 182.5t-251.5 67.5q-145 0 -221 -57t-76 -167q0 -52 15.5 -88t66 -69.5t88.5 -51.5t139 -59q3 -2 5 -2.5
t4.5 -1.5t4.5 -2q203 -80 295 -157t92 -197q0 -136 -102 -217.5t-289 -81.5z" />
    </font>
</defs>
</svg>
