<?xml version="1.0" standalone="no"?>
<!DOCTYPE svg PUBLIC "-//W3C//DTD SVG 1.1//EN" "http://www.w3.org/Graphics/SVG/1.1/DTD/svg11.dtd" >
<svg xmlns="http://www.w3.org/2000/svg" xmlns:xlink="http://www.w3.org/1999/xlink" version="1.1">
<metadata>
Created by FontForge 20170731 at Mon Jan 18 07:24:02 2021
 By Aleksey,,,
Copyright 2017 The Barlow Project Authors (https://github.com/jpt/barlow)
</metadata>
<defs>
<font id="Barlow-SemiBold" horiz-adv-x="0" >
  <font-face 
    font-family="Barlow SemiBold"
    font-weight="600"
    font-stretch="normal"
    units-per-em="2048"
    panose-1="0 0 7 0 0 0 0 0 0 0"
    ascent="1638"
    descent="-410"
    x-height="1047"
    cap-height="1434"
    bbox="-1260 -473 2335 2009"
    underline-thickness="102"
    underline-position="-307"
    unicode-range="U+000D-25CA"
  />
<missing-glyph horiz-adv-x="929" 
d="M0 12q0 -12 12 -12h906q12 0 12 12v1409q0 13 -12 13h-906q-12 0 -12 -13v-1409zM395 500q-33 0 -33 32v46q0 55 26.5 98t64 71t75 54.5t64 62.5t26.5 80q0 57 -39 91t-104 34q-68 0 -108.5 -35.5t-40.5 -93.5v-14q0 -15 -9 -24.5t-24 -8.5l-105 6q-32 3 -32 23v18
q0 128 89 206.5t234 78.5q141 0 226.5 -75.5t85.5 -199.5q0 -57 -19 -103.5t-48 -74.5t-62.5 -54.5t-62.5 -45.5t-48 -46.5t-19 -58.5v-35q0 -32 -32 -32h-105zM455 184q-46 0 -77.5 31.5t-31.5 75.5q0 43 32.5 73.5t78.5 30.5q44 0 77 -30.5t33 -73.5q0 -44 -33 -75.5
t-79 -31.5z" />
    <glyph glyph-name="I_J.liga" unicode="IJ" horiz-adv-x="1738" 
d="M182 0q-32 0 -32 33v1368q0 33 32 33h172q15 0 24 -9t9 -24v-1368q0 -15 -9 -24t-24 -9h-172zM1085 -16q-226 0 -364.5 124t-138.5 328v78q0 33 32 33h172q15 0 24 -9t9 -24v-78q0 -111 73 -179.5t193 -68.5t193.5 68.5t73.5 179.5v965q0 33 32 33h172q15 0 24 -9t9 -24
v-965q0 -204 -139 -328t-365 -124z" />
    <glyph glyph-name="f_f_i.liga" unicode="ffi" horiz-adv-x="1966" 
d="M1706 1171q-68 0 -111 42t-43 108t43 106.5t111 40.5t110 -40.5t42 -106.5t-42.5 -108t-109.5 -42zM1137 1104v-45q0 -12 12 -12h205q32 0 32 -33v-127q0 -33 -32 -33h-205q-12 0 -12 -12v-809q0 -15 -9 -24t-24 -9h-172q-15 0 -24 9t-9 24v809q0 12 -12 12h-426
q-12 0 -12 -12v-809q0 -15 -9 -24t-24 -9h-172q-15 0 -24 9t-9 24v809q0 12 -12 12h-107q-15 0 -24 9t-9 24v127q0 15 9 24t24 9h107q12 0 12 12v65q0 168 86.5 242.5t294.5 67.5h61q15 0 24 -9t9 -24v-98q0 -15 -9 -24t-24 -9h-61q-82 -3 -112.5 -43t-30.5 -123v-45
q0 -12 12 -12h426q12 0 12 12v65q0 168 86.5 242.5t294.5 67.5h61q15 0 24 -9t9 -24v-98q0 -15 -9 -24t-24 -9h-61q-82 -3 -112.5 -43t-30.5 -123zM1620 0q-15 0 -24 9t-9 24v981q0 15 9 24t24 9h172q15 0 24 -9t9 -24v-981q0 -15 -9 -24t-24 -9h-172z" />
    <glyph glyph-name="f_f_l.liga" unicode="ffl" horiz-adv-x="1939" 
d="M1137 1104v-45q0 -12 12 -12h205q32 0 32 -33v-127q0 -33 -32 -33h-205q-12 0 -12 -12v-809q0 -15 -9 -24t-24 -9h-172q-15 0 -24 9t-9 24v809q0 12 -12 12h-426q-12 0 -12 -12v-809q0 -15 -9 -24t-24 -9h-172q-15 0 -24 9t-9 24v809q0 12 -12 12h-107q-15 0 -24 9t-9 24
v127q0 15 9 24t24 9h107q12 0 12 12v65q0 168 86.5 242.5t294.5 67.5h61q15 0 24 -9t9 -24v-98q0 -15 -9 -24t-24 -9h-61q-82 -3 -112.5 -43t-30.5 -123v-45q0 -12 12 -12h426q12 0 12 12v65q0 168 86.5 242.5t294.5 67.5h61q15 0 24 -9t9 -24v-98q0 -15 -9 -24t-24 -9h-61
q-82 -3 -112.5 -43t-30.5 -123zM1571 1401q0 15 9 24t24 9h172q32 0 32 -33v-1368q0 -33 -32 -33h-172q-15 0 -24 9t-9 24v1368z" />
    <glyph glyph-name="f_i.liga" unicode="fi" horiz-adv-x="1292" 
d="M1032 1178q-68 0 -110.5 41.5t-42.5 107.5q0 65 43 106.5t110 41.5t109.5 -41.5t42.5 -106.5q0 -66 -42.5 -107.5t-109.5 -41.5zM664 1049q32 0 32 -33v-146q0 -32 -32 -32h-193q-12 0 -12 -13v-792q0 -15 -9 -24t-24 -9h-172q-15 0 -24 9t-9 24v792q0 13 -12 13h-117
q-33 0 -33 32v146q0 15 9 24t24 9h117q12 0 12 12v35q0 195 80.5 267.5t294.5 70.5h63q15 0 24 -9t9 -24v-127q0 -15 -9 -24t-24 -9h-45q-89 0 -122 -34.5t-33 -127.5v-18q0 -12 12 -12h193zM946 0q-15 0 -24 9t-9 24v981q0 15 9 24t24 9h172q15 0 24 -9t9 -24v-981
q0 -15 -9 -24t-24 -9h-172z" />
    <glyph glyph-name="f_l.liga" unicode="fl" horiz-adv-x="1267" 
d="M664 1049q32 0 32 -33v-146q0 -32 -32 -32h-193q-12 0 -12 -13v-792q0 -15 -9 -24t-24 -9h-172q-15 0 -24 9t-9 24v792q0 13 -12 13h-117q-33 0 -33 32v146q0 15 9 24t24 9h117q12 0 12 12v35q0 195 80.5 267.5t294.5 70.5h63q15 0 24 -9t9 -24v-127q0 -15 -9 -24t-24 -9
h-45q-89 0 -122 -34.5t-33 -127.5v-18q0 -12 12 -12h193zM932 0q-15 0 -24 9t-9 24v1368q0 15 9 24t24 9h172q15 0 24 -9t9 -24v-1368q0 -15 -9 -24t-24 -9h-172z" />
    <glyph glyph-name="g_j.liga" unicode="gj" horiz-adv-x="1615" 
d="M1370 1174q-68 0 -110.5 42t-42.5 107q0 61 45.5 103t107.5 42t108 -42t46 -103q0 -65 -43.5 -107t-110.5 -42zM754 971q6 -6 10 -4t4 10v37q0 15 9 24t24 9h172q15 0 24 -9t9 -24v-944q0 -87 -19 -159t-53 -122.5t-81 -89t-104 -59.5t-121.5 -34t-133 -12.5t-138.5 5.5
q-28 3 -28 36l6 152q0 32 37 29q205 -18 301 40t96 220v12q0 8 -4 10t-10 -4q-85 -88 -236 -88q-133 0 -243.5 68t-153.5 207q-27 100 -27 247q0 170 33 260q41 124 141.5 199.5t235.5 75.5q158 0 250 -92zM1251 -35v1049q0 15 9 24t24 9h172q15 0 24 -9t9 -24v-1047
q0 -209 -104.5 -299t-333.5 -88q-33 0 -33 33l2 133q0 33 33 33q92 3 145 49.5t53 136.5zM754 348q14 55 14 182q0 124 -16 179q-16 67 -67 108t-128 41q-74 0 -125 -41t-74 -108q-24 -59 -24 -181q0 -126 20 -178q21 -66 75 -107.5t130 -41.5q79 0 129 41t66 106z" />
    <glyph glyph-name="i_j.liga" unicode="ij" horiz-adv-x="1001" 
d="M262 1178q-68 0 -110.5 41.5t-42.5 107.5q0 65 43 106.5t110 41.5t109.5 -41.5t42.5 -106.5q0 -66 -42.5 -107.5t-109.5 -41.5zM756 1171q-67 0 -109.5 43t-42.5 107q0 62 45.5 104.5t106.5 42.5q64 0 109.5 -42.5t45.5 -104.5q0 -64 -43.5 -107t-111.5 -43zM176 0
q-15 0 -24 9t-9 24v981q0 15 9 24t24 9h172q15 0 24 -9t9 -24v-981q0 -15 -9 -24t-24 -9h-172zM428 -420q-15 0 -24 9t-9 24v135q0 34 35 31q111 0 159 44t48 142v1049q0 15 9 24t24 9h172q32 0 32 -33v-1047q0 -147 -41.5 -230t-138 -121t-266.5 -36z" />
    <glyph glyph-name="hyphen_hyphen.liga" unicode="&#x2d;&#x2d;" horiz-adv-x="1368" 
d="M98 506q-32 0 -32 33v137q0 33 32 33h1172q15 0 24 -9t9 -24v-137q0 -15 -9 -24t-24 -9h-1172z" />
    <glyph glyph-name=".notdef" horiz-adv-x="929" 
d="M0 12q0 -12 12 -12h906q12 0 12 12v1409q0 13 -12 13h-906q-12 0 -12 -13v-1409zM395 500q-33 0 -33 32v46q0 55 26.5 98t64 71t75 54.5t64 62.5t26.5 80q0 57 -39 91t-104 34q-68 0 -108.5 -35.5t-40.5 -93.5v-14q0 -15 -9 -24.5t-24 -8.5l-105 6q-32 3 -32 23v18
q0 128 89 206.5t234 78.5q141 0 226.5 -75.5t85.5 -199.5q0 -57 -19 -103.5t-48 -74.5t-62.5 -54.5t-62.5 -45.5t-48 -46.5t-19 -58.5v-35q0 -32 -32 -32h-105zM455 184q-46 0 -77.5 31.5t-31.5 75.5q0 43 32.5 73.5t78.5 30.5q44 0 77 -30.5t33 -73.5q0 -44 -33 -75.5
t-79 -31.5z" />
    <glyph glyph-name=".null" 
 />
    <glyph glyph-name="nonmarkingreturn" horiz-adv-x="682" 
 />
    <glyph glyph-name="CR" unicode="&#xd;" horiz-adv-x="409" 
 />
    <glyph glyph-name="space" unicode=" " horiz-adv-x="409" 
 />
    <glyph glyph-name="exclam" unicode="!" horiz-adv-x="692" 
d="M283 483q-33 0 -33 33l-23 885q0 33 33 33h172q33 0 33 -33l-23 -885q0 -33 -32 -33h-127zM340 4q-70 0 -117 46.5t-47 111.5t50 111t114 46q66 0 117 -46t51 -111t-48.5 -111.5t-119.5 -46.5z" />
    <glyph glyph-name="quotedbl" unicode="&#x22;" horiz-adv-x="665" 
d="M98 977q-32 0 -35 33l-20 385q-1 15 7.5 23.5t23.5 8.5h164q33 0 30 -32l-20 -385q-3 -33 -35 -33h-115zM457 977q-32 0 -35 33l-21 385q-1 15 7.5 23.5t23.5 8.5h164q15 0 23.5 -8.5t7.5 -23.5l-21 -385q-3 -33 -35 -33h-114z" />
    <glyph glyph-name="numbersign" unicode="#" horiz-adv-x="1386" 
d="M1270 879q0 -33 -33 -33h-141q-12 0 -15 -10l-39 -244q-1 -6 2.5 -9t10.5 -3h108q15 0 24 -9t9 -24v-137q0 -15 -9 -24t-24 -9h-141q-11 0 -14 -10l-45 -289q-2 -14 -11 -22.5t-24 -8.5l-172 2q-17 0 -24.5 10t-4.5 25l43 281q3 12 -12 12h-240q-11 0 -14 -10l-45 -289
q-2 -14 -11 -22.5t-24 -8.5l-172 2q-17 0 -24.5 10t-4.5 25l43 281q3 12 -12 12h-107q-32 0 -32 33v137q0 33 32 33h140q10 0 14 12l37 242q3 12 -12 12h-103q-15 0 -24 9t-9 24v139q0 15 9 24t24 9h137q12 0 15 10l45 289q3 30 35 30l172 -2q17 0 24 -9.5t4 -25.5l-43 -280
q-1 -6 2.5 -9t10.5 -3h239q12 0 15 10l45 289q3 30 34 30l172 -2q17 0 24.5 -10t4.5 -25l-43 -280q-3 -12 12 -12h111q33 0 33 -33zM791 580q10 0 14 12l37 242q1 6 -2.5 9t-10.5 3h-237q-11 0 -14 -10l-39 -244q-3 -12 12 -12h240z" />
    <glyph glyph-name="dollar" unicode="$" horiz-adv-x="1124" 
d="M1036 391q0 -167 -101.5 -275t-287.5 -126q-12 -3 -12 -15l2 -100q0 -33 -33 -33h-94q-33 0 -33 33l2 100q0 12 -12 15q-172 20 -270.5 118t-98.5 246v84q0 15 9 24t24 9h168q33 0 33 -31v-32q0 -95 64 -157.5t179 -62.5q110 0 167 54.5t57 136.5q0 43 -24.5 78t-73 63
t-99.5 51.5t-124.5 57.5t-127.5 67q-82 47 -133 92t-83 113t-32 156q0 160 95 262t266 125q12 3 12 14l-2 115q0 33 33 33h90q33 0 33 -33l-2 -113q0 -11 12 -14q184 -17 285.5 -119t101.5 -262v-64q0 -32 -33 -32h-168q-32 0 -32 24v23q0 100 -61.5 164.5t-178.5 64.5
q-101 0 -158 -47.5t-57 -132.5q0 -35 15 -63.5t36 -47.5t61 -40t74 -34.5t91.5 -36t97.5 -40.5q166 -75 244.5 -174.5t78.5 -237.5z" />
    <glyph glyph-name="percent" unicode="%" horiz-adv-x="1705" 
d="M465 827q-132 0 -223.5 91.5t-91.5 222.5q0 129 91.5 220t223.5 91q129 0 221 -91t92 -220q0 -131 -91.5 -222.5t-221.5 -91.5zM410 0q-19 0 -25.5 11t2.5 28l764 1372q11 23 39 23h100q19 0 25.5 -11t-2.5 -28l-762 -1372q-13 -23 -39 -23h-102zM465 954q75 0 128.5 55
t53.5 132q0 76 -53.5 130t-128.5 54q-77 0 -130.5 -53.5t-53.5 -130.5q0 -78 53.5 -132.5t130.5 -54.5zM1253 -18q-131 0 -223 91.5t-92 221.5q0 129 92 220t223 91q129 0 221.5 -91t92.5 -220q0 -130 -91.5 -221.5t-222.5 -91.5zM1253 109q76 0 129.5 54.5t53.5 131.5
q0 76 -54 130t-129 54q-77 0 -130.5 -53.5t-53.5 -130.5q0 -78 53.5 -132t130.5 -54z" />
    <glyph glyph-name="ampersand" unicode="&#x26;" horiz-adv-x="1411" 
d="M1286 39q13 -15 7.5 -27t-25.5 -12h-191q-26 0 -41 18q-84 95 -86 97q-8 8 -18 2q-186 -133 -412 -133q-90 0 -166.5 21t-135.5 62.5t-92.5 110t-33.5 156.5q0 73 22 136t64.5 113.5t87.5 87.5t107 77q9 6 2 16q-108 127 -143 193.5t-35 134.5q0 161 107 259.5t284 98.5
q180 0 293.5 -97.5t113.5 -254.5q0 -67 -22 -124.5t-64 -104.5t-86 -81t-106 -73q-11 -6 -4 -17q36 -43 121.5 -138t113.5 -126q3 -4 8.5 -4t8.5 4q53 57 120 156q18 27 45 10l127 -72q30 -17 11 -45q-77 -115 -164 -215q-9 -9 6 -24q41 -48 99 -115.5t77 -89.5zM594 1233
q-72 0 -116 -38.5t-44 -102.5q0 -34 24.5 -77t102.5 -138q11 -11 19 -5q87 57 132.5 108.5t45.5 113.5q0 64 -45.5 101.5t-118.5 37.5zM561 186q111 12 227 90q9 9 3 19q-28 31 -52.5 58.5t-39 44t-37.5 40.5q-12 14 -61.5 69t-72.5 81q-8 8 -18 2q-172 -111 -180 -236
q-5 -86 58.5 -132t172.5 -36z" />
    <glyph glyph-name="quotesingle" unicode="'" horiz-adv-x="317" 
d="M98 983q-32 0 -35 33l-20 383q-1 15 7.5 24t23.5 9h174q15 0 24.5 -9t8.5 -24l-23 -383q-3 -33 -35 -33h-125z" />
    <glyph glyph-name="parenleft" unicode="(" horiz-adv-x="647" 
d="M281 -197q-24 0 -39 21q-112 155 -179 372.5t-67 479.5q0 264 68 485t180 375q14 20 39 20h163q19 0 25.5 -10.5t-2.5 -27.5q-91 -161 -149 -377t-58 -465q0 -246 58 -459.5t149 -374.5q9 -17 2.5 -28t-25.5 -11h-165z" />
    <glyph glyph-name="parenright" unicode=")" horiz-adv-x="647" 
d="M406 -176q-15 -21 -39 -21h-166q-19 0 -25.5 11t2.5 28q91 161 149 374.5t58 459.5q0 249 -58 465t-149 377q-9 17 -2.5 27.5t25.5 10.5h164q24 0 38 -20q112 -154 180 -375t68 -485q0 -262 -67 -479.5t-178 -372.5z" />
    <glyph glyph-name="asterisk" unicode="*" horiz-adv-x="815" 
d="M371 805q-15 0 -24 9t-9 24v194q0 6 -4 9t-10 -1l-181 -104q-31 -17 -45 12l-37 70q-16 29 13 45l180 98q15 9 0 17l-180 94q-28 15 -13 45l37 69q15 30 45 13l181 -103q6 -4 10 -1t4 10v192q0 15 9 24t24 9h73q15 0 24 -9t9 -24v-192q0 -6 4.5 -9.5t10.5 0.5l180 103
q30 17 45 -13l37 -69q14 -28 -13 -43l-182 -96q-15 -8 0 -17l182 -98q29 -16 13 -45l-37 -70q-14 -29 -45 -12l-180 104q-6 4 -10.5 1t-4.5 -9v-194q0 -15 -9 -24t-24 -9h-73z" />
    <glyph glyph-name="plus" unicode="+" horiz-adv-x="1005" 
d="M905 727q15 0 24 -9t9 -24v-139q0 -15 -9 -24t-24 -9h-289q-12 0 -12 -12v-285q0 -32 -33 -32h-137q-33 0 -33 32v285q0 12 -12 12h-291q-32 0 -32 33v139q0 33 32 33h291q12 0 12 12v293q0 15 9 24t24 9h137q15 0 24 -9t9 -24v-293q0 -12 12 -12h289z" />
    <glyph glyph-name="comma" unicode="," horiz-adv-x="542" 
d="M133 -186q-17 0 -24.5 9.5t-4.5 24.5l74 443q7 31 35 31h147q17 0 24.5 -10t2.5 -27l-117 -443q-6 -28 -37 -28h-100z" />
    <glyph glyph-name="hyphen" unicode="-" horiz-adv-x="827" 
d="M98 514q-32 0 -32 33v139q0 33 32 33h629q15 0 24 -9t9 -24v-139q0 -15 -9 -24t-24 -9h-629z" />
    <glyph glyph-name="period" unicode="." horiz-adv-x="552" 
d="M272 -2q-71 0 -117 45.5t-46 112.5q0 63 49.5 109t113.5 46q66 0 117 -46t51 -109q0 -66 -48 -112t-120 -46z" />
    <glyph glyph-name="slash" unicode="/" horiz-adv-x="845" 
d="M86 0q-39 0 -27 37l494 1370q10 27 39 27h168q38 0 26 -37l-493 -1370q-10 -27 -39 -27h-168z" />
    <glyph glyph-name="zero" unicode="0" horiz-adv-x="1163" 
d="M580 -23q-215 0 -341 122t-126 329v578q0 204 126 324t341 120q216 0 343.5 -120t127.5 -324v-578q0 -207 -128 -329t-343 -122zM580 184q106 0 169.5 63t63.5 169v598q0 106 -63.5 168.5t-169.5 62.5q-104 0 -167 -62.5t-63 -168.5v-598q0 -106 63 -169t167 -63z" />
    <glyph glyph-name="one" unicode="1" horiz-adv-x="698" 
d="M301 1425q18 9 39 9h184q15 0 24 -9t9 -24v-1368q0 -15 -9 -24t-24 -9h-172q-15 0 -24 9t-9 24v1161q0 14 -14 10l-190 -53q-17 -4 -27 4t-10 25v118q0 25 24 37z" />
    <glyph glyph-name="two" unicode="2" horiz-adv-x="1128" 
d="M135 0q-15 0 -24 9t-9 24v135q0 22 17 39q73 79 148.5 164.5t170 196t133.5 155.5q189 219 189 332q0 85 -59 137.5t-154 52.5t-153 -53t-58 -141v-45q0 -15 -9 -24t-24 -9h-174q-15 0 -24 9t-9 24v79q7 165 133.5 265t317.5 100q206 0 329 -111t123 -280t-178 -387
q-28 -35 -61 -74.5t-58.5 -69.5t-68 -78.5t-63.5 -72t-73 -81.5t-69 -77q-6 -6 -4 -10t10 -4h565q15 0 24 -9t9 -24v-139q0 -15 -9 -24t-24 -9h-864z" />
    <glyph glyph-name="three" unicode="3" horiz-adv-x="1087" 
d="M944 682q41 -96 41 -225q0 -94 -37 -203q-46 -128 -155 -199t-263 -71q-152 0 -263.5 76.5t-157.5 207.5q-22 71 -29 158q0 15 9 24t24 9h174q32 0 35 -33q3 -53 16 -96q21 -66 70.5 -104t121.5 -38q137 0 185 123q30 64 30 152q0 105 -34 174q-50 115 -183 115
q-33 0 -82 -27q-28 -15 -45 8l-86 109q-18 25 4 47l330 325q6 6 4 10.5t-10 4.5h-508q-15 0 -24 9t-9 24v139q0 15 9 24t24 9h801q15 0 24 -9t9 -24v-154q0 -21 -17 -41l-293 -297q-5 -4 -1.5 -9.5t12.5 -6.5q195 -28 274 -211z" />
    <glyph glyph-name="four" unicode="4" horiz-adv-x="1200" 
d="M1061 590q15 0 24 -9t9 -24v-147q0 -15 -9 -24t-24 -9h-74q-12 0 -12 -12v-332q0 -15 -9 -24t-24 -9h-172q-15 0 -24 9t-9 24v332q0 12 -12 12h-614q-15 0 -24 9t-9 24v118q0 23 8 39l385 842q11 25 37 25h182q19 0 25.5 -10t-0.5 -29l-359 -791q-6 -14 11 -14h358
q12 0 12 12v268q0 15 9 24t24 9h172q15 0 24 -9t9 -24v-268q0 -12 12 -12h74z" />
    <glyph glyph-name="five" unicode="5" horiz-adv-x="1085" 
d="M979 643q27 -97 27 -190q0 -95 -27 -183q-43 -130 -157.5 -207t-268.5 -77q-152 0 -264.5 74.5t-157.5 201.5q-19 50 -25 94q-3 17 6 26t25 9h178q24 0 33 -22q4 -12 4 -15q5 -10 8 -22q21 -66 71 -104t122 -38q71 0 122 40.5t70 107.5q19 55 19 111q0 63 -16 120
q-13 67 -65.5 103.5t-129.5 36.5q-64 0 -115 -25.5t-76 -75.5q-12 -24 -36 -24h-187q-33 0 -33 32v785q0 15 9 24t24 9h781q32 0 32 -33v-139q0 -33 -32 -33h-564q-4 0 -8 -3.5t-4 -8.5l-2 -365q0 -16 14 -6q97 69 230 69q144 0 249.5 -72t143.5 -200z" />
    <glyph glyph-name="six" unicode="6" horiz-adv-x="1083" 
d="M948 707q56 -106 56 -254q0 -127 -41 -220q-50 -118 -155 -182.5t-253 -64.5q-153 0 -262.5 70.5t-155.5 197.5q-33 85 -33 201v624q0 168 121.5 269.5t317.5 101.5q191 0 309.5 -99.5t118.5 -260.5v-37q0 -15 -9 -24t-24 -9h-172q-33 0 -33 20v19q0 82 -53.5 134
t-138.5 52q-87 0 -143 -53.5t-56 -140.5v-222q0 -17 14 -6q89 82 236 82q121 0 212 -51t144 -147zM735 303q31 64 31 146q0 92 -35 157q-58 99 -178 99q-127 0 -180 -103q-31 -61 -31 -160q0 -82 27 -137q50 -112 184 -112q129 0 182 110z" />
    <glyph glyph-name="seven" unicode="7" horiz-adv-x="999" 
d="M287 0q-39 0 -27 37l447 1177q4 15 -9 15h-436q-12 0 -12 -12v-82q0 -15 -9 -24t-24 -9h-131q-15 0 -24 9t-9 24v266q0 15 9 24t24 9h846q15 0 24 -9t9 -24v-152q0 -7 -9 -39l-446 -1183q-10 -27 -39 -27h-184z" />
    <glyph glyph-name="eight" unicode="8" horiz-adv-x="1091" 
d="M952 621q43 -85 43 -209q0 -131 -51 -222q-52 -97 -156 -151.5t-245 -54.5q-137 0 -241 55t-159 160q-53 95 -53 215q0 115 47 211q37 76 113 129q4 3 4 8t-4 8q-61 43 -100 104q-54 87 -54 191q0 125 64 217q57 84 157.5 130t227.5 46q142 0 244.5 -53t156.5 -156
q47 -85 47 -186t-51 -180q-42 -64 -106 -113q-14 -7 0 -14q76 -48 116 -135zM358 1155q-26 -48 -26 -115q0 -68 33 -122q58 -89 180 -89q124 0 184 95q31 51 31 118q0 61 -25 109q-58 104 -190 104q-65 0 -113.5 -26.5t-73.5 -73.5zM715 268q43 61 43 168q0 60 -23 117
q-49 119 -190 119q-130 0 -187 -117q-24 -55 -24 -123q0 -97 37 -158q55 -90 174 -90q115 0 170 84z" />
    <glyph glyph-name="nine" unicode="9" horiz-adv-x="1079" 
d="M942 1180q33 -85 33 -201v-625q0 -168 -121 -269t-317 -101q-191 0 -309.5 99.5t-118.5 260.5v37q0 33 32 33h172q33 0 33 -19v-20q0 -82 54 -134.5t139 -52.5q87 0 142.5 54t55.5 141v221q0 16 -14 6q-89 -82 -236 -82q-121 0 -212 51.5t-144 147.5q-55 104 -55 254
q0 126 41 219q50 118 154.5 183t252.5 65q153 0 262.5 -70.5t155.5 -197.5zM707 831q30 59 30 160q0 84 -26 137q-50 113 -185 113q-128 0 -182 -111q-31 -64 -31 -145q0 -93 35 -158q58 -98 178 -98q128 0 181 102z" />
    <glyph glyph-name="colon" unicode=":" horiz-adv-x="727" 
d="M365 694q-71 0 -118.5 46.5t-47.5 111.5t51 111.5t115 46.5q66 0 116.5 -46.5t50.5 -111.5t-48.5 -111.5t-118.5 -46.5zM365 18q-71 0 -118.5 45.5t-47.5 112.5q0 63 51 109.5t115 46.5q66 0 116.5 -46t50.5 -110q0 -66 -48.5 -112t-118.5 -46z" />
    <glyph glyph-name="semicolon" unicode=";" horiz-adv-x="643" 
d="M326 666q-71 0 -118.5 46t-47.5 113q0 64 50.5 110t115.5 46t115.5 -46t50.5 -110q0 -66 -48 -112.5t-118 -46.5zM205 -182q-15 0 -24 10t-7 25l47 432q3 30 35 30h150q34 0 28 -36l-98 -433q-6 -28 -35 -28h-96z" />
    <glyph glyph-name="less" unicode="&#x3c;" horiz-adv-x="1005" 
d="M940 104q0 -19 -11 -26t-28 0l-809 366q-24 12 -24 37v154q0 25 24 37l809 366q17 7 28 0t11 -26v-160q0 -24 -25 -37l-587 -248q-8 -3 -8 -8t8 -8l587 -250q25 -13 25 -37v-160z" />
    <glyph glyph-name="equal" unicode="=" horiz-adv-x="1005" 
d="M98 723q-32 0 -32 33v139q0 33 32 33h807q15 0 24 -9t9 -24v-139q0 -15 -9 -24t-24 -9h-807zM98 317q-32 0 -32 33v139q0 33 32 33h807q15 0 24 -9t9 -24v-139q0 -15 -9 -24t-24 -9h-807z" />
    <glyph glyph-name="greater" unicode="&#x3e;" horiz-adv-x="1005" 
d="M104 78q-17 -7 -27.5 0t-10.5 26v160q0 25 24 37l588 250q8 3 8 8t-8 8l-588 248q-24 12 -24 37v160q0 19 10.5 26t27.5 0l809 -366q25 -12 25 -37v-154q0 -25 -25 -37z" />
    <glyph glyph-name="question" unicode="?" horiz-adv-x="1024" 
d="M389 438q-15 0 -24 9t-9 24v76q0 57 19.5 104.5t51 80.5t69.5 63t76.5 57.5t70 56.5t51 68t19.5 84q0 79 -55 127.5t-146 48.5q-94 0 -151.5 -51t-57.5 -131v-35q0 -15 -9 -23.5t-24 -7.5l-172 8q-15 1 -23.5 10t-8.5 21v27q0 178 125.5 288.5t326.5 110.5
q198 0 317 -105.5t119 -279.5q0 -69 -20 -127t-51.5 -96.5t-70 -71t-77 -59.5t-70 -53t-51.5 -59t-20 -71v-61q0 -15 -9 -24t-24 -9h-172zM485 -2q-64 0 -108.5 42.5t-44.5 104.5t45.5 105t109.5 43q62 0 109 -43.5t47 -104.5t-47 -104t-111 -43z" />
    <glyph glyph-name="at" unicode="@" horiz-adv-x="1683" 
d="M932 1317q212 0 368.5 -91t230 -257t46.5 -379q-25 -197 -121.5 -305.5t-251.5 -108.5q-146 0 -215 88q-10 10 -16 0q-80 -86 -209 -86q-113 0 -185.5 56t-86.5 145q-11 67 6 176q12 101 39 172q34 98 112.5 151.5t173.5 53.5q105 0 158 -62q3 -3 6.5 -3.5t6 1.5t3.5 6
l2 19q3 31 35 31h94q15 0 24 -10t7 -25l-51 -387q-11 -74 19.5 -125t93.5 -51q73 0 121 66.5t65 189.5q37 275 -98 430t-387 155q-125 0 -238.5 -42.5t-203 -120.5t-147.5 -198.5t-69 -266.5q-22 -257 112 -415.5t376 -158.5q94 0 181.5 21.5t141.5 54.5q28 17 45 -6l47 -58
q21 -28 -4 -47q-75 -54 -192.5 -86t-241.5 -32q-147 0 -270 54t-207 150t-124.5 236.5t-25.5 306.5q12 137 62 257.5t129 211.5t180 156.5t218 99t241 33.5zM776 317q50 0 87 29.5t57 75.5q19 43 30 135q8 79 4 133q-3 45 -35 74t-83 29q-50 0 -89 -29t-61 -74
q-17 -42 -31 -141q-13 -91 -4 -127q5 -47 39 -76t86 -29z" />
    <glyph glyph-name="A" unicode="A" horiz-adv-x="1327" 
d="M1047 0q-28 0 -37 27l-64 211q-2 10 -14 10h-537q-11 0 -14 -10l-64 -211q-9 -27 -36 -27h-187q-36 0 -26 37l438 1370q9 27 37 27h239q28 0 37 -27l441 -1370q5 -17 -2.5 -27t-24.5 -10h-186zM444 449q-3 -15 11 -15h417q14 0 11 15l-211 696q-3 7 -8.5 7t-8.5 -7z" />
    <glyph glyph-name="B" unicode="B" horiz-adv-x="1273" 
d="M954 750q-8 -3 -8 -8.5t8 -8.5q205 -99 205 -336q0 -130 -62.5 -221t-166.5 -133.5t-240 -42.5h-508q-32 0 -32 33v1368q0 33 32 33h492q223 0 344 -96t121 -291q0 -211 -185 -297zM399 1229q-12 0 -12 -12v-375q0 -13 12 -13h275q109 0 171 52.5t62 144.5
q0 94 -62.5 148.5t-170.5 54.5h-275zM690 207q107 0 169.5 57.5t62.5 155.5q0 99 -63.5 156t-172.5 57h-287q-12 0 -12 -12v-402q0 -12 12 -12h291z" />
    <glyph glyph-name="C" unicode="C" horiz-adv-x="1245" 
d="M629 -16q-232 0 -373 132t-141 349v506q0 217 141 348t373 131q230 0 371 -127t141 -334q0 -21 -31 -24l-174 -11q-14 -1 -23.5 2.5t-9.5 8.5v12q0 122 -75 195t-199 73q-125 0 -201 -73.5t-76 -194.5v-522q0 -120 76.5 -193.5t200.5 -73.5t199 73.5t75 193.5q0 11 9 17
t24 5l172 -8q33 -3 33 -10v-10q0 -210 -140.5 -337.5t-371.5 -127.5z" />
    <glyph glyph-name="D" unicode="D" horiz-adv-x="1265" 
d="M182 0q-32 0 -32 33v1368q0 33 32 33h492q222 0 354.5 -114t132.5 -306v-594q0 -192 -132.5 -306t-354.5 -114h-492zM387 217q0 -12 12 -12h285q108 0 173.5 68.5t66.5 183.5v518q0 117 -65.5 185.5t-176.5 68.5h-283q-12 0 -12 -12v-1000z" />
    <glyph glyph-name="E" unicode="E" horiz-adv-x="1212" 
d="M1120 1262q0 -15 -9 -24t-24 -9h-688q-12 0 -12 -12v-379q0 -13 12 -13h459q33 0 33 -32v-140q0 -32 -33 -32h-459q-12 0 -12 -13v-391q0 -12 12 -12h688q15 0 24 -9t9 -24v-139q0 -15 -9 -24t-24 -9h-905q-32 0 -32 33v1368q0 33 32 33h905q15 0 24 -9t9 -24v-139z" />
    <glyph glyph-name="F" unicode="F" horiz-adv-x="1153" 
d="M1118 1262q0 -15 -9 -24t-24 -9h-686q-12 0 -12 -12v-379q0 -13 12 -13h459q33 0 33 -32v-140q0 -32 -33 -32h-459q-12 0 -12 -13v-575q0 -15 -9 -24t-24 -9h-172q-32 0 -32 33v1368q0 33 32 33h903q15 0 24 -9t9 -24v-139z" />
    <glyph glyph-name="G" unicode="G" horiz-adv-x="1241" 
d="M629 -16q-232 0 -373 133.5t-141 351.5v496q0 219 141 352t373 133q227 0 368.5 -128.5t141.5 -324.5v-8q0 -15 -9 -24t-24 -9h-170q-15 0 -24 5.5t-9 13.5v16q0 111 -75 182.5t-199 71.5q-125 0 -201 -74.5t-76 -197.5v-512q0 -122 80 -197.5t207 -75.5q122 0 193 64.5
t71 177.5v125q0 12 -12 12h-242q-15 0 -24 9t-9 24v135q0 15 9 24t24 9h457q15 0 24 -9t9 -24v-254q0 -236 -138 -366.5t-372 -130.5z" />
    <glyph glyph-name="H" unicode="H" horiz-adv-x="1304" 
d="M930 1401q0 15 9 24t24 9h172q32 0 32 -33v-1368q0 -33 -32 -33h-172q-15 0 -24 9t-9 24v575q0 13 -12 13h-519q-12 0 -12 -13v-575q0 -15 -9 -24t-24 -9h-172q-32 0 -32 33v1368q0 33 32 33h172q15 0 24 -9t9 -24v-563q0 -13 12 -13h519q12 0 12 13v563z" />
    <glyph glyph-name="I" unicode="I" horiz-adv-x="536" 
d="M182 0q-32 0 -32 33v1368q0 33 32 33h172q15 0 24 -9t9 -24v-1368q0 -15 -9 -24t-24 -9h-172z" />
    <glyph glyph-name="J" unicode="J" horiz-adv-x="1202" 
d="M549 -16q-226 0 -365 124t-139 328v78q0 15 9 24t24 9h172q15 0 24 -9t9 -24v-78q0 -111 73 -179.5t193 -68.5t193 68.5t73 179.5v965q0 15 9 24t24 9h172q15 0 24 -9t9 -24v-965q0 -204 -139 -328t-365 -124z" />
    <glyph glyph-name="K" unicode="K" horiz-adv-x="1269" 
d="M182 0q-32 0 -32 33v1368q0 33 32 33h172q15 0 24 -9t9 -24v-602q0 -7 4.5 -8.5t9.5 4.5l527 620q16 19 41 19h194q20 0 25.5 -13t-6.5 -28l-461 -564q-6 -6 0 -16l496 -774q10 -17 3.5 -28t-26.5 -11h-197q-26 0 -39 23l-399 622q-8 16 -18 2l-148 -174q-6 -9 -6 -14
v-426q0 -15 -9 -24t-24 -9h-172z" />
    <glyph glyph-name="L" unicode="L" horiz-adv-x="1169" 
d="M182 0q-32 0 -32 33v1368q0 33 32 33h172q15 0 24 -9t9 -24v-1184q0 -12 12 -12h676q15 0 24 -9t9 -24v-139q0 -15 -9 -24t-24 -9h-893z" />
    <glyph glyph-name="M" unicode="M" horiz-adv-x="1452" 
d="M182 0q-32 0 -32 33v1368q0 33 32 33h174q28 0 41 -23l320 -516q3 -6 8 -6t8 6l324 516q13 23 41 23h172q15 0 24 -9t9 -24v-1368q0 -15 -9 -24t-24 -9h-172q-15 0 -24 9t-9 24v968q0 9 -4.5 10.5t-9.5 -5.5l-244 -400q-13 -22 -41 -22h-80q-28 0 -41 22l-244 400
q-3 5 -6.5 6t-5.5 -2t-2 -9v-968q0 -15 -9 -24t-24 -9h-172z" />
    <glyph glyph-name="N" unicode="N" horiz-adv-x="1359" 
d="M182 0q-32 0 -32 33v1368q0 33 32 33h164q28 0 41 -23l574 -938q5 -8 9.5 -6.5t4.5 10.5v924q0 15 9 24t24 9h172q32 0 32 -33v-1368q0 -33 -32 -33h-168q-28 0 -41 23l-574 944q-5 8 -9.5 6.5t-4.5 -10.5l2 -930q0 -33 -33 -33h-170z" />
    <glyph glyph-name="O" unicode="O" horiz-adv-x="1271" 
d="M635 -20q-234 0 -377 138t-143 365v467q0 224 143.5 362t376.5 138q235 0 378.5 -138t143.5 -362v-467q0 -227 -143.5 -365t-378.5 -138zM635 184q129 0 207 79.5t78 211.5v477q0 132 -78 212.5t-207 80.5q-127 0 -205 -80.5t-78 -212.5v-477q0 -132 77.5 -211.5
t205.5 -79.5z" />
    <glyph glyph-name="P" unicode="P" horiz-adv-x="1218" 
d="M725 1436q195 0 314.5 -118t119.5 -310q0 -190 -122.5 -306t-323.5 -116h-326q-12 0 -12 -13v-540q0 -15 -9 -24t-24 -9h-172q-15 0 -24 9t-9 24v1370q0 15 9 24t24 9h555zM690 778q104 0 168 61.5t64 161.5q0 103 -64 166.5t-168 63.5h-303q-12 0 -12 -12v-428
q0 -13 12 -13h303z" />
    <glyph glyph-name="Q" unicode="Q" horiz-adv-x="1202" 
d="M600 1450q227 0 366.5 -136.5t139.5 -359.5v-491q0 -180 -101 -305t-274 -162q-10 -3 -10 -12v-164q0 -15 -9 -24t-24 -9h-172q-15 0 -24 9t-9 24v164q0 9 -10 12q-173 36 -275 160.5t-102 306.5v491q0 223 139 359.5t365 136.5zM868 467v500q0 125 -73.5 201.5
t-194.5 76.5q-119 0 -192.5 -77t-73.5 -201v-500q0 -124 73.5 -201.5t192.5 -77.5q121 0 194.5 77t73.5 202z" />
    <glyph glyph-name="R" unicode="R" horiz-adv-x="1255" 
d="M961 0q-28 0 -39 25l-269 585q-3 8 -14 8h-240q-12 0 -12 -12v-573q0 -15 -9 -24t-24 -9h-172q-32 0 -32 33v1370q0 33 32 33h555q190 0 307 -115t117 -303q0 -141 -72.5 -240.5t-199.5 -136.5q-14 -4 -6 -16l282 -586q8 -17 1.5 -28t-25.5 -11h-180zM399 1231
q-12 0 -12 -12v-404q0 -12 12 -12h306q98 0 158.5 58.5t60.5 152.5q0 97 -60.5 157t-158.5 60h-306z" />
    <glyph glyph-name="S" unicode="S" horiz-adv-x="1208" 
d="M610 -16q-236 0 -377 112t-141 299v43q0 15 9 24t24 9h168q33 0 33 -31v-32q0 -94 83 -157t220 -63q125 0 188.5 53.5t63.5 137.5q0 30 -8 54t-29 45.5t-43.5 38.5t-65.5 37.5t-80 36t-102 40.5q-60 22 -96.5 36.5t-89.5 39t-85.5 46.5t-69.5 55t-57.5 68.5t-34.5 83
t-14 101.5q0 181 131.5 285t350.5 104q233 0 376.5 -116.5t143.5 -305.5v-27q0 -32 -33 -32h-168q-15 0 -24 6.5t-9 17.5v23q0 97 -78.5 163t-217.5 66q-114 0 -176 -47t-62 -133q0 -37 13.5 -66.5t34.5 -51t68 -45.5t91 -41.5t127 -47.5q176 -67 248 -111
q174 -104 193 -270q3 -23 3 -47q0 -182 -137 -291.5t-371 -109.5z" />
    <glyph glyph-name="T" unicode="T" horiz-adv-x="1185" 
d="M1083 1434q15 0 24 -9t9 -24v-141q0 -15 -9 -24t-24 -9h-366q-12 0 -12 -13v-1181q0 -15 -9 -24t-24 -9h-172q-15 0 -24 9t-9 24v1181q0 13 -12 13h-353q-32 0 -32 33v141q0 33 32 33h981z" />
    <glyph glyph-name="U" unicode="U" horiz-adv-x="1302" 
d="M651 -16q-231 0 -372.5 131.5t-141.5 349.5v936q0 15 9 24t24 9h172q15 0 24 -9t9 -24v-940q0 -122 76 -197.5t200 -75.5t200.5 75.5t76.5 197.5v940q0 15 9 24t24 9h172q32 0 32 -33v-936q0 -218 -141 -349.5t-373 -131.5z" />
    <glyph glyph-name="V" unicode="V" horiz-adv-x="1249" 
d="M528 0q-27 0 -36 27l-424 1370q-10 37 26 37h187q28 0 36 -27l304 -1059q3 -8 8 -8t8 8l301 1057q6 29 37 29h182q17 0 24.5 -10t2.5 -27l-430 -1370q-9 -27 -37 -27h-189z" />
    <glyph glyph-name="W" unicode="W" horiz-adv-x="1775" 
d="M451 0q-31 0 -37 29l-369 1368q-4 17 4 27t25 10h184q29 0 35 -29l231 -922q2 -9 8.5 -8.5t8.5 8.5l219 922q6 29 35 29h184q31 0 37 -29l233 -922q1 -9 8 -9t9 9l227 922q6 29 35 29h176q17 0 24.5 -10t2.5 -27l-349 -1368q-6 -29 -36 -29h-179q-28 0 -34 29l-238 964
q-1 6 -4.5 7.5t-7 -0.5t-4.5 -7l-228 -964q-6 -29 -35 -29h-165z" />
    <glyph glyph-name="X" unicode="X" horiz-adv-x="1261" 
d="M100 0q-19 0 -24 11t4 28l401 670q5 8 0 16l-401 670q-9 17 -4 28t24 11h189q27 0 39 -23l295 -500q3 -6 8 -6t8 6l297 500q12 23 39 23h186q19 0 24.5 -11t-3.5 -28l-402 -670q-5 -8 0 -16l402 -670q9 -17 3.5 -28t-24.5 -11h-186q-27 0 -39 23l-297 497q-3 6 -8 6
t-8 -6l-297 -497q-12 -23 -39 -23h-187z" />
    <glyph glyph-name="Y" unicode="Y" horiz-adv-x="1226" 
d="M526 2q-32 0 -32 33v538q0 5 -5 15l-413 807q-9 17 -3 28t25 11h187q27 0 39 -25l280 -563q3 -6 8.5 -6t8.5 6l282 563q13 25 39 25h188q19 0 25.5 -11t-2.5 -28l-418 -807q-4 -12 -4 -15v-538q0 -15 -9 -24t-24 -9h-172z" />
    <glyph glyph-name="Z" unicode="Z" horiz-adv-x="1134" 
d="M109 0q-15 0 -24 9t-9 24v160q0 22 12 40l686 981q4 6 2 10.5t-10 4.5h-657q-15 0 -24 9t-9 24v139q0 15 9 24t24 9h905q15 0 24 -9t9 -24v-160q0 -21 -13 -41l-686 -981q-4 -6 -2 -10t10 -4h658q15 0 24 -9t9 -24v-139q0 -15 -9 -24t-24 -9h-905z" />
    <glyph glyph-name="bracketleft" unicode="[" horiz-adv-x="825" 
d="M102 -283q-32 0 -32 33v1837q0 33 32 33h435q32 0 32 -33v-139q0 -33 -32 -33h-218q-12 0 -12 -12v-1466q0 -13 12 -13h220q32 0 32 -33v-141q0 -33 -32 -33h-437z" />
    <glyph glyph-name="backslash" unicode="\" horiz-adv-x="845" 
d="M786 37q12 -37 -26 -37h-168q-29 0 -39 27l-494 1370q-12 37 27 37h168q29 0 39 -27z" />
    <glyph glyph-name="bracketright" unicode="]" horiz-adv-x="825" 
d="M756 -250q0 -15 -9 -24t-24 -9h-436q-15 0 -24 9t-9 24v141q0 15 9 24t24 9h219q12 0 12 13v1466q0 12 -12 12h-217q-15 0 -24 9t-9 24v139q0 15 9 24t24 9h434q15 0 24 -9t9 -24v-1837z" />
    <glyph glyph-name="asciicircum" unicode="^" horiz-adv-x="952" 
d="M106 616q-38 0 -26 37l282 754q10 27 39 27h146q29 0 39 -27l284 -754q12 -37 -26 -37h-133q-29 0 -39 27l-189 535q-3 9 -8 9t-8 -9l-186 -535q-10 -27 -39 -27h-136z" />
    <glyph glyph-name="underscore" unicode="_" horiz-adv-x="1042" 
d="M78 0q-15 0 -24 9t-9 24v117q0 32 33 32h887q32 0 32 -32v-117q0 -33 -32 -33h-887z" />
    <glyph glyph-name="grave" unicode="`" horiz-adv-x="466" 
d="M399 1217q9 -17 2 -28t-26 -11h-133q-26 0 -39 20l-131 197q-11 17 -5.5 28t25.5 11h162q26 0 39 -23z" />
    <glyph glyph-name="a" unicode="a" horiz-adv-x="1069" 
d="M526 1063q196 0 315.5 -97.5t119.5 -250.5v-682q0 -15 -9 -24t-24 -9h-172q-15 0 -24 9t-9 24v51q0 16 -14 6q-109 -106 -295 -106q-152 0 -249 78t-97 231q0 159 111.5 248.5t314.5 89.5h217q12 0 12 12v47q0 80 -48 124t-143 44q-72 0 -119.5 -25.5t-62.5 -70.5
q-9 -30 -37 -27l-184 23q-15 2 -23.5 9t-7.5 17q19 123 136 201t292 78zM479 172q100 0 172 53t72 135v95q0 12 -12 12h-170q-109 0 -172.5 -41.5t-63.5 -116.5q0 -65 48.5 -101t125.5 -36z" />
    <glyph glyph-name="b" unicode="b" horiz-adv-x="1128" 
d="M1010 776q34 -101 34 -250q0 -147 -36 -256q-45 -133 -147 -209.5t-247 -76.5q-147 0 -233 106q-5 7 -9.5 5.5t-4.5 -9.5v-53q0 -15 -9 -24t-24 -9h-172q-15 0 -24 9t-9 24v1368q0 15 9 24t24 9h172q15 0 24 -9t9 -24v-434q0 -7 4.5 -8.5t9.5 4.5q90 100 233 100
q149 0 250 -76t146 -211zM750 289q49 85 49 233q0 159 -60 250q-58 86 -164 86q-98 0 -153 -90q-51 -83 -51 -244q0 -159 47 -237q59 -97 160 -97q117 0 172 99z" />
    <glyph glyph-name="c" unicode="c" horiz-adv-x="1087" 
d="M563 -16q-157 0 -272 80.5t-160 218.5q-33 92 -33 245q0 145 33 242q43 135 158.5 214t273.5 79q160 0 279 -79.5t157 -201.5q8 -24 13 -57q5 -31 -27 -37l-170 -26q-30 -6 -37 24l-6 27q-14 62 -71 103.5t-138 41.5q-78 0 -132 -40t-73 -109q-20 -65 -20 -183
q0 -112 18 -182q21 -73 74 -114.5t133 -41.5q78 0 134 40t73 106l2 10q2 10 14 21t25 8l170 -27q33 -7 27 -37q-4 -23 -9 -41q-39 -131 -158 -207.5t-278 -76.5z" />
    <glyph glyph-name="d" unicode="d" horiz-adv-x="1128" 
d="M762 1401q0 15 9 24t24 9h172q32 0 32 -33v-1368q0 -33 -32 -33h-172q-15 0 -24 9t-9 24v53q0 8 -5 9.5t-9 -5.5q-86 -106 -234 -106q-145 0 -246.5 76t-146.5 210q-37 112 -37 256q0 146 35 250q45 136 145.5 211.5t249.5 75.5q144 0 234 -100q3 -4 6.5 -5t5.5 1.5
t2 7.5v434zM711 287q47 78 47 237q0 161 -51 244q-55 90 -154 90q-106 0 -164 -86q-59 -89 -59 -250q0 -148 49 -233q55 -99 172 -99q101 0 160 97z" />
    <glyph glyph-name="e" unicode="e" horiz-adv-x="1110" 
d="M596 184q150 6 223 113q19 29 45 10l99 -78q24 -21 8 -45q-60 -94 -162.5 -147t-235.5 -53q-162 0 -272 76.5t-158 213.5q-41 112 -41 254q0 139 23 217q39 146 154 232t278 86q383 0 449 -420q11 -68 14 -168q0 -15 -9 -24t-24 -9h-635q-12 0 -12 -12q0 -56 12 -90
q22 -73 86 -114.5t158 -41.5zM555 858q-77 0 -127.5 -38t-69.5 -105q-13 -42 -16 -86q-3 -13 10 -13h412q12 0 12 13q-8 60 -12 73q-19 72 -73.5 114t-135.5 42z" />
    <glyph glyph-name="f" unicode="f" horiz-adv-x="770" 
d="M664 1049q32 0 32 -33v-146q0 -32 -32 -32h-193q-12 0 -12 -13v-792q0 -15 -9 -24t-24 -9h-172q-15 0 -24 9t-9 24v792q0 13 -12 13h-117q-33 0 -33 32v146q0 15 9 24t24 9h117q12 0 12 12v35q0 195 80.5 267.5t294.5 70.5h63q15 0 24 -9t9 -24v-127q0 -15 -9 -24t-24 -9
h-45q-89 0 -122 -34.5t-33 -127.5v-18q0 -12 12 -12h193z" />
    <glyph glyph-name="g" unicode="g" horiz-adv-x="1124" 
d="M768 1014q0 15 9 24t24 9h172q15 0 24 -9t9 -24v-944q0 -87 -19 -159t-53 -122.5t-81 -89t-104 -59.5t-121.5 -34t-133 -12.5t-138.5 5.5q-28 3 -28 36l6 152q0 32 37 29q205 -18 301 40t96 220v12q0 8 -4 10t-10 -4q-85 -88 -236 -88q-133 0 -243.5 68t-153.5 207
q-27 100 -27 247q0 170 33 260q41 124 141.5 199.5t235.5 75.5q158 0 250 -92q6 -6 10 -4t4 10v37zM754 348q14 55 14 182q0 124 -16 179q-16 67 -67 108t-128 41q-74 0 -125 -41t-74 -108q-24 -59 -24 -181q0 -126 20 -178q21 -66 75 -107.5t130 -41.5q79 0 129 41t66 106z
" />
    <glyph glyph-name="h" unicode="h" horiz-adv-x="1114" 
d="M629 1063q167 0 266.5 -99t99.5 -268v-663q0 -33 -32 -33h-172q-15 0 -24 9t-9 24v614q0 94 -54 152.5t-143 58.5q-88 0 -142 -57.5t-54 -151.5v-616q0 -15 -9 -24t-24 -9h-172q-15 0 -24 9t-9 24v1368q0 15 9 24t24 9h172q15 0 24 -9t9 -24v-443q0 -8 3.5 -10t8.5 4
q86 111 252 111z" />
    <glyph glyph-name="i" unicode="i" horiz-adv-x="522" 
d="M262 1178q-68 0 -110.5 41.5t-42.5 107.5q0 65 43 106.5t110 41.5t109.5 -41.5t42.5 -106.5q0 -66 -42.5 -107.5t-109.5 -41.5zM176 0q-15 0 -24 9t-9 24v981q0 15 9 24t24 9h172q15 0 24 -9t9 -24v-981q0 -15 -9 -24t-24 -9h-172z" />
    <glyph glyph-name="j" unicode="j" horiz-adv-x="501" 
d="M256 1171q-67 0 -109.5 43t-42.5 107q0 62 45.5 104.5t106.5 42.5q64 0 110 -42.5t46 -104.5q0 -64 -44 -107t-112 -43zM-72 -420q-32 0 -32 33v135q0 34 34 31q111 0 159 44t48 142v1049q0 15 9 24t24 9h172q15 0 24 -9t9 -24v-1047q0 -147 -41.5 -230t-138.5 -121
t-267 -36z" />
    <glyph glyph-name="k" unicode="k" horiz-adv-x="1069" 
d="M160 0q-15 0 -24 9t-9 24v1368q0 15 9 24t24 9h172q15 0 24 -9t9 -24v-727q0 -8 4.5 -10t9.5 4l326 360q16 19 40 19h197q20 0 27 -13t-6 -28l-252 -299q-6 -6 -2 -17l303 -651q7 -19 0.5 -29t-25.5 -10h-182q-28 0 -37 25l-221 512q-5 14 -17 2l-159 -187q-6 -9 -6 -14
v-305q0 -15 -9 -24t-24 -9h-172z" />
    <glyph glyph-name="l" unicode="l" horiz-adv-x="497" 
d="M162 0q-15 0 -24 9t-9 24v1368q0 15 9 24t24 9h172q15 0 24 -9t9 -24v-1368q0 -15 -9 -24t-24 -9h-172z" />
    <glyph glyph-name="m" unicode="m" horiz-adv-x="1697" 
d="M1247 1063q157 0 246.5 -95.5t89.5 -265.5v-669q0 -15 -9 -24t-24 -9h-170q-32 0 -32 33v620q0 93 -50.5 149t-134.5 56t-137 -55t-53 -148v-622q0 -15 -9 -24t-24 -9h-170q-15 0 -24 9t-9 24v620q0 94 -50.5 149.5t-135.5 55.5q-77 0 -127 -45t-59 -123v-657
q0 -15 -9 -24t-24 -9h-172q-15 0 -24 9t-9 24v981q0 15 9 24t24 9h172q15 0 24 -9t9 -24v-56q0 -8 4.5 -9.5t9.5 5.5q87 109 258 109q206 0 291 -158q3 -6 8 -5.5t8 7.5q48 79 127 117.5t176 38.5z" />
    <glyph glyph-name="n" unicode="n" horiz-adv-x="1114" 
d="M629 1063q167 0 266.5 -99t99.5 -268v-663q0 -33 -32 -33h-172q-15 0 -24 9t-9 24v614q0 94 -54 152.5t-143 58.5q-88 0 -142 -57.5t-54 -151.5v-616q0 -15 -9 -24t-24 -9h-172q-15 0 -24 9t-9 24v981q0 15 9 24t24 9h172q15 0 24 -9t9 -24v-56q0 -8 3.5 -10t8.5 4
q86 111 252 111z" />
    <glyph glyph-name="o" unicode="o" horiz-adv-x="1140" 
d="M573 -16q-161 0 -278.5 82t-161.5 227q-35 100 -35 233q0 130 33 234q46 143 163 223t281 80q156 0 270 -80t161 -221q36 -95 36 -234q0 -132 -34 -233q-46 -146 -161.5 -228.5t-273.5 -82.5zM573 188q75 0 129.5 43.5t77.5 120.5q23 68 23 172q0 97 -21 172
q-23 77 -79 119.5t-134 42.5t-133 -42.5t-78 -119.5q-20 -72 -20 -172t20 -172q23 -77 79.5 -120.5t135.5 -43.5z" />
    <glyph glyph-name="p" unicode="p" horiz-adv-x="1136" 
d="M1016 776q37 -112 37 -256q0 -146 -35 -250q-45 -135 -145.5 -210.5t-249.5 -75.5q-144 0 -234 100q-3 4 -6.5 5t-5.5 -1.5t-2 -7.5v-434q0 -15 -9 -24t-24 -9h-172q-15 0 -24 9t-9 24v1368q0 15 9 24t24 9h172q15 0 24 -9t9 -24v-53q0 -8 4.5 -10t9.5 5q87 107 234 107
q145 0 246.5 -76.5t146.5 -210.5zM748 274q59 89 59 250q0 149 -49 234q-54 98 -172 98q-102 0 -160 -96q-47 -78 -47 -238t51 -243q56 -91 154 -91q106 0 164 86z" />
    <glyph glyph-name="q" unicode="q" horiz-adv-x="1136" 
d="M762 1014q0 15 9 24t24 9h172q32 0 32 -33v-1368q0 -33 -32 -33h-172q-15 0 -24 9t-9 24v434q0 7 -5 8.5t-9 -4.5q-90 -100 -234 -100q-149 0 -249.5 75.5t-145.5 210.5q-35 104 -35 250q0 144 37 256q45 134 146.5 210.5t246.5 76.5q147 0 234 -107q4 -7 9 -5t5 10v53z
M707 279q51 83 51 243t-47 238q-58 96 -160 96q-118 0 -172 -98q-49 -85 -49 -234q0 -161 59 -250q58 -86 164 -86q98 0 154 91z" />
    <glyph glyph-name="r" unicode="r" horiz-adv-x="770" 
d="M614 1059q57 0 109 -23q24 -12 18 -41l-32 -170q-5 -29 -39 -20q-48 14 -105 6q-86 -5 -143 -60.5t-57 -146.5v-571q0 -15 -9 -24t-24 -9h-172q-15 0 -24 9t-9 24v981q0 15 9 24t24 9h172q15 0 24 -9t9 -24v-80q0 -8 3.5 -9.5t8.5 5.5q85 129 237 129z" />
    <glyph glyph-name="s" unicode="s" horiz-adv-x="1011" 
d="M518 -12q-194 0 -312 82t-118 209v10q0 15 9 24t24 9h164q32 0 32 -15v-14q0 -52 56 -89.5t143 -37.5q82 0 133 33.5t51 85.5q0 21 -10.5 38t-25 28t-42.5 22t-51 18t-62 18.5t-65 20.5q-60 18 -100 32.5t-91 41.5t-81.5 57.5t-52 78t-21.5 105.5q0 145 112 229.5
t296 84.5q188 0 303 -87t115 -224q0 -11 -9 -18t-24 -7h-158q-33 0 -33 12v13q0 53 -52.5 88.5t-141.5 35.5q-81 0 -130.5 -29t-49.5 -83q0 -14 3.5 -26t13 -22t18 -18t26 -16t29.5 -13.5t36 -12.5t38.5 -11.5t43.5 -12.5t44 -12q52 -15 86.5 -26.5t81.5 -31.5t77 -42.5
t58.5 -53.5t42.5 -72t14 -91q0 -146 -114 -228.5t-306 -82.5z" />
    <glyph glyph-name="t" unicode="t" horiz-adv-x="765" 
d="M682 887q0 -15 -9 -24t-24 -9h-198q-13 0 -13 -12v-484q0 -79 34.5 -114t107.5 -35h53q15 0 24 -9t9 -24v-137q0 -32 -33 -35q-17 0 -49 -1t-49 -1q-79 0 -134.5 11.5t-100 40t-66.5 82t-23 132.5v574q0 12 -12 12h-107q-15 0 -24 9t-9 24v127q0 15 9 24t24 9h107
q12 0 12 12v229q0 15 9 24t24 9h162q32 0 32 -33v-229q0 -12 13 -12h198q15 0 24 -9t9 -24v-127z" />
    <glyph glyph-name="u" unicode="u" horiz-adv-x="1107" 
d="M745 1014q0 15 9 24t24 9h170q15 0 24 -9t9 -24v-981q0 -15 -9 -24t-24 -9h-170q-15 0 -24 9t-9 24v53q0 8 -4.5 9.5t-9.5 -5.5q-81 -104 -250 -104q-156 0 -261 90.5t-105 255.5v682q0 33 32 33h172q15 0 24 -9t9 -24v-615q0 -97 50 -154t141 -57q92 0 147 57.5
t55 153.5v615z" />
    <glyph glyph-name="v" unicode="v" horiz-adv-x="1032" 
d="M418 0q-28 0 -37 27l-324 983q-12 37 27 37h192q28 0 37 -27l195 -680q3 -8 8 -8t8 8l195 678q9 29 37 29l192 -3q18 0 25.5 -9.5t1.5 -26.5l-322 -981q-9 -27 -37 -27h-198z" />
    <glyph glyph-name="w" unicode="w" horiz-adv-x="1558" 
d="M381 0q-28 0 -37 27l-289 983q-4 17 4 27t25 10h178q29 0 35 -29l168 -672q1 -6 4.5 -7.5t7 0.5t4.5 7l174 672q6 29 37 29h158q31 0 37 -29l180 -674q1 -8 8 -8t8 8l177 674q6 29 36 29l177 -3q37 0 28 -36l-291 -981q-9 -27 -36 -27h-183q-28 0 -37 27l-176 612
q-2 5 -5.5 7t-6.5 0t-4 -7l-162 -610q-6 -29 -37 -29h-182z" />
    <glyph glyph-name="x" unicode="x" horiz-adv-x="1056" 
d="M82 0q-20 0 -26 11t5 28l324 477q5 8 0 16l-324 476q-11 17 -5 28t26 11h184q24 0 39 -21l209 -309q3 -5 8 -5t8 5l207 309q13 21 39 21h199q20 0 25.5 -11t-5.5 -28l-323 -476q-5 -8 0 -16l323 -477q11 -17 5.5 -28t-25.5 -11h-184q-27 0 -39 20l-207 310q-3 4 -8.5 4
t-8.5 -4l-209 -310q-14 -20 -38 -20h-199z" />
    <glyph glyph-name="y" unicode="y" horiz-adv-x="1001" 
d="M106 -408q-14 0 -14 33v131q0 33 14 33h13q123 0 175 39t87 164q3 10 0 16l-334 1002q-12 37 27 37h184q28 0 37 -27l201 -678q3 -8 8 -8t8 8l195 678q9 27 36 27h185q38 0 26 -37l-358 -1067q-25 -72 -46.5 -120t-50 -90.5t-60.5 -67t-78.5 -42t-103.5 -24.5t-136 -7
h-15z" />
    <glyph glyph-name="z" unicode="z" horiz-adv-x="931" 
d="M90 0q-15 0 -24 9t-9 24v160q0 22 15 40l497 584q4 6 2 10t-10 4h-461q-32 0 -32 33v150q0 33 32 33h729q15 0 24 -9t9 -24v-160q0 -24 -14 -41l-510 -584q-4 -6 -2 -10t10 -4h490q32 0 32 -33v-149q0 -33 -32 -33h-746z" />
    <glyph glyph-name="braceleft" unicode="{" horiz-adv-x="716" 
d="M457 -283q-246 0 -246 246v432q0 84 -27 128t-84 55q-30 6 -30 34v127q0 30 30 33q57 11 84 54t27 126v422q0 246 246 246h157q15 0 24 -9t9 -24v-139q0 -15 -9 -24t-24 -9h-53q-54 0 -83 -35.5t-29 -101.5v-354q0 -97 -27 -154.5t-84 -87.5q-14 -6 0 -14
q111 -57 111 -244v-363q0 -67 29 -102t83 -35h53q15 0 24 -9t9 -24v-141q0 -15 -9 -24t-24 -9h-157z" />
    <glyph glyph-name="bar" unicode="|" horiz-adv-x="389" 
d="M109 -164q-15 0 -24 9t-9 24v1655q0 32 33 32h172q32 0 32 -32v-1655q0 -33 -32 -33h-172z" />
    <glyph glyph-name="braceright" unicode="}" horiz-adv-x="716" 
d="M260 -283h-158q-32 0 -32 33v141q0 33 32 33h54q54 0 83 35t29 102v363q0 187 111 244q14 8 0 14q-57 30 -84 87.5t-27 154.5v354q0 66 -29 101.5t-83 35.5h-54q-32 0 -32 33v139q0 33 32 33h158q246 0 246 -246v-422q0 -83 26.5 -126t83.5 -54q31 -3 31 -33v-127
q0 -28 -31 -34q-57 -11 -83.5 -54.5t-26.5 -128.5v-432q0 -246 -246 -246z" />
    <glyph glyph-name="asciitilde" unicode="~" horiz-adv-x="1069" 
d="M721 434q-38 0 -76 10.5t-58.5 20t-56.5 29.5q-101 59 -168 59q-81 0 -135 -70q-19 -29 -45 -10l-92 64q-25 19 -14 43q35 80 112 130t166 50q80 0 176 -53q3 -2 16 -10t17 -10t16 -9t17 -9.5t16.5 -8t18 -7.5t17.5 -5.5t19.5 -5t19 -2.5t20.5 -1q62 0 118 70q17 26 45 8
l109 -70q25 -17 12 -43q-39 -77 -111.5 -123.5t-158.5 -46.5z" />
    <glyph glyph-name="uni00A0" unicode="&#xa0;" horiz-adv-x="409" 
 />
    <glyph glyph-name="exclamdown" unicode="&#xa1;" horiz-adv-x="692" 
d="M340 1450q71 0 119.5 -46.5t48.5 -111.5t-51 -111t-117 -46q-64 0 -114 46t-50 111t47 111.5t117 46.5zM250 938q0 33 33 33h127q32 0 32 -33l23 -885q0 -33 -33 -33h-172q-33 0 -33 33z" />
    <glyph glyph-name="cent" unicode="&#xa2;" horiz-adv-x="1087" 
d="M770 518l2 10q2 10 14 21t25 8l170 -27q33 -7 27 -36q-4 -23 -9 -41q-33 -111 -126 -185t-220 -94q-12 -3 -12 -14l4 -125q0 -33 -31 -33h-137q-31 0 -31 33l5 135q0 8 -11 12q-113 26 -193 101t-116 184q-33 92 -33 246q0 144 33 241q34 107 114.5 180t194.5 99
q11 4 11 12l-5 135q0 33 31 33h137q31 0 31 -33l-4 -127q0 -11 12 -14q129 -20 221 -94t125 -178q8 -23 13 -58q5 -31 -27 -37l-170 -26q-30 -6 -37 24l-6 27q-14 62 -71 103.5t-138 41.5q-78 0 -132 -40t-73 -109q-20 -65 -20 -182q0 -113 18 -183q21 -72 74 -113.5
t133 -41.5q78 0 134 39.5t73 105.5z" />
    <glyph glyph-name="sterling" unicode="&#xa3;" horiz-adv-x="1249" 
d="M563 430q0 -126 -78 -211q-6 -6 -3.5 -10t10.5 -4h661q15 0 24 -9t9 -24v-139q0 -15 -9 -24t-24 -9h-907q-15 0 -24 9t-9 24v145q0 25 23 41q90 63 90 209v164q0 12 -13 12h-131q-32 0 -32 33v127q0 33 32 33h131q13 0 13 12v211q0 199 114 311.5t312 118.5
q160 4 266.5 -73.5t157.5 -221.5q4 -15 -3 -25.5t-22 -13.5l-158 -29q-28 -6 -41 23q-28 74 -74.5 105.5t-115.5 29.5q-94 -3 -146.5 -57.5t-52.5 -163.5v-215q0 -12 12 -12h367q15 0 24 -9t9 -24v-127q0 -15 -9 -24t-24 -9h-367q-12 0 -12 -12v-162z" />
    <glyph glyph-name="currency" unicode="&#xa4;" horiz-adv-x="1136" 
d="M997 621q0 -115 -57 -218q-5 -11 2 -18l123 -123q24 -24 -2 -47l-102 -90q-25 -21 -48 2l-116 115q-8 8 -19 2q-99 -58 -217 -58q-115 0 -209 54q-11 5 -18 -2l-111 -111q-23 -23 -47 -2l-104 90q-25 22 0 47l114 115q7 7 2 18q-63 107 -63 226q0 117 59 217q5 11 -2 18
l-123 121q-25 25 0 47l105 92q24 21 47 -2l115 -115q7 -7 18 -2q99 58 217 58q122 0 225 -64q11 -6 19 2l123 121q23 23 47 2l104 -92q25 -22 0 -47l-133 -131q-7 -7 -4 -17q55 -96 55 -208zM330 621q0 -95 68 -163.5t163 -68.5t164 67.5t70 164.5q-1 95 -70.5 163
t-163.5 68q-95 0 -163 -68t-68 -163z" />
    <glyph glyph-name="yen" unicode="&#xa5;" horiz-adv-x="1406" 
d="M1225 1434q19 0 25 -11t-3 -28l-358 -693q-6 -14 8 -14h188q15 0 24 -9t9 -24v-69q0 -15 -9 -24t-24 -9h-247q-13 0 -13 -12v-119q0 -12 13 -12h247q15 0 24 -9t9 -24v-70q0 -15 -9 -24t-24 -9h-247q-13 0 -13 -12v-227q0 -33 -32 -33h-172q-15 0 -24 9t-9 24v227
q0 12 -13 12h-251q-15 0 -24 9t-9 24v70q0 15 9 24t24 9h251q13 0 13 12v119q0 12 -13 12h-251q-15 0 -24 9t-9 24v69q0 15 9 24t24 9h192q14 0 8 14l-354 693q-9 17 -2.5 28t25.5 11h186q27 0 39 -25l280 -563q3 -6 8.5 -6t8.5 6l282 563q13 25 39 25h189z" />
    <glyph glyph-name="brokenbar" unicode="&#xa6;" horiz-adv-x="389" 
d="M109 821q-15 0 -24 9t-9 24v670q0 32 33 32h172q32 0 32 -32v-670q0 -33 -32 -33h-172zM109 -164q-15 0 -24 9t-9 24v670q0 32 33 32h172q32 0 32 -32v-670q0 -33 -32 -33h-172z" />
    <glyph glyph-name="section" unicode="&#xa7;" horiz-adv-x="989" 
d="M487 -426q-173 0 -273 92.5t-103 249.5l-2 55q0 33 30 33h172q15 0 24 -7.5t9 -19.5v-24q0 -79 42.5 -126.5t113.5 -47.5q67 0 110 45t43 113q0 40 -16 70t-52.5 53t-69.5 37.5t-93 36.5q-17 6 -25 9q-98 35 -157.5 72t-96.5 96q-51 76 -51 185q0 112 58 200
q48 73 137 105q17 7 2 14q-83 39 -135 115t-52 176q0 142 112 243t284 101q168 0 277 -97t110 -249v-35q0 -15 -9 -24t-24 -9h-172q-15 0 -24 7t-9 16v20q0 73 -43 119.5t-108 46.5q-68 0 -112 -46.5t-44 -113.5q0 -41 17 -72.5t53 -55.5t71.5 -39.5t91.5 -34.5
q174 -54 246 -133q80 -87 80 -222q0 -112 -55 -198q-55 -92 -137 -113q-5 -1 -7 -3t-0.5 -4.5t5.5 -4.5q188 -100 188 -291q0 -153 -115.5 -246.5t-290.5 -93.5zM494 340q96 0 139 68q29 44 29 102q0 66 -33 111q-48 61 -133 61q-43 0 -81 -21.5t-59 -56.5q-26 -39 -26 -98
q0 -60 28 -98q46 -68 136 -68z" />
    <glyph glyph-name="dieresis" unicode="&#xa8;" horiz-adv-x="722" 
d="M174 1190q-57 0 -93 35t-36 92t36 92t93 35q56 0 90.5 -35t34.5 -92t-34.5 -92t-90.5 -35zM549 1190q-57 0 -92 35t-35 92t35 92t92 35t92 -35t35 -92t-35 -92t-92 -35z" />
    <glyph glyph-name="copyright" unicode="&#xa9;" horiz-adv-x="1710" 
d="M854 -16q-210 0 -379 95t-264.5 264t-95.5 378q0 155 56 290t153.5 231.5t235 152t294.5 55.5q212 0 381.5 -94.5t264.5 -261t95 -373.5q0 -209 -95 -377.5t-264.5 -264t-381.5 -95.5zM854 119q262 0 433 170.5t171 431.5q0 168 -77.5 304t-216 213t-310.5 77
q-171 0 -309 -77t-215.5 -213t-77.5 -304q0 -172 77.5 -309.5t215 -215t309.5 -77.5zM858 354q-110 0 -177 62.5t-67 163.5v278q0 102 66.5 162.5t177.5 60.5q109 0 175.5 -57.5t66.5 -155.5q0 -18 -33 -18l-66 -2q-32 0 -32 10v8q0 47 -30.5 76t-80.5 29q-51 0 -80.5 -28.5
t-29.5 -76.5v-297q0 -46 29.5 -74t80.5 -28q50 0 80.5 28t30.5 74q0 21 32 21l66 -2q33 0 33 -8v-11q0 -98 -67 -156.5t-175 -58.5z" />
    <glyph glyph-name="ordfeminine" unicode="&#xaa;" horiz-adv-x="669" 
d="M319 1159h134q12 0 12 12v29q0 60 -37.5 97.5t-105.5 37.5q-46 0 -82.5 -18.5t-49.5 -50.5q-10 -30 -36 -27l-68 6q-15 2 -23.5 12t-5.5 25q15 74 88.5 121t176.5 47q124 0 201 -64.5t77 -164.5v-439q0 -32 -33 -32h-69q-33 0 -33 32v11q0 8 -4 10t-10 -4
q-62 -62 -183 -62q-106 0 -169.5 50.5t-63.5 146.5q0 103 76.5 164t207.5 61zM293 844q72 0 122 39t50 96v63q0 13 -12 13h-117q-77 0 -122.5 -27.5t-45.5 -83.5q0 -51 33.5 -75.5t91.5 -24.5zM33 600q0 15 9 24t24 9h518q32 0 32 -33v-82q0 -33 -32 -33h-518q-15 0 -24 9
t-9 24v82z" />
    <glyph glyph-name="guillemotleft" unicode="&#xab;" horiz-adv-x="1064" 
d="M557 258q11 -17 5.5 -28t-25.5 -11h-156q-26 0 -39 21l-209 313q-16 23 0 45l209 313q13 21 39 21h156q20 0 25.5 -11t-5.5 -28l-209 -309q-6 -8 0 -17zM899 258q11 -17 5.5 -28t-25.5 -11h-156q-26 0 -39 21l-209 313q-16 23 0 45l209 313q13 21 39 21h156
q20 0 25.5 -11t-5.5 -28l-209 -309q-6 -8 0 -17z" />
    <glyph glyph-name="logicalnot" unicode="&#xac;" horiz-adv-x="1005" 
d="M66 694q0 33 32 33h807q15 0 24 -9t9 -24v-375q0 -32 -33 -32h-139q-33 0 -33 32v191q0 12 -12 12h-623q-32 0 -32 33v139z" />
    <glyph glyph-name="uni00AD" unicode="&#xad;" horiz-adv-x="827" 
d="M98 514q-32 0 -32 33v139q0 33 32 33h629q15 0 24 -9t9 -24v-139q0 -15 -9 -24t-24 -9h-629z" />
    <glyph glyph-name="registered" unicode="&#xae;" horiz-adv-x="915" 
d="M457 1456q175 0 294 -115.5t119 -285.5q0 -178 -118.5 -296t-294.5 -118q-174 0 -293 118.5t-119 295.5q0 170 119 285.5t293 115.5zM457 739q134 0 223.5 90.5t89.5 225.5q0 129 -90 217t-223 88q-132 0 -221 -88t-89 -217q0 -135 89 -225.5t221 -90.5zM598 1122
q0 -66 -49 -94q-9 -6 -6 -16l41 -111q12 -37 -27 -37h-20q-27 0 -37 27l-39 110q-3 11 -15 11h-8q-12 0 -12 -13v-102q0 -15 -9 -24t-24 -9h-18q-15 0 -24 9t-9 24v309q0 15 9 24t24 9h106q52 0 84.5 -33.5t32.5 -83.5zM438 1167q-12 0 -12 -12v-68q0 -12 12 -12h31
q20 0 32.5 13t12.5 32q0 22 -12.5 34.5t-32.5 12.5h-31z" />
    <glyph glyph-name="macron" unicode="&#xaf;" horiz-adv-x="583" 
d="M33 1194q-15 0 -24 9t-9 24v98q0 15 9 24t24 9h518q15 0 24 -9t9 -24v-98q0 -15 -9 -24t-24 -9h-518z" />
    <glyph glyph-name="degree" unicode="&#xb0;" horiz-adv-x="774" 
d="M387 975q-143 0 -242.5 99.5t-99.5 242.5q0 141 99.5 239.5t242.5 98.5q142 0 241 -98.5t99 -239.5q0 -143 -99 -242.5t-241 -99.5zM387 1135q76 0 128 52.5t52 129.5t-52 129.5t-128 52.5q-75 0 -128.5 -53t-53.5 -129t53.5 -129t128.5 -53z" />
    <glyph glyph-name="plusminus" unicode="&#xb1;" horiz-adv-x="1005" 
d="M604 893q0 -12 12 -12h289q15 0 24 -9t9 -24v-139q0 -15 -9 -24t-24 -9h-289q-12 0 -12 -12v-285q0 -15 -9 -24t-24 -9h-137q-15 0 -24 9t-9 24v285q0 12 -12 12h-291q-32 0 -32 33v139q0 33 32 33h291q12 0 12 12v293q0 15 9 24t24 9h137q15 0 24 -9t9 -24v-293zM98 0
q-32 0 -32 33v139q0 33 32 33h807q15 0 24 -9t9 -24v-139q0 -15 -9 -24t-24 -9h-807z" />
    <glyph glyph-name="uni00B2" unicode="&#xb2;" horiz-adv-x="690" 
d="M100 870q-32 0 -32 33v78q0 23 16 39q93 97 262 287q115 128 115 192q0 46 -34 76.5t-87 30.5q-54 0 -87 -31t-32 -80v-12q0 -15 -9 -24t-24 -9h-92q-15 0 -24 9t-9 24v37q4 100 82 160.5t195 60.5q126 0 201 -68.5t75 -171.5q0 -97 -102 -227q-56 -73 -225 -254
q-6 -4 -4 -9t10 -5h309q15 0 24 -9t9 -24v-70q0 -15 -9 -24t-24 -9h-504z" />
    <glyph glyph-name="uni00B3" unicode="&#xb3;" horiz-adv-x="661" 
d="M580 1288q26 -59 26 -143q0 -76 -26 -139q-31 -70 -96.5 -109t-153.5 -39q-92 0 -160 46.5t-98 125.5q-14 37 -17 82q-1 15 7.5 24t23.5 9h94q30 0 33 -31q3 -24 10 -45q11 -34 40 -55t67 -21q68 0 98 56q23 44 23 100q0 61 -25 106q-27 56 -96 56q-22 0 -41 -8
q-28 -12 -45 8l-43 53q-19 26 2 47l182 168q6 5 4 9.5t-10 4.5h-277q-32 0 -32 33v70q0 33 32 33h463q15 0 24 -9t9 -24v-78q0 -25 -16 -41l-160 -158q-10 -10 8 -14q97 -19 150 -117z" />
    <glyph glyph-name="acute" unicode="&#xb4;" horiz-adv-x="466" 
d="M92 1178q-19 0 -26 11t2 28l106 194q13 23 39 23h162q20 0 25.5 -11t-5.5 -28l-131 -197q-12 -20 -39 -20h-133z" />
    <glyph glyph-name="uni00B5" unicode="&#xb5;" horiz-adv-x="1124" 
d="M758 1014q0 15 9 24t24 9h170q32 0 32 -33v-981q0 -33 -32 -33h-170q-15 0 -24 9t-9 24v53q0 8 -5 9.5t-10 -5.5q-81 -104 -249 -104q-63 0 -115 14q-14 4 -14 -10v-367q0 -15 -9 -24t-24 -9h-172q-15 0 -24 9t-9 24v1391q0 15 9 24t24 9h172q15 0 24 -9t9 -24v-615
q0 -97 49.5 -154t140.5 -57q92 0 147.5 58t55.5 153v615z" />
    <glyph glyph-name="paragraph" unicode="&#xb6;" horiz-adv-x="1245" 
d="M545 1434h528q15 0 24 -9t9 -24v-1778q0 -15 -9 -24t-24 -9h-110q-15 0 -24 9t-9 24v1628q0 13 -12 13h-216q-12 0 -12 -13v-1628q0 -15 -9 -24t-24 -9h-112q-15 0 -24 9t-9 24v877q0 12 -12 12q-195 17 -318 144t-123 317q0 201 134 331t352 130z" />
    <glyph glyph-name="periodcentered" unicode="&#xb7;" horiz-adv-x="331" 
d="M143 -2q-71 0 -117 45.5t-46 112.5q0 63 49.5 109t113.5 46q66 0 117 -46t51 -109q0 -66 -48 -112t-120 -46z" />
    <glyph glyph-name="cedilla" unicode="&#xb8;" horiz-adv-x="325" 
d="M27 -375q-26 9 -23 39l10 64q6 30 39 24q40 -10 71 3t40 48q16 68 -84 158q-19 15 -15 27t27 12h80q24 0 41 -14q138 -115 106 -248q-14 -51 -48.5 -81.5t-78.5 -39t-85.5 -6t-79.5 13.5z" />
    <glyph glyph-name="uni00B9" unicode="&#xb9;" horiz-adv-x="389" 
d="M139 1722q21 9 39 9h105q32 0 32 -33v-795q0 -33 -32 -33h-93q-32 0 -32 33v676q0 13 -13 10l-45 -6q-15 -3 -24.5 4.5t-9.5 24.5v53q0 25 24 37z" />
    <glyph glyph-name="ordmasculine" unicode="&#xba;" horiz-adv-x="733" 
d="M367 748q-97 0 -169 51t-106 143q-26 62 -26 158q0 98 24 160q32 91 105 140.5t174 49.5q94 0 164 -49.5t104 -138.5q25 -70 25 -160q0 -87 -25 -160q-34 -92 -105 -143t-165 -51zM367 879q42 0 76 26.5t49 73.5q16 56 16 121q0 76 -14 119q-17 47 -51 73.5t-78 26.5
q-92 0 -129 -100q-17 -53 -17 -119q0 -55 17 -121q13 -47 48 -73.5t83 -26.5zM86 485q-15 0 -24 9t-9 24v88q0 15 9 24t24 9h563q15 0 24 -9t9 -24v-88q0 -15 -9 -24t-24 -9h-563z" />
    <glyph glyph-name="guillemotright" unicode="&#xbb;" horiz-adv-x="1064" 
d="M197 219q-20 0 -26 11t5 28l209 309q6 9 0 17l-209 309q-11 17 -5 28t26 11h155q26 0 39 -21l209 -313q16 -22 0 -45l-209 -313q-13 -21 -39 -21h-155zM539 219q-20 0 -26 11t5 28l209 309q6 9 0 17l-209 309q-11 17 -5 28t26 11h155q26 0 39 -21l209 -313q16 -22 0 -45
l-209 -313q-13 -21 -39 -21h-155z" />
    <glyph glyph-name="onequarter" unicode="&#xbc;" horiz-adv-x="1662" 
d="M315 606q0 -33 -32 -33h-93q-32 0 -32 33v676q0 13 -13 10l-45 -6q-15 -3 -24.5 4.5t-9.5 24.5v53q0 25 24 37l49 20q21 9 39 9h105q32 0 32 -33v-795zM1047 1411q13 23 38 23h103q19 0 25 -11t-3 -28l-821 -1372q-13 -23 -39 -23h-104q-19 0 -24.5 11t3.5 28zM1569 362
q33 0 33 -32v-76q0 -15 -9 -24t-24 -9h-27q-12 0 -12 -12v-176q0 -15 -9 -24t-24 -9h-90q-15 0 -24 9t-9 24v176q0 12 -12 12h-352q-15 0 -24 9t-9 24v61q0 23 8 39l217 482q11 24 37 24h96q19 0 25.5 -10t-0.5 -29l-199 -444q-6 -15 10 -15h191q12 0 12 13v137q0 15 9 24
t24 9h90q15 0 24 -9t9 -24v-137q0 -13 12 -13h27z" />
    <glyph glyph-name="onehalf" unicode="&#xbd;" horiz-adv-x="1622" 
d="M315 606q0 -33 -32 -33h-93q-32 0 -32 33v676q0 13 -13 10l-45 -6q-15 -3 -24.5 4.5t-9.5 24.5v53q0 25 24 37l49 20q21 9 39 9h105q32 0 32 -33v-795zM1047 1411q13 23 38 23h103q19 0 25 -11t-3 -28l-821 -1372q-13 -23 -39 -23h-104q-19 0 -24.5 11t3.5 28zM1221 150
q-6 -4 -4 -9.5t10 -5.5h309q15 0 24 -9t9 -24v-69q0 -15 -9 -24t-24 -9h-504q-15 0 -24 9t-9 24v78q0 22 17 39q105 109 262 286q115 128 115 193q0 46 -33.5 76t-87.5 30t-87 -30.5t-32 -79.5v-13q0 -32 -33 -32h-92q-33 0 -33 32v37q4 100 82 160.5t195 60.5
q126 0 201 -68t75 -171q0 -98 -102 -228q-15 -20 -33.5 -42.5t-33 -38.5t-39.5 -43.5t-36 -40t-42.5 -45.5t-40.5 -43z" />
    <glyph glyph-name="threequarters" unicode="&#xbe;" horiz-adv-x="1855" 
d="M580 719q-31 -70 -96.5 -109t-153.5 -39q-92 0 -160 46.5t-98 125.5q-14 37 -17 82q-1 15 7.5 24t23.5 9h94q30 0 33 -31q3 -24 10 -45q11 -34 40 -54.5t67 -20.5q68 0 98 55q23 44 23 100q0 62 -25 107q-27 55 -96 55q-22 0 -41 -8q-28 -12 -45 8l-43 53q-19 26 2 47
l182 168q6 4 4 9.5t-10 5.5h-277q-32 0 -32 32v70q0 33 32 33h463q15 0 24 -9t9 -24v-78q0 -25 -16 -41l-160 -157q-11 -11 6 -15q101 -19 152 -117q26 -59 26 -143q0 -76 -26 -139zM1239 1411q13 23 39 23h102q19 0 25.5 -11t-2.5 -28l-821 -1372q-13 -23 -39 -23h-105
q-19 0 -24 11t4 28zM1761 362q33 0 33 -32v-76q0 -15 -9 -24t-24 -9h-26q-13 0 -13 -12v-176q0 -33 -32 -33h-91q-32 0 -32 33v176q0 12 -13 12h-352q-15 0 -24 9t-9 24v61q0 21 9 39l217 482q11 24 37 24h96q40 0 24 -39l-198 -444q-6 -15 10 -15h190q13 0 13 13v137
q0 33 32 33h91q32 0 32 -33v-137q0 -13 13 -13h26z" />
    <glyph glyph-name="questiondown" unicode="&#xbf;" horiz-adv-x="1024" 
d="M539 1026q64 0 108.5 -42.5t44.5 -104.5t-45.5 -105t-109.5 -43q-62 0 -109 43.5t-47 104.5t47 104t111 43zM635 586q15 0 24 -9t9 -24v-76q0 -57 -19.5 -104.5t-51 -80.5t-69.5 -63t-76.5 -57.5t-70 -56.5t-51 -68t-19.5 -84q0 -79 55 -127.5t146 -48.5q94 0 151.5 51
t57.5 131v35q0 15 9 23.5t24 7.5l172 -8q15 -1 23.5 -10t8.5 -21v-27q0 -178 -125.5 -288.5t-326.5 -110.5q-198 0 -317 105.5t-119 279.5q0 69 20 127t51.5 96.5t70 71t77 59.5t70 53t51.5 59t20 71v61q0 15 9 24t24 9h172z" />
    <glyph glyph-name="Agrave" unicode="&#xc0;" horiz-adv-x="1327" 
d="M743 1604q9 -17 2 -28t-26 -11h-133q-26 0 -39 20l-131 197q-11 17 -5.5 28t25.5 11h162q26 0 39 -23zM1047 0q-28 0 -37 27l-64 211q-2 10 -14 10h-537q-11 0 -14 -10l-64 -211q-9 -27 -36 -27h-187q-36 0 -26 37l438 1370q9 27 37 27h239q28 0 37 -27l441 -1370
q5 -17 -2.5 -27t-24.5 -10h-186zM444 449q-3 -15 11 -15h417q14 0 11 15l-211 696q-3 7 -8.5 7t-8.5 -7z" />
    <glyph glyph-name="Aacute" unicode="&#xc1;" horiz-adv-x="1327" 
d="M858 1821q20 0 26 -11t-5 -28l-131 -197q-13 -20 -39 -20h-134q-19 0 -26 11t2 28l106 194q13 23 39 23h162zM1047 0q-28 0 -37 27l-64 211q-2 10 -14 10h-537q-11 0 -14 -10l-64 -211q-9 -27 -36 -27h-187q-36 0 -26 37l438 1370q9 27 37 27h239q28 0 37 -27l441 -1370
q5 -17 -2.5 -27t-24.5 -10h-186zM444 449q-3 -15 11 -15h417q14 0 11 15l-211 696q-3 7 -8.5 7t-8.5 -7z" />
    <glyph glyph-name="Acircumflex" unicode="&#xc2;" horiz-adv-x="1327" 
d="M668 1708q-3 4 -8.5 4t-8.5 -4l-90 -131q-15 -21 -39 -21h-121q-20 0 -26 12t6 27l149 201q15 21 39 21h176q21 0 39 -21l152 -199q12 -15 5.5 -28t-26.5 -13h-118q-24 0 -39 21zM1047 0q-28 0 -37 27l-64 211q-2 10 -14 10h-537q-11 0 -14 -10l-64 -211q-9 -27 -36 -27
h-187q-36 0 -26 37l438 1370q9 27 37 27h239q28 0 37 -27l441 -1370q5 -17 -2.5 -27t-24.5 -10h-186zM444 449q-3 -15 11 -15h417q14 0 11 15l-211 696q-3 7 -8.5 7t-8.5 -7z" />
    <glyph glyph-name="Atilde" unicode="&#xc3;" horiz-adv-x="1327" 
d="M580 1661q-51 0 -82 -39q-19 -29 -45 -10l-56 41q-27 17 -12 43q30 61 76.5 92t101.5 31q25 0 49.5 -7.5t40 -15.5t41.5 -24q63 -39 99 -39q48 0 77 41q23 29 48 10l55 -37q26 -17 10 -45q-33 -63 -84.5 -95t-101.5 -32q-26 0 -53.5 9t-41 17t-38.5 25q-49 35 -84 35z
M1047 0q-28 0 -37 27l-64 211q-2 10 -14 10h-537q-11 0 -14 -10l-64 -211q-9 -27 -36 -27h-187q-36 0 -26 37l438 1370q9 27 37 27h239q28 0 37 -27l441 -1370q5 -17 -2.5 -27t-24.5 -10h-186zM444 449q-3 -15 11 -15h417q14 0 11 15l-211 696q-3 7 -8.5 7t-8.5 -7z" />
    <glyph glyph-name="Adieresis" unicode="&#xc4;" horiz-adv-x="1327" 
d="M473 1577q-57 0 -93 35t-36 92t36 92t93 35q56 0 90.5 -35t34.5 -92t-34.5 -92t-90.5 -35zM848 1577q-57 0 -92 35t-35 92t35 92t92 35t92 -35t35 -92t-35 -92t-92 -35zM1047 0q-28 0 -37 27l-64 211q-2 10 -14 10h-537q-11 0 -14 -10l-64 -211q-9 -27 -36 -27h-187
q-36 0 -26 37l438 1370q9 27 37 27h239q28 0 37 -27l441 -1370q5 -17 -2.5 -27t-24.5 -10h-186zM444 449q-3 -15 11 -15h417q14 0 11 15l-211 696q-3 7 -8.5 7t-8.5 -7z" />
    <glyph glyph-name="Aring" unicode="&#xc5;" horiz-adv-x="1327" 
d="M659 1540q-94 0 -158.5 64.5t-64.5 156.5q0 94 64.5 157.5t158.5 63.5t159 -64t65 -157q0 -92 -65 -156.5t-159 -64.5zM659 1872q-46 0 -78 -32t-32 -79q0 -46 32 -77t78 -31q45 0 78 31.5t33 76.5q0 47 -33 79t-78 32zM1047 0q-28 0 -37 27l-64 211q-2 10 -14 10h-537
q-11 0 -14 -10l-64 -211q-9 -27 -36 -27h-187q-36 0 -26 37l438 1370q9 27 37 27h239q28 0 37 -27l441 -1370q5 -17 -2.5 -27t-24.5 -10h-186zM444 449q-3 -15 11 -15h417q14 0 11 15l-211 696q-3 7 -8.5 7t-8.5 -7z" />
    <glyph glyph-name="AE" unicode="&#xc6;" horiz-adv-x="1937" 
d="M1845 1262q0 -15 -9 -24t-24 -9h-655q-12 0 -12 -12v-379q0 -13 12 -13h426q33 0 33 -32v-140q0 -32 -33 -32h-426q-12 0 -12 -13v-391q0 -12 12 -12h655q15 0 24 -9t9 -24v-139q0 -15 -9 -24t-24 -9h-872q-15 0 -24 9t-9 24v203q0 12 -12 12h-442q-12 0 -15 -8
l-108 -215q-12 -25 -39 -25h-193q-19 0 -25 11t3 28l702 1370q12 25 39 25h995q15 0 24 -9t9 -24v-139zM545 449q-6 -15 8 -15h342q12 0 12 12v689q0 9 -4.5 11t-9.5 -7z" />
    <glyph glyph-name="Ccedilla" unicode="&#xc7;" horiz-adv-x="1245" 
d="M1141 979q0 -11 -31 -14l-174 -11q-14 -1 -23.5 2.5t-9.5 8.5v12q0 122 -75 195t-199 73q-125 0 -201 -73.5t-76 -194.5v-522q0 -120 76.5 -193.5t200.5 -73.5t199 73.5t75 193.5q0 11 9 17t24 5l172 -8q33 -3 33 -10v-10q0 -196 -124.5 -322t-330.5 -141q-19 -4 -6 -17
q109 -103 80 -221q-14 -51 -48.5 -81.5t-78.5 -39t-86 -6t-80 13.5q-26 9 -23 39l11 64q6 30 39 24q40 -9 70.5 4t39.5 48q19 78 -112 180q-6 3 -15 6q-168 40 -265 163t-97 302v506q0 217 141 348t373 131q230 0 371 -127t141 -334v-10z" />
    <glyph glyph-name="Egrave" unicode="&#xc8;" horiz-adv-x="1212" 
d="M713 1628q9 -17 1.5 -28t-26.5 -11h-133q-26 0 -39 21l-131 196q-11 17 -5 28t26 11h161q26 0 39 -22zM1120 1262q0 -15 -9 -24t-24 -9h-688q-12 0 -12 -12v-379q0 -13 12 -13h459q33 0 33 -32v-140q0 -32 -33 -32h-459q-12 0 -12 -13v-391q0 -12 12 -12h688q15 0 24 -9
t9 -24v-139q0 -15 -9 -24t-24 -9h-905q-32 0 -32 33v1368q0 33 32 33h905q15 0 24 -9t9 -24v-139z" />
    <glyph glyph-name="Eacute" unicode="&#xc9;" horiz-adv-x="1212" 
d="M827 1845q20 0 26 -11t-5 -28l-131 -196q-13 -21 -39 -21h-133q-19 0 -26.5 11t1.5 28l107 195q13 22 39 22h161zM1120 1262q0 -15 -9 -24t-24 -9h-688q-12 0 -12 -12v-379q0 -13 12 -13h459q33 0 33 -32v-140q0 -32 -33 -32h-459q-12 0 -12 -13v-391q0 -12 12 -12h688
q15 0 24 -9t9 -24v-139q0 -15 -9 -24t-24 -9h-905q-32 0 -32 33v1368q0 33 32 33h905q15 0 24 -9t9 -24v-139z" />
    <glyph glyph-name="Ecircumflex" unicode="&#xca;" horiz-adv-x="1212" 
d="M637 1733q-3 5 -8 5t-8 -5l-91 -131q-15 -21 -38 -21h-121q-20 0 -26.5 12t5.5 27l150 201q14 20 39 20h176q22 0 39 -20l151 -199q12 -15 6 -28t-26 -13h-119q-24 0 -39 21zM1120 1262q0 -15 -9 -24t-24 -9h-688q-12 0 -12 -12v-379q0 -13 12 -13h459q33 0 33 -32v-140
q0 -32 -33 -32h-459q-12 0 -12 -13v-391q0 -12 12 -12h688q15 0 24 -9t9 -24v-139q0 -15 -9 -24t-24 -9h-905q-32 0 -32 33v1368q0 33 32 33h905q15 0 24 -9t9 -24v-139z" />
    <glyph glyph-name="Edieresis" unicode="&#xcb;" horiz-adv-x="1212" 
d="M442 1602q-57 0 -93 35t-36 92t36 91.5t93 34.5q56 0 90.5 -34.5t34.5 -91.5t-34.5 -92t-90.5 -35zM817 1602q-57 0 -92 35t-35 92t35 91.5t92 34.5t92 -34.5t35 -91.5t-35 -92t-92 -35zM1120 1262q0 -15 -9 -24t-24 -9h-688q-12 0 -12 -12v-379q0 -13 12 -13h459
q33 0 33 -32v-140q0 -32 -33 -32h-459q-12 0 -12 -13v-391q0 -12 12 -12h688q15 0 24 -9t9 -24v-139q0 -15 -9 -24t-24 -9h-905q-32 0 -32 33v1368q0 33 32 33h905q15 0 24 -9t9 -24v-139z" />
    <glyph glyph-name="Igrave" unicode="&#xcc;" horiz-adv-x="536" 
d="M352 1628q9 -17 2 -28t-26 -11h-133q-26 0 -39 21l-131 196q-11 17 -5.5 28t25.5 11h162q26 0 39 -22zM182 0q-32 0 -32 33v1368q0 33 32 33h172q15 0 24 -9t9 -24v-1368q0 -15 -9 -24t-24 -9h-172z" />
    <glyph glyph-name="Iacute" unicode="&#xcd;" horiz-adv-x="536" 
d="M184 1589q-19 0 -26 11t2 28l106 195q13 22 39 22h162q20 0 25.5 -11t-5.5 -28l-131 -196q-13 -21 -39 -21h-133zM182 0q-32 0 -32 33v1368q0 33 32 33h172q15 0 24 -9t9 -24v-1368q0 -15 -9 -24t-24 -9h-172z" />
    <glyph glyph-name="Icircumflex" unicode="&#xce;" horiz-adv-x="536" 
d="M10 1581q-20 0 -26 12t6 27l149 201q14 20 39 20h176q22 0 39 -20l152 -199q12 -15 5.5 -28t-26.5 -13h-118q-24 0 -39 21l-91 131q-3 5 -8 5t-8 -5l-90 -131q-15 -21 -39 -21h-121zM182 0q-32 0 -32 33v1368q0 33 32 33h172q15 0 24 -9t9 -24v-1368q0 -15 -9 -24t-24 -9
h-172z" />
    <glyph glyph-name="Idieresis" unicode="&#xcf;" horiz-adv-x="536" 
d="M82 1602q-57 0 -93 35t-36 92t36 91.5t93 34.5q56 0 90.5 -34.5t34.5 -91.5t-34.5 -92t-90.5 -35zM457 1602q-57 0 -92 35t-35 92t35 91.5t92 34.5t92 -34.5t35 -91.5t-35 -92t-92 -35zM182 0q-32 0 -32 33v1368q0 33 32 33h172q15 0 24 -9t9 -24v-1368q0 -15 -9 -24
t-24 -9h-172z" />
    <glyph glyph-name="Eth" unicode="&#xd0;" horiz-adv-x="1380" 
d="M788 1434q222 0 355 -114t133 -306v-594q0 -192 -133 -306t-355 -114h-491q-15 0 -24 9t-9 24v614q0 12 -12 12h-70q-32 0 -32 33v99q0 32 32 32h70q12 0 12 13v565q0 15 9 24t24 9h491zM1038 457v518q0 117 -65.5 185.5t-175.5 68.5h-283q-12 0 -12 -12v-381
q0 -13 12 -13h178q33 0 33 -32v-99q0 -15 -9 -24t-24 -9h-178q-12 0 -12 -12v-430q0 -12 12 -12h285q107 0 172.5 68.5t66.5 183.5z" />
    <glyph glyph-name="Ntilde" unicode="&#xd1;" horiz-adv-x="1359" 
d="M805 1599q-26 0 -53.5 9.5t-40 17t-39.5 25.5q-49 35 -84 35q-51 0 -82 -39q-20 -30 -45 -11l-55 41q-27 17 -13 43q30 61 76.5 92t101.5 31q25 0 49.5 -7.5t40 -15.5t41.5 -24q63 -39 99 -39q49 0 78 41q22 29 47 10l55 -36q26 -17 2 -60q-35 -56 -83 -84.5t-95 -28.5z
M182 0q-32 0 -32 33v1368q0 33 32 33h164q28 0 41 -23l574 -938q5 -8 9.5 -6.5t4.5 10.5v924q0 15 9 24t24 9h172q32 0 32 -33v-1368q0 -33 -32 -33h-168q-28 0 -41 23l-574 944q-5 8 -9.5 6.5t-4.5 -10.5l2 -930q0 -33 -33 -33h-170z" />
    <glyph glyph-name="Ograve" unicode="&#xd2;" horiz-adv-x="1271" 
d="M719 1620q9 -17 1.5 -28t-26.5 -11h-133q-26 0 -39 21l-131 196q-11 17 -5 28t26 11h161q26 0 39 -22zM635 -20q-234 0 -377 138t-143 365v467q0 224 143.5 362t376.5 138q235 0 378.5 -138t143.5 -362v-467q0 -227 -143.5 -365t-378.5 -138zM635 184q129 0 207 79.5
t78 211.5v477q0 132 -78 212.5t-207 80.5q-127 0 -205 -80.5t-78 -212.5v-477q0 -132 77.5 -211.5t205.5 -79.5z" />
    <glyph glyph-name="Oacute" unicode="&#xd3;" horiz-adv-x="1271" 
d="M551 1581q-19 0 -26.5 11t1.5 28l107 195q13 22 39 22h162q20 0 25.5 -11t-5.5 -28l-131 -196q-13 -21 -39 -21h-133zM635 -20q-234 0 -377 138t-143 365v467q0 224 143.5 362t376.5 138q235 0 378.5 -138t143.5 -362v-467q0 -227 -143.5 -365t-378.5 -138zM635 184
q129 0 207 79.5t78 211.5v477q0 132 -78 212.5t-207 80.5q-127 0 -205 -80.5t-78 -212.5v-477q0 -132 77.5 -211.5t205.5 -79.5z" />
    <glyph glyph-name="Ocircumflex" unicode="&#xd4;" horiz-adv-x="1271" 
d="M377 1573q-20 0 -26.5 12t5.5 27l150 200q15 21 39 21h176q21 0 39 -21l151 -198q12 -15 6 -28t-26 -13h-119q-25 0 -39 20l-90 131q-3 4 -8 4t-8 -4l-90 -131q-14 -20 -39 -20h-121zM635 -20q-234 0 -377 138t-143 365v467q0 224 143.5 362t376.5 138q235 0 378.5 -138
t143.5 -362v-467q0 -227 -143.5 -365t-378.5 -138zM635 184q129 0 207 79.5t78 211.5v477q0 132 -78 212.5t-207 80.5q-127 0 -205 -80.5t-78 -212.5v-477q0 -132 77.5 -211.5t205.5 -79.5z" />
    <glyph glyph-name="Otilde" unicode="&#xd5;" horiz-adv-x="1271" 
d="M772 1591q-26 0 -53.5 9t-41 17t-38.5 25q-49 35 -84 35q-51 0 -82 -39q-19 -29 -45 -10l-55 41q-27 17 -13 43q30 61 77 92t102 31q25 0 49.5 -7.5t40 -15.5t41.5 -24q63 -39 98 -39q49 0 78 41q22 29 47 10l55 -37q25 -17 2 -59q-35 -56 -83 -84.5t-95 -28.5zM635 -20
q-234 0 -377 138t-143 365v467q0 224 143.5 362t376.5 138q235 0 378.5 -138t143.5 -362v-467q0 -227 -143.5 -365t-378.5 -138zM635 184q129 0 207 79.5t78 211.5v477q0 132 -78 212.5t-207 80.5q-127 0 -205 -80.5t-78 -212.5v-477q0 -132 77.5 -211.5t205.5 -79.5z" />
    <glyph glyph-name="Odieresis" unicode="&#xd6;" horiz-adv-x="1271" 
d="M449 1593q-57 0 -93.5 35t-36.5 92t36.5 92t93.5 35q56 0 90 -35t34 -92t-34 -92t-90 -35zM823 1593q-57 0 -92 35t-35 92t35 92t92 35t92 -35t35 -92t-35 -92t-92 -35zM635 -20q-234 0 -377 138t-143 365v467q0 224 143.5 362t376.5 138q235 0 378.5 -138t143.5 -362
v-467q0 -227 -143.5 -365t-378.5 -138zM635 184q129 0 207 79.5t78 211.5v477q0 132 -78 212.5t-207 80.5q-127 0 -205 -80.5t-78 -212.5v-477q0 -132 77.5 -211.5t205.5 -79.5z" />
    <glyph glyph-name="multiply" unicode="&#xd7;" horiz-adv-x="894" 
d="M809 903q23 -23 0 -45l-207 -205q-8 -8 0 -16l203 -203q23 -22 0 -45l-98 -98q-23 -23 -45 0l-203 203q-9 8 -17 0l-206 -207q-23 -23 -46 0l-98 100q-22 23 0 45l207 207q8 8 0 16l-209 207q-22 22 0 45l98 99q22 22 45 0l209 -207q3 -3 8.5 -3t8.5 3l205 205
q22 22 45 0z" />
    <glyph glyph-name="Oslash" unicode="&#xd8;" horiz-adv-x="1286" 
d="M1008 1346q-4 -12 4 -17q159 -140 159 -379v-467q0 -227 -143.5 -365t-378.5 -138q-153 0 -280 65q-10 7 -17 -4l-49 -100q-13 -25 -39 -25h-92q-19 0 -26 11t1 28l93 184q3 9 -2 17q-109 131 -109 327v467q0 224 143.5 362t376.5 138q119 0 217 -37q12 -4 17 6l41 84
q12 25 39 25h94q19 0 25.5 -11t-1.5 -28zM367 475q0 -31 2 -45q1 -6 4 -8t6.5 -0.5t5.5 6.5l389 778q3 4 1.5 10t-7.5 7q-55 22 -119 22q-127 0 -204.5 -80.5t-77.5 -212.5v-477zM934 475v477q0 89 -33 148q-3 8 -8 8t-8 -8l-422 -840q-4 -11 4 -16q76 -60 182 -60
q129 0 207 79.5t78 211.5z" />
    <glyph glyph-name="Ugrave" unicode="&#xd9;" horiz-adv-x="1302" 
d="M735 1630q9 -17 2 -28t-26 -11h-133q-26 0 -39 21l-131 196q-11 17 -5.5 28t25.5 11h162q26 0 39 -22zM651 -16q-231 0 -372.5 131.5t-141.5 349.5v936q0 15 9 24t24 9h172q15 0 24 -9t9 -24v-940q0 -122 76 -197.5t200 -75.5t200.5 75.5t76.5 197.5v940q0 15 9 24t24 9
h172q32 0 32 -33v-936q0 -218 -141 -349.5t-373 -131.5z" />
    <glyph glyph-name="Uacute" unicode="&#xda;" horiz-adv-x="1302" 
d="M567 1591q-19 0 -26 11t2 28l106 195q13 22 39 22h162q20 0 25.5 -11t-5.5 -28l-131 -196q-13 -21 -39 -21h-133zM651 -16q-231 0 -372.5 131.5t-141.5 349.5v936q0 15 9 24t24 9h172q15 0 24 -9t9 -24v-940q0 -122 76 -197.5t200 -75.5t200.5 75.5t76.5 197.5v940
q0 15 9 24t24 9h172q32 0 32 -33v-936q0 -218 -141 -349.5t-373 -131.5z" />
    <glyph glyph-name="Ucircumflex" unicode="&#xdb;" horiz-adv-x="1302" 
d="M393 1583q-20 0 -26 12t6 27l149 201q14 20 39 20h176q22 0 39 -20l152 -199q12 -15 5.5 -28t-26.5 -13h-119q-23 0 -38 21l-91 131q-3 5 -8 5t-8 -5l-90 -131q-15 -21 -39 -21h-121zM651 -16q-231 0 -372.5 131.5t-141.5 349.5v936q0 15 9 24t24 9h172q15 0 24 -9t9 -24
v-940q0 -122 76 -197.5t200 -75.5t200.5 75.5t76.5 197.5v940q0 15 9 24t24 9h172q32 0 32 -33v-936q0 -218 -141 -349.5t-373 -131.5z" />
    <glyph glyph-name="Udieresis" unicode="&#xdc;" horiz-adv-x="1302" 
d="M465 1604q-57 0 -93 35t-36 92t36 92t93 35q56 0 90.5 -35t34.5 -92t-34.5 -92t-90.5 -35zM840 1604q-57 0 -92 35t-35 92t35 92t92 35t92 -35t35 -92t-35 -92t-92 -35zM651 -16q-231 0 -372.5 131.5t-141.5 349.5v936q0 15 9 24t24 9h172q15 0 24 -9t9 -24v-940
q0 -122 76 -197.5t200 -75.5t200.5 75.5t76.5 197.5v940q0 15 9 24t24 9h172q32 0 32 -33v-936q0 -218 -141 -349.5t-373 -131.5z" />
    <glyph glyph-name="Yacute" unicode="&#xdd;" horiz-adv-x="1226" 
d="M528 1565q-19 0 -26 11t2 28l106 194q13 23 39 23h162q20 0 25.5 -11t-5.5 -28l-131 -197q-12 -20 -38 -20h-134zM526 2q-32 0 -32 33v538q0 5 -5 15l-413 807q-9 17 -3 28t25 11h187q27 0 39 -25l280 -563q3 -6 8.5 -6t8.5 6l282 563q13 25 39 25h188q19 0 25.5 -11
t-2.5 -28l-418 -807q-4 -12 -4 -15v-538q0 -15 -9 -24t-24 -9h-172z" />
    <glyph glyph-name="Thorn" unicode="&#xde;" horiz-adv-x="1179" 
d="M686 1137q195 0 314.5 -117.5t119.5 -306.5q0 -185 -126 -300.5t-318 -115.5h-289q-12 0 -12 -12v-252q0 -15 -9 -24t-24 -9h-172q-15 0 -24 9t-9 24v1368q0 15 9 24t24 9h172q15 0 24 -9t9 -24v-252q0 -12 12 -12h299zM651 492q104 0 168 58t64 159q0 103 -64 163
t-168 60h-264q-12 0 -12 -12v-416q0 -12 12 -12h264z" />
    <glyph glyph-name="germandbls" unicode="&#xdf;" horiz-adv-x="1234" 
d="M162 2q-15 0 -24 9t-9 24v975q1 208 129.5 324t349.5 116q232 0 366.5 -103.5t135.5 -285.5q3 -195 -154 -281q-16 -6 0 -16q79 -42 126.5 -134.5t47.5 -215.5q0 -199 -136.5 -306.5t-407.5 -107.5h-88q-15 0 -24 9t-9 24v137q0 15 9 24t24 9h120q134 0 204.5 61
t70.5 172q0 114 -63.5 175.5t-186.5 62.5h-115q-32 0 -32 33v122q0 33 32 33h121q108 0 167 52.5t56 140.5q-2 87 -61.5 139.5t-183.5 52.5q-107 0 -183 -57.5t-77 -157.5v-999q0 -15 -9 -24t-24 -9z" />
    <glyph glyph-name="agrave" unicode="&#xe0;" horiz-adv-x="1069" 
d="M612 1233q9 -17 2 -28t-26 -11h-133q-27 0 -39 20l-131 197q-11 17 -5.5 28t25.5 11h162q26 0 39 -23zM526 1063q196 0 315.5 -97.5t119.5 -250.5v-682q0 -15 -9 -24t-24 -9h-172q-15 0 -24 9t-9 24v51q0 16 -14 6q-109 -106 -295 -106q-152 0 -249 78t-97 231
q0 159 111.5 248.5t314.5 89.5h217q12 0 12 12v47q0 80 -48 124t-143 44q-72 0 -119.5 -25.5t-62.5 -70.5q-9 -30 -37 -27l-184 23q-15 2 -23.5 9t-7.5 17q19 123 136 201t292 78zM479 172q100 0 172 53t72 135v95q0 12 -12 12h-170q-109 0 -172.5 -41.5t-63.5 -116.5
q0 -65 48.5 -101t125.5 -36z" />
    <glyph glyph-name="aacute" unicode="&#xe1;" horiz-adv-x="1069" 
d="M727 1450q20 0 26 -11t-5 -28l-132 -197q-12 -20 -38 -20h-134q-19 0 -26 11t2 28l106 194q13 23 39 23h162zM526 1063q196 0 315.5 -97.5t119.5 -250.5v-682q0 -15 -9 -24t-24 -9h-172q-15 0 -24 9t-9 24v51q0 16 -14 6q-109 -106 -295 -106q-152 0 -249 78t-97 231
q0 159 111.5 248.5t314.5 89.5h217q12 0 12 12v47q0 80 -48 124t-143 44q-72 0 -119.5 -25.5t-62.5 -70.5q-9 -30 -37 -27l-184 23q-15 2 -23.5 9t-7.5 17q19 123 136 201t292 78zM479 172q100 0 172 53t72 135v95q0 12 -12 12h-170q-109 0 -172.5 -41.5t-63.5 -116.5
q0 -65 48.5 -101t125.5 -36z" />
    <glyph glyph-name="acircumflex" unicode="&#xe2;" horiz-adv-x="1069" 
d="M270 1186q-20 0 -26 12t6 27l149 200q15 21 39 21h176q22 0 39 -21l152 -198q12 -15 5.5 -28t-26.5 -13h-118q-25 0 -39 20l-90 131q-3 5 -8.5 5t-8.5 -5l-90 -131q-14 -20 -39 -20h-121zM526 1063q196 0 315.5 -97.5t119.5 -250.5v-682q0 -15 -9 -24t-24 -9h-172
q-15 0 -24 9t-9 24v51q0 16 -14 6q-109 -106 -295 -106q-152 0 -249 78t-97 231q0 159 111.5 248.5t314.5 89.5h217q12 0 12 12v47q0 80 -48 124t-143 44q-72 0 -119.5 -25.5t-62.5 -70.5q-9 -30 -37 -27l-184 23q-15 2 -23.5 9t-7.5 17q19 123 136 201t292 78zM479 172
q100 0 172 53t72 135v95q0 12 -12 12h-170q-109 0 -172.5 -41.5t-63.5 -116.5q0 -65 48.5 -101t125.5 -36z" />
    <glyph glyph-name="atilde" unicode="&#xe3;" horiz-adv-x="1069" 
d="M666 1204q-26 0 -53.5 9t-41.5 17.5t-39 24.5q-49 35 -83 35q-51 0 -82 -39q-19 -29 -45 -10l-56 41q-27 17 -12 43q30 61 76.5 92t101.5 31q25 0 49.5 -7.5t40 -15.5t41.5 -24q63 -39 99 -39q48 0 77 41q22 29 47 10l56 -37q25 -17 2 -59q-35 -56 -83 -84.5t-95 -28.5z
M526 1063q196 0 315.5 -97.5t119.5 -250.5v-682q0 -15 -9 -24t-24 -9h-172q-15 0 -24 9t-9 24v51q0 16 -14 6q-109 -106 -295 -106q-152 0 -249 78t-97 231q0 159 111.5 248.5t314.5 89.5h217q12 0 12 12v47q0 80 -48 124t-143 44q-72 0 -119.5 -25.5t-62.5 -70.5
q-9 -30 -37 -27l-184 23q-15 2 -23.5 9t-7.5 17q19 123 136 201t292 78zM479 172q100 0 172 53t72 135v95q0 12 -12 12h-170q-109 0 -172.5 -41.5t-63.5 -116.5q0 -65 48.5 -101t125.5 -36z" />
    <glyph glyph-name="adieresis" unicode="&#xe4;" horiz-adv-x="1069" 
d="M342 1206q-57 0 -93 35t-36 92t36 92t93 35q56 0 90.5 -35t34.5 -92t-34.5 -92t-90.5 -35zM717 1206q-57 0 -92 35t-35 92t35 92t92 35t92 -35t35 -92t-35 -92t-92 -35zM526 1063q196 0 315.5 -97.5t119.5 -250.5v-682q0 -15 -9 -24t-24 -9h-172q-15 0 -24 9t-9 24v51
q0 16 -14 6q-109 -106 -295 -106q-152 0 -249 78t-97 231q0 159 111.5 248.5t314.5 89.5h217q12 0 12 12v47q0 80 -48 124t-143 44q-72 0 -119.5 -25.5t-62.5 -70.5q-9 -30 -37 -27l-184 23q-15 2 -23.5 9t-7.5 17q19 123 136 201t292 78zM479 172q100 0 172 53t72 135v95
q0 12 -12 12h-170q-109 0 -172.5 -41.5t-63.5 -116.5q0 -65 48.5 -101t125.5 -36z" />
    <glyph glyph-name="aring" unicode="&#xe5;" horiz-adv-x="1069" 
d="M528 1169q-94 0 -158.5 64.5t-64.5 157.5q0 94 64.5 157.5t158.5 63.5t159 -64t65 -157q0 -92 -65 -157t-159 -65zM528 1282q45 0 78 32t33 77q0 46 -33 78t-78 32q-46 0 -78 -31.5t-32 -78.5q0 -46 32 -77.5t78 -31.5zM526 1063q196 0 315.5 -97.5t119.5 -250.5v-682
q0 -15 -9 -24t-24 -9h-172q-15 0 -24 9t-9 24v51q0 16 -14 6q-109 -106 -295 -106q-152 0 -249 78t-97 231q0 159 111.5 248.5t314.5 89.5h217q12 0 12 12v47q0 80 -48 124t-143 44q-72 0 -119.5 -25.5t-62.5 -70.5q-9 -30 -37 -27l-184 23q-15 2 -23.5 9t-7.5 17
q19 123 136 201t292 78zM479 172q100 0 172 53t72 135v95q0 12 -12 12h-170q-109 0 -172.5 -41.5t-63.5 -116.5q0 -65 48.5 -101t125.5 -36z" />
    <glyph glyph-name="ae" unicode="&#xe6;" horiz-adv-x="1714" 
d="M453 -16q-111 0 -195 29.5t-137 98t-53 171.5q0 152 111 241.5t313 89.5h217q12 0 12 13v51q0 82 -49.5 131t-147.5 49q-70 0 -119.5 -25.5t-66.5 -70.5q-9 -30 -37 -27l-174 23q-15 2 -23.5 12t-5.5 25q22 117 139 192.5t277 75.5q112 0 202.5 -47t131.5 -113
q8 -11 16 0q41 63 127.5 111.5t188.5 48.5q142 0 259 -81t156 -216q26 -88 29 -293q0 -35 -33 -35h-614q-12 0 -12 -12q0 -11 0.5 -18.5t1.5 -18t2 -22.5q12 -83 79.5 -125.5t168.5 -42.5q149 0 219 102q7 13 20 16t25 -6l98 -75q25 -19 10 -46q-56 -90 -160.5 -148
t-238.5 -58q-112 0 -203 44.5t-135 114.5q-9 9 -14 4q-48 -74 -151.5 -118.5t-233.5 -44.5zM963 627q0 -13 12 -13h399q12 0 12 13q-9 65 -12 75q-15 69 -68.5 112.5t-131.5 43.5q-76 0 -129.5 -43t-71.5 -113q-7 -26 -10 -75zM485 164q97 0 166.5 49.5t69.5 140.5v72
q0 12 -12 12h-170q-109 0 -171.5 -35t-62.5 -102q0 -62 49 -99.5t131 -37.5z" />
    <glyph glyph-name="ccedilla" unicode="&#xe7;" horiz-adv-x="1087" 
d="M770 334l2 10q2 10 14 21t25 8l170 -27q33 -7 27 -37q-4 -23 -9 -41q-33 -111 -124.5 -183.5t-219.5 -94.5q-7 0 -8.5 -5t4.5 -10q113 -107 84 -227q-14 -51 -48.5 -81.5t-78.5 -39t-86 -6t-80 13.5q-25 8 -22 39l10 64q6 30 39 24q40 -9 71 4t40 48q16 75 -105 174
q-8 4 -14 6q-120 23 -206 99t-124 190q-33 92 -33 245q0 145 33 242q43 135 158.5 214t273.5 79q160 0 279 -79.5t157 -201.5q8 -24 13 -57q5 -31 -27 -37l-170 -26q-30 -6 -37 24l-6 27q-14 62 -71 103.5t-138 41.5q-78 0 -132 -40t-73 -109q-20 -65 -20 -183
q0 -112 18 -182q21 -73 74 -114.5t133 -41.5q78 0 134 40t73 106z" />
    <glyph glyph-name="egrave" unicode="&#xe8;" horiz-adv-x="1110" 
d="M637 1233q9 -17 1.5 -28t-26.5 -11h-133q-27 0 -39 20l-131 197q-11 17 -5 28t26 11h162q25 0 38 -23zM596 184q150 6 223 113q19 29 45 10l99 -78q24 -21 8 -45q-60 -94 -162.5 -147t-235.5 -53q-162 0 -272 76.5t-158 213.5q-41 112 -41 254q0 139 23 217
q39 146 154 232t278 86q383 0 449 -420q11 -68 14 -168q0 -15 -9 -24t-24 -9h-635q-12 0 -12 -12q0 -56 12 -90q22 -73 86 -114.5t158 -41.5zM555 858q-77 0 -127.5 -38t-69.5 -105q-13 -42 -16 -86q-3 -13 10 -13h412q12 0 12 13q-8 60 -12 73q-19 72 -73.5 114t-135.5 42z
" />
    <glyph glyph-name="eacute" unicode="&#xe9;" horiz-adv-x="1110" 
d="M752 1450q20 0 25.5 -11t-5.5 -28l-131 -197q-13 -20 -39 -20h-133q-19 0 -26.5 11t1.5 28l107 194q13 23 39 23h162zM596 184q150 6 223 113q19 29 45 10l99 -78q24 -21 8 -45q-60 -94 -162.5 -147t-235.5 -53q-162 0 -272 76.5t-158 213.5q-41 112 -41 254
q0 139 23 217q39 146 154 232t278 86q383 0 449 -420q11 -68 14 -168q0 -15 -9 -24t-24 -9h-635q-12 0 -12 -12q0 -56 12 -90q22 -73 86 -114.5t158 -41.5zM555 858q-77 0 -127.5 -38t-69.5 -105q-13 -42 -16 -86q-3 -13 10 -13h412q12 0 12 13q-8 60 -12 73
q-19 72 -73.5 114t-135.5 42z" />
    <glyph glyph-name="ecircumflex" unicode="&#xea;" horiz-adv-x="1110" 
d="M561 1337q-3 5 -8 5t-8 -5l-90 -131q-14 -20 -39 -20h-121q-20 0 -26.5 12t5.5 27l150 200q15 21 39 21h176q21 0 39 -21l151 -198q12 -15 6 -28t-26 -13h-119q-25 0 -39 20zM596 184q150 6 223 113q19 29 45 10l99 -78q24 -21 8 -45q-60 -94 -162.5 -147t-235.5 -53
q-162 0 -272 76.5t-158 213.5q-41 112 -41 254q0 139 23 217q39 146 154 232t278 86q383 0 449 -420q11 -68 14 -168q0 -15 -9 -24t-24 -9h-635q-12 0 -12 -12q0 -56 12 -90q22 -73 86 -114.5t158 -41.5zM555 858q-77 0 -127.5 -38t-69.5 -105q-13 -42 -16 -86
q-3 -13 10 -13h412q12 0 12 13q-8 60 -12 73q-19 72 -73.5 114t-135.5 42z" />
    <glyph glyph-name="edieresis" unicode="&#xeb;" horiz-adv-x="1110" 
d="M367 1206q-57 0 -93 35t-36 92t36 92t93 35q56 0 90.5 -35t34.5 -92t-34.5 -92t-90.5 -35zM741 1206q-57 0 -92 35t-35 92t35 92t92 35t92 -35t35 -92t-35 -92t-92 -35zM596 184q150 6 223 113q19 29 45 10l99 -78q24 -21 8 -45q-60 -94 -162.5 -147t-235.5 -53
q-162 0 -272 76.5t-158 213.5q-41 112 -41 254q0 139 23 217q39 146 154 232t278 86q383 0 449 -420q11 -68 14 -168q0 -15 -9 -24t-24 -9h-635q-12 0 -12 -12q0 -56 12 -90q22 -73 86 -114.5t158 -41.5zM555 858q-77 0 -127.5 -38t-69.5 -105q-13 -42 -16 -86
q-3 -13 10 -13h412q12 0 12 13q-8 60 -12 73q-19 72 -73.5 114t-135.5 42z" />
    <glyph glyph-name="igrave" unicode="&#xec;" horiz-adv-x="479" 
d="M315 1239q9 -17 2 -28t-26 -11h-133q-26 0 -39 21l-131 196q-11 17 -5.5 28t25.5 11h162q26 0 39 -22zM152 0q-15 0 -24 9t-9 24v981q0 15 9 24t24 9h172q32 0 32 -33v-981q0 -33 -32 -33h-172z" />
    <glyph glyph-name="iacute" unicode="&#xed;" horiz-adv-x="479" 
d="M147 1200q-19 0 -26 11t2 28l106 195q13 22 39 22h162q20 0 26 -11t-5 -28l-132 -196q-13 -21 -38 -21h-134zM152 0q-15 0 -24 9t-9 24v981q0 15 9 24t24 9h172q32 0 32 -33v-981q0 -33 -32 -33h-172z" />
    <glyph glyph-name="icircumflex" unicode="&#xee;" horiz-adv-x="479" 
d="M-27 1192q-20 0 -26 12t6 27l149 201q14 20 39 20h176q22 0 39 -20l152 -199q12 -15 5.5 -28t-26.5 -13h-118q-25 0 -39 20l-90 131q-3 5 -8.5 5t-8.5 -5l-90 -131q-14 -20 -39 -20h-121zM152 0q-15 0 -24 9t-9 24v981q0 15 9 24t24 9h172q32 0 32 -33v-981
q0 -33 -32 -33h-172z" />
    <glyph glyph-name="idieresis" unicode="&#xef;" horiz-adv-x="563" 
d="M88 1212q-57 0 -93 35t-36 92t36 92t93 35q56 0 90.5 -35t34.5 -92t-34.5 -92t-90.5 -35zM463 1212q-57 0 -92 35t-35 92t35 92t92 35t92 -35t35 -92t-35 -92t-92 -35zM197 0q-15 0 -24 9t-9 24v981q0 15 9 24t24 9h172q32 0 32 -33v-981q0 -33 -32 -33h-172z" />
    <glyph glyph-name="eth" unicode="&#xf0;" horiz-adv-x="1097" 
d="M965 741q22 -105 22 -254q0 -144 -26 -229q-45 -123 -159.5 -198.5t-266.5 -75.5t-264.5 74t-157.5 200q-31 82 -31 227q0 143 31 228q27 84 90 142t151 77q68 23 168.5 20.5t157.5 -34.5q7 -3 9.5 -1.5t0.5 9.5q-41 99 -100 186q-6 10 -17 6l-190 -53q-30 -9 -39 22
l-18 68q-9 30 22 39l129 37q15 4 6 16q-51 58 -143 146q-15 15 -10.5 28t26.5 13h181q25 0 41 -19l104 -119q9 -8 16 -6l158 45q15 4 26.5 -2.5t14.5 -21.5l16 -66q6 -31 -22 -39l-96 -26q-15 -4 -7 -15q149 -211 177 -424zM729 313q19 59 19 166t-19 162q-19 68 -70 107.5
t-124 39.5t-124.5 -39.5t-70.5 -107.5q-18 -55 -18 -162q0 -113 20 -166q17 -68 68.5 -108.5t124.5 -40.5q72 0 123.5 40.5t70.5 108.5z" />
    <glyph glyph-name="ntilde" unicode="&#xf1;" horiz-adv-x="1114" 
d="M485 1274q-51 0 -82 -39q-19 -29 -45 -10l-55 41q-27 17 -12 43q30 61 76.5 92t101.5 31q25 0 50 -8t39.5 -15.5t41.5 -24.5q61 -38 98 -38q50 0 78 40q23 29 47 11l56 -37q26 -17 10 -45q-33 -63 -85 -95t-102 -32q-26 0 -53.5 9t-41 17t-38.5 25q-49 35 -84 35z
M629 1063q167 0 266.5 -99t99.5 -268v-663q0 -33 -32 -33h-172q-15 0 -24 9t-9 24v614q0 94 -54 152.5t-143 58.5q-88 0 -142 -57.5t-54 -151.5v-616q0 -15 -9 -24t-24 -9h-172q-15 0 -24 9t-9 24v981q0 15 9 24t24 9h172q15 0 24 -9t9 -24v-56q0 -8 3.5 -10t8.5 4
q86 111 252 111z" />
    <glyph glyph-name="ograve" unicode="&#xf2;" horiz-adv-x="1140" 
d="M653 1233q9 -17 2 -28t-26 -11h-133q-26 0 -39 20l-131 197q-11 17 -5.5 28t25.5 11h162q26 0 39 -23zM573 -16q-161 0 -278.5 82t-161.5 227q-35 100 -35 233q0 130 33 234q46 143 163 223t281 80q156 0 270 -80t161 -221q36 -95 36 -234q0 -132 -34 -233
q-46 -146 -161.5 -228.5t-273.5 -82.5zM573 188q75 0 129.5 43.5t77.5 120.5q23 68 23 172q0 97 -21 172q-23 77 -79 119.5t-134 42.5t-133 -42.5t-78 -119.5q-20 -72 -20 -172t20 -172q23 -77 79.5 -120.5t135.5 -43.5z" />
    <glyph glyph-name="oacute" unicode="&#xf3;" horiz-adv-x="1140" 
d="M485 1194q-19 0 -26 11t2 28l106 194q13 23 39 23h162q20 0 25.5 -11t-5.5 -28l-131 -197q-13 -20 -39 -20h-133zM573 -16q-161 0 -278.5 82t-161.5 227q-35 100 -35 233q0 130 33 234q46 143 163 223t281 80q156 0 270 -80t161 -221q36 -95 36 -234q0 -132 -34 -233
q-46 -146 -161.5 -228.5t-273.5 -82.5zM573 188q75 0 129.5 43.5t77.5 120.5q23 68 23 172q0 97 -21 172q-23 77 -79 119.5t-134 42.5t-133 -42.5t-78 -119.5q-20 -72 -20 -172t20 -172q23 -77 79.5 -120.5t135.5 -43.5z" />
    <glyph glyph-name="ocircumflex" unicode="&#xf4;" horiz-adv-x="1140" 
d="M311 1186q-20 0 -26 12t6 27l149 200q15 21 39 21h176q21 0 39 -21l152 -198q12 -15 5.5 -28t-26.5 -13h-118q-25 0 -39 20l-90 131q-3 5 -8.5 5t-8.5 -5l-90 -131q-14 -20 -39 -20h-121zM573 -16q-161 0 -278.5 82t-161.5 227q-35 100 -35 233q0 130 33 234
q46 143 163 223t281 80q156 0 270 -80t161 -221q36 -95 36 -234q0 -132 -34 -233q-46 -146 -161.5 -228.5t-273.5 -82.5zM573 188q75 0 129.5 43.5t77.5 120.5q23 68 23 172q0 97 -21 172q-23 77 -79 119.5t-134 42.5t-133 -42.5t-78 -119.5q-20 -72 -20 -172t20 -172
q23 -77 79.5 -120.5t135.5 -43.5z" />
    <glyph glyph-name="otilde" unicode="&#xf5;" horiz-adv-x="1140" 
d="M707 1204q-26 0 -53.5 9t-41.5 17.5t-39 24.5q-49 35 -84 35q-50 0 -81 -39q-20 -30 -46 -10l-55 41q-27 17 -12 43q30 61 76.5 92t101.5 31q25 0 49.5 -7.5t40 -15.5t41.5 -24q63 -39 98 -39q49 0 78 41q22 29 47 10l56 -37q25 -17 2 -59q-35 -56 -83 -84.5t-95 -28.5z
M573 -16q-161 0 -278.5 82t-161.5 227q-35 100 -35 233q0 130 33 234q46 143 163 223t281 80q156 0 270 -80t161 -221q36 -95 36 -234q0 -132 -34 -233q-46 -146 -161.5 -228.5t-273.5 -82.5zM573 188q75 0 129.5 43.5t77.5 120.5q23 68 23 172q0 97 -21 172
q-23 77 -79 119.5t-134 42.5t-133 -42.5t-78 -119.5q-20 -72 -20 -172t20 -172q23 -77 79.5 -120.5t135.5 -43.5z" />
    <glyph glyph-name="odieresis" unicode="&#xf6;" horiz-adv-x="1140" 
d="M383 1206q-57 0 -93 35t-36 92t36 92t93 35q56 0 90.5 -35t34.5 -92t-34.5 -92t-90.5 -35zM758 1206q-57 0 -92 35t-35 92t35 92t92 35t92 -35t35 -92t-35 -92t-92 -35zM573 -16q-161 0 -278.5 82t-161.5 227q-35 100 -35 233q0 130 33 234q46 143 163 223t281 80
q156 0 270 -80t161 -221q36 -95 36 -234q0 -132 -34 -233q-46 -146 -161.5 -228.5t-273.5 -82.5zM573 188q75 0 129.5 43.5t77.5 120.5q23 68 23 172q0 97 -21 172q-23 77 -79 119.5t-134 42.5t-133 -42.5t-78 -119.5q-20 -72 -20 -172t20 -172q23 -77 79.5 -120.5
t135.5 -43.5z" />
    <glyph glyph-name="divide" unicode="&#xf7;" horiz-adv-x="1005" 
d="M502 870q-54 0 -91.5 38.5t-37.5 92.5q0 51 37.5 89t91.5 38q52 0 90.5 -38t38.5 -89q0 -54 -38 -92.5t-91 -38.5zM98 545q-32 0 -32 33v139q0 33 32 33h807q15 0 24 -9t9 -24v-139q0 -15 -9 -24t-24 -9h-807zM502 193q-54 0 -91.5 37.5t-37.5 91.5q0 53 37.5 90t91.5 37
q53 0 91 -37.5t38 -89.5q0 -54 -38 -91.5t-91 -37.5z" />
    <glyph glyph-name="oslash" unicode="&#xf8;" horiz-adv-x="1157" 
d="M1020 762q37 -98 37 -234q0 -130 -35 -233q-46 -146 -161 -228.5t-273 -82.5q-137 0 -240 59q-9 6 -16 -4l-72 -105q-19 -25 -45 -6l-76 56q-27 20 -8 45l80 118q6 9 0 17q-41 53 -64 129q-34 98 -34 233q0 133 32 234q46 143 163.5 223t281.5 80q110 0 203 -41
q10 -3 16 6l61 90q19 25 45 6l76 -55q27 -20 8 -45l-63 -96q-6 -8 0 -17q57 -63 84 -149zM352 524q0 -62 10 -127q2 -8 7 -8.5t10 6.5l293 432q8 11 -4 17q-38 14 -84 14q-78 0 -133 -42.5t-78 -119.5q-21 -75 -21 -172zM795 352q22 65 22 172q0 100 -20 172q-2 7 -7 8
t-10 -6l-315 -460q-5 -11 4 -17q54 -33 119 -33q75 0 129.5 43.5t77.5 120.5z" />
    <glyph glyph-name="ugrave" unicode="&#xf9;" horiz-adv-x="1107" 
d="M631 1217q9 -17 1.5 -28t-26.5 -11h-133q-26 0 -39 20l-131 197q-11 17 -5 28t26 11h161q26 0 39 -23zM745 1014q0 15 9 24t24 9h170q15 0 24 -9t9 -24v-981q0 -15 -9 -24t-24 -9h-170q-15 0 -24 9t-9 24v53q0 8 -4.5 9.5t-9.5 -5.5q-81 -104 -250 -104q-156 0 -261 90.5
t-105 255.5v682q0 33 32 33h172q15 0 24 -9t9 -24v-615q0 -97 50 -154t141 -57q92 0 147 57.5t55 153.5v615z" />
    <glyph glyph-name="uacute" unicode="&#xfa;" horiz-adv-x="1107" 
d="M745 1434q20 0 26 -11t-5 -28l-131 -197q-13 -20 -39 -20h-133q-19 0 -26.5 11t1.5 28l107 194q13 23 39 23h161zM745 1014q0 15 9 24t24 9h170q15 0 24 -9t9 -24v-981q0 -15 -9 -24t-24 -9h-170q-15 0 -24 9t-9 24v53q0 8 -4.5 9.5t-9.5 -5.5q-81 -104 -250 -104
q-156 0 -261 90.5t-105 255.5v682q0 33 32 33h172q15 0 24 -9t9 -24v-615q0 -97 50 -154t141 -57q92 0 147 57.5t55 153.5v615z" />
    <glyph glyph-name="ucircumflex" unicode="&#xfb;" horiz-adv-x="1107" 
d="M555 1321q-3 5 -8 5t-8 -5l-90 -131q-15 -21 -39 -21h-121q-20 0 -26.5 12t5.5 27l150 201q15 21 39 21h176q21 0 39 -21l151 -199q12 -15 6 -28t-26 -13h-119q-24 0 -39 21zM745 1014q0 15 9 24t24 9h170q15 0 24 -9t9 -24v-981q0 -15 -9 -24t-24 -9h-170q-15 0 -24 9
t-9 24v53q0 8 -4.5 9.5t-9.5 -5.5q-81 -104 -250 -104q-156 0 -261 90.5t-105 255.5v682q0 33 32 33h172q15 0 24 -9t9 -24v-615q0 -97 50 -154t141 -57q92 0 147 57.5t55 153.5v615z" />
    <glyph glyph-name="udieresis" unicode="&#xfc;" horiz-adv-x="1107" 
d="M360 1190q-57 0 -93 35t-36 92t36 92t93 35q56 0 90.5 -35t34.5 -92t-34.5 -92t-90.5 -35zM735 1190q-57 0 -92 35t-35 92t35 92t92 35t92 -35t35 -92t-35 -92t-92 -35zM745 1014q0 15 9 24t24 9h170q15 0 24 -9t9 -24v-981q0 -15 -9 -24t-24 -9h-170q-15 0 -24 9t-9 24
v53q0 8 -4.5 9.5t-9.5 -5.5q-81 -104 -250 -104q-156 0 -261 90.5t-105 255.5v682q0 33 32 33h172q15 0 24 -9t9 -24v-615q0 -97 50 -154t141 -57q92 0 147 57.5t55 153.5v615z" />
    <glyph glyph-name="yacute" unicode="&#xfd;" horiz-adv-x="1001" 
d="M416 1194q-19 0 -26.5 11t1.5 28l107 194q13 23 39 23h161q20 0 26 -11t-5 -28l-131 -197q-12 -20 -39 -20h-133zM106 -408q-14 0 -14 33v131q0 33 14 33h13q123 0 175 39t87 164q3 10 0 16l-334 1002q-12 37 27 37h184q28 0 37 -27l201 -678q3 -8 8 -8t8 8l195 678
q9 27 36 27h185q38 0 26 -37l-358 -1067q-25 -72 -46.5 -120t-50 -90.5t-60.5 -67t-78.5 -42t-103.5 -24.5t-136 -7h-15z" />
    <glyph glyph-name="thorn" unicode="&#xfe;" horiz-adv-x="1107" 
d="M989 776q35 -104 35 -250q0 -144 -37 -256q-45 -134 -146.5 -210t-246.5 -76q-129 0 -213 84q-6 6 -10 3.5t-4 -10.5v-438q0 -15 -9 -24t-24 -9h-172q-15 0 -24 9t-9 24v1778q0 15 9 24t24 9h172q15 0 24 -9t9 -24v-412q0 -17 14 -6q80 80 213 80q149 0 249.5 -75.5
t145.5 -211.5zM729 289q49 85 49 233q0 161 -59 250q-58 86 -164 86q-99 0 -154 -90q-20 -32 -32 -80q-2 -6 -2 -16v-297q0 -11 2 -17q14 -48 28 -71q59 -97 160 -97q117 0 172 99z" />
    <glyph glyph-name="ydieresis" unicode="&#xff;" horiz-adv-x="1001" 
d="M313 1206q-57 0 -93 35t-36 92t36 92t93 35q56 0 90.5 -35t34.5 -92t-34.5 -92t-90.5 -35zM688 1206q-57 0 -92 35t-35 92t35 92t92 35t92 -35t35 -92t-35 -92t-92 -35zM106 -408q-14 0 -14 33v131q0 33 14 33h13q123 0 175 39t87 164q3 10 0 16l-334 1002q-12 37 27 37
h184q28 0 37 -27l201 -678q3 -8 8 -8t8 8l195 678q9 27 36 27h185q38 0 26 -37l-358 -1067q-25 -72 -46.5 -120t-50 -90.5t-60.5 -67t-78.5 -42t-103.5 -24.5t-136 -7h-15z" />
    <glyph glyph-name="Amacron" unicode="&#x100;" horiz-adv-x="1327" 
d="M920 1745q32 0 32 -33v-98q0 -33 -32 -33h-519q-32 0 -32 33v98q0 33 32 33h519zM1047 0q-28 0 -37 27l-64 211q-2 10 -14 10h-537q-11 0 -14 -10l-64 -211q-9 -27 -36 -27h-187q-36 0 -26 37l438 1370q9 27 37 27h239q28 0 37 -27l441 -1370q5 -17 -2.5 -27t-24.5 -10
h-186zM444 449q-3 -15 11 -15h417q14 0 11 15l-211 696q-3 7 -8.5 7t-8.5 -7z" />
    <glyph glyph-name="amacron" unicode="&#x101;" horiz-adv-x="1069" 
d="M270 1210q-32 0 -32 33v98q0 33 32 33h518q15 0 24 -9t9 -24v-98q0 -15 -9 -24t-24 -9h-518zM526 1063q196 0 315.5 -97.5t119.5 -250.5v-682q0 -15 -9 -24t-24 -9h-172q-15 0 -24 9t-9 24v51q0 16 -14 6q-109 -106 -295 -106q-152 0 -249 78t-97 231q0 159 111.5 248.5
t314.5 89.5h217q12 0 12 12v47q0 80 -48 124t-143 44q-72 0 -119.5 -25.5t-62.5 -70.5q-9 -30 -37 -27l-184 23q-15 2 -23.5 9t-7.5 17q19 123 136 201t292 78zM479 172q100 0 172 53t72 135v95q0 12 -12 12h-170q-109 0 -172.5 -41.5t-63.5 -116.5q0 -65 48.5 -101
t125.5 -36z" />
    <glyph glyph-name="Abreve" unicode="&#x102;" horiz-adv-x="1327" 
d="M659 1518q-94 0 -162.5 57t-80.5 143q-1 17 8 26t25 9h65q26 0 35 -31q9 -40 40 -66t70 -26q41 0 72.5 26t40.5 66q9 31 35 31h63q15 0 24.5 -9t8.5 -24q-12 -88 -81 -145t-163 -57zM1047 0q-28 0 -37 27l-64 211q-2 10 -14 10h-537q-11 0 -14 -10l-64 -211
q-9 -27 -36 -27h-187q-36 0 -26 37l438 1370q9 27 37 27h239q28 0 37 -27l441 -1370q5 -17 -2.5 -27t-24.5 -10h-186zM444 449q-3 -15 11 -15h417q14 0 11 15l-211 696q-3 7 -8.5 7t-8.5 -7z" />
    <glyph glyph-name="abreve" unicode="&#x103;" horiz-adv-x="1069" 
d="M528 1147q-93 0 -162 57t-81 144q-3 34 32 34h66q26 0 35 -30q9 -40 40 -66t70 -26q41 0 72.5 26t40.5 66q9 30 35 30h63q15 0 24.5 -8.5t8.5 -23.5q-12 -88 -81 -145.5t-163 -57.5zM526 1063q196 0 315.5 -97.5t119.5 -250.5v-682q0 -15 -9 -24t-24 -9h-172q-15 0 -24 9
t-9 24v51q0 16 -14 6q-109 -106 -295 -106q-152 0 -249 78t-97 231q0 159 111.5 248.5t314.5 89.5h217q12 0 12 12v47q0 80 -48 124t-143 44q-72 0 -119.5 -25.5t-62.5 -70.5q-9 -30 -37 -27l-184 23q-15 2 -23.5 9t-7.5 17q19 123 136 201t292 78zM479 172q100 0 172 53
t72 135v95q0 12 -12 12h-170q-109 0 -172.5 -41.5t-63.5 -116.5q0 -65 48.5 -101t125.5 -36z" />
    <glyph glyph-name="Aogonek" unicode="&#x104;" horiz-adv-x="1359" 
d="M1085 -197q9 -35 40 -48t71 -3q33 6 39 -24l10 -64q3 -31 -24 -39q-37 -11 -78.5 -13.5t-85.5 6t-78.5 39t-48.5 81.5q-33 132 106 248q16 12 15 14h-4q-28 0 -37 27l-64 211q-2 10 -14 10h-537q-11 0 -14 -10l-64 -211q-9 -27 -36 -27h-187q-36 0 -26 37l438 1370
q9 27 37 27h239q28 0 37 -27l441 -1370q10 -37 -13 -37h-18q-10 0 -21 -8q-142 -106 -123 -189zM444 449q-3 -15 11 -15h417q14 0 11 15l-211 696q-3 7 -8.5 7t-8.5 -7z" />
    <glyph glyph-name="aogonek" unicode="&#x105;" horiz-adv-x="1228" 
d="M948 -248q33 6 39 -24l10 -64q3 -31 -24 -39q-37 -11 -78.5 -13.5t-85.5 6t-78.5 39t-48.5 81.5q-33 132 106 248q6 4 4 9t-10 5h-26q-15 0 -24 9t-9 24v51q0 16 -14 6q-109 -106 -295 -106q-152 0 -249 78t-97 231q0 159 111.5 248.5t314.5 89.5h217q12 0 12 12v47
q0 80 -48 124t-143 44q-72 0 -119.5 -25.5t-62.5 -70.5q-9 -30 -37 -27l-184 23q-15 2 -23.5 12t-5.5 25q22 118 139 193t287 75q196 0 315.5 -97.5t119.5 -250.5v-707q0 -11 -3 -14q-10 -14 -36 -33q-100 -90 -84 -158q9 -35 39.5 -47.5t70.5 -3.5zM723 360v95q0 12 -12 12
h-170q-109 0 -172.5 -41.5t-63.5 -116.5q0 -65 48.5 -101t125.5 -36q100 0 172 53t72 135z" />
    <glyph glyph-name="Cacute" unicode="&#x106;" horiz-adv-x="1245" 
d="M545 1581q-19 0 -26.5 11t1.5 28l107 195q13 22 39 22h161q20 0 26 -11t-5 -28l-131 -196q-13 -21 -39 -21h-133zM629 -16q-232 0 -373 132t-141 349v506q0 217 141 348t373 131q230 0 371 -127t141 -334q0 -21 -31 -24l-174 -11q-14 -1 -23.5 2.5t-9.5 8.5v12
q0 122 -75 195t-199 73q-125 0 -201 -73.5t-76 -194.5v-522q0 -120 76.5 -193.5t200.5 -73.5t199 73.5t75 193.5q0 11 9 17t24 5l172 -8q33 -3 33 -10v-10q0 -210 -140.5 -337.5t-371.5 -127.5z" />
    <glyph glyph-name="cacute" unicode="&#x107;" horiz-adv-x="1087" 
d="M475 1194q-19 0 -26 11t2 28l106 194q13 23 39 23h162q20 0 25.5 -11t-5.5 -28l-131 -197q-13 -20 -39 -20h-133zM563 -16q-157 0 -272 80.5t-160 218.5q-33 92 -33 245q0 145 33 242q43 135 158.5 214t273.5 79q160 0 279 -79.5t157 -201.5q8 -24 13 -57q5 -31 -27 -37
l-170 -26q-30 -6 -37 24l-6 27q-14 62 -71 103.5t-138 41.5q-78 0 -132 -40t-73 -109q-20 -65 -20 -183q0 -112 18 -182q21 -73 74 -114.5t133 -41.5q78 0 134 40t73 106l2 10q2 10 14 21t25 8l170 -27q33 -7 27 -37q-4 -23 -9 -41q-39 -131 -158 -207.5t-278 -76.5z" />
    <glyph glyph-name="Cdotaccent" unicode="&#x10a;" horiz-adv-x="1245" 
d="M629 1575q-53 0 -86 33.5t-33 85.5t33 84t86 32t84.5 -32t31.5 -84q0 -53 -32 -86t-84 -33zM629 -16q-232 0 -373 132t-141 349v506q0 217 141 348t373 131q230 0 371 -127t141 -334q0 -21 -31 -24l-174 -11q-14 -1 -23.5 2.5t-9.5 8.5v12q0 122 -75 195t-199 73
q-125 0 -201 -73.5t-76 -194.5v-522q0 -120 76.5 -193.5t200.5 -73.5t199 73.5t75 193.5q0 11 9 17t24 5l172 -8q33 -3 33 -10v-10q0 -210 -140.5 -337.5t-371.5 -127.5z" />
    <glyph glyph-name="cdotaccent" unicode="&#x10b;" horiz-adv-x="1087" 
d="M559 1188q-53 0 -86 33t-33 86q0 52 33 84t86 32t85 -32t32 -84q0 -53 -32.5 -86t-84.5 -33zM563 -16q-157 0 -272 80.5t-160 218.5q-33 92 -33 245q0 145 33 242q43 135 158.5 214t273.5 79q160 0 279 -79.5t157 -201.5q8 -24 13 -57q5 -31 -27 -37l-170 -26
q-30 -6 -37 24l-6 27q-14 62 -71 103.5t-138 41.5q-78 0 -132 -40t-73 -109q-20 -65 -20 -183q0 -112 18 -182q21 -73 74 -114.5t133 -41.5q78 0 134 40t73 106l2 10q2 10 14 21t25 8l170 -27q33 -7 27 -37q-4 -23 -9 -41q-39 -131 -158 -207.5t-278 -76.5z" />
    <glyph glyph-name="Ccaron" unicode="&#x10c;" horiz-adv-x="1245" 
d="M530 1561q-24 0 -38 20l-140 201q-10 17 -3.5 28t26.5 11h117q23 0 38 -21l91 -131q3 -5 8 -5t8 5l90 131q15 21 39 21h115q20 0 25.5 -11t-5.5 -28l-139 -201q-14 -20 -39 -20h-193zM629 -16q-232 0 -373 132t-141 349v506q0 217 141 348t373 131q230 0 371 -127
t141 -334q0 -21 -31 -24l-174 -11q-14 -1 -23.5 2.5t-9.5 8.5v12q0 122 -75 195t-199 73q-125 0 -201 -73.5t-76 -194.5v-522q0 -120 76.5 -193.5t200.5 -73.5t199 73.5t75 193.5q0 11 9 17t24 5l172 -8q33 -3 33 -10v-10q0 -210 -140.5 -337.5t-371.5 -127.5z" />
    <glyph glyph-name="ccaron" unicode="&#x10d;" horiz-adv-x="1087" 
d="M461 1174q-25 0 -39 20l-139 201q-11 17 -4.5 28t26.5 11h117q24 0 39 -21l90 -131q3 -4 8 -4t8 4l90 131q15 21 39 21h115q20 0 25.5 -11t-5.5 -28l-139 -201q-14 -20 -39 -20h-192zM563 -16q-157 0 -272 80.5t-160 218.5q-33 92 -33 245q0 145 33 242q43 135 158.5 214
t273.5 79q160 0 279 -79.5t157 -201.5q8 -24 13 -57q5 -31 -27 -37l-170 -26q-30 -6 -37 24l-6 27q-14 62 -71 103.5t-138 41.5q-78 0 -132 -40t-73 -109q-20 -65 -20 -183q0 -112 18 -182q21 -73 74 -114.5t133 -41.5q78 0 134 40t73 106l2 10q2 10 14 21t25 8l170 -27
q33 -7 27 -37q-4 -23 -9 -41q-39 -131 -158 -207.5t-278 -76.5z" />
    <glyph glyph-name="Dcaron" unicode="&#x10e;" horiz-adv-x="1265" 
d="M524 1546q-24 0 -39 21l-139 200q-10 17 -3.5 28t26.5 11h116q25 0 39 -20l90 -133q3 -5 8.5 -5t8.5 5l90 133q14 20 39 20h114q20 0 26 -11t-5 -28l-139 -200q-15 -21 -39 -21h-193zM182 0q-32 0 -32 33v1368q0 33 32 33h492q222 0 354.5 -114t132.5 -306v-594
q0 -192 -132.5 -306t-354.5 -114h-492zM387 217q0 -12 12 -12h285q108 0 173.5 68.5t66.5 183.5v518q0 117 -65.5 185.5t-176.5 68.5h-283q-12 0 -12 -12v-1000z" />
    <glyph glyph-name="dcaron" unicode="&#x10f;" horiz-adv-x="1402" 
d="M748 963q3 -4 6.5 -5t5.5 1.5t2 7.5v434q0 15 9 24t24 9h172q32 0 32 -33v-1368q0 -33 -32 -33h-172q-15 0 -24 9t-9 24v53q0 8 -5 9.5t-9 -5.5q-86 -106 -234 -106q-145 0 -246.5 76t-146.5 210q-37 112 -37 256q0 146 35 250q45 136 145.5 211.5t249.5 75.5
q144 0 234 -100zM1178 1411q13 23 39 23h161q20 0 26 -11t-5 -28l-131 -197q-12 -20 -39 -20h-133q-19 0 -26.5 11t1.5 28zM711 287q47 78 47 237q0 161 -51 244q-55 90 -154 90q-106 0 -164 -86q-59 -89 -59 -250q0 -148 49 -233q55 -99 172 -99q101 0 160 97z" />
    <glyph glyph-name="Dcroat" unicode="&#x110;" horiz-adv-x="1380" 
d="M788 1434q222 0 355 -114t133 -306v-594q0 -192 -133 -306t-355 -114h-491q-15 0 -24 9t-9 24v614q0 12 -12 12h-70q-32 0 -32 33v99q0 32 32 32h70q12 0 12 13v565q0 15 9 24t24 9h491zM1038 457v518q0 117 -65.5 185.5t-175.5 68.5h-283q-12 0 -12 -12v-381
q0 -13 12 -13h178q33 0 33 -32v-99q0 -15 -9 -24t-24 -9h-178q-12 0 -12 -12v-430q0 -12 12 -12h285q107 0 172.5 68.5t66.5 183.5z" />
    <glyph glyph-name="dcroat" unicode="&#x111;" horiz-adv-x="1228" 
d="M1102 1300q33 0 33 -32v-82q0 -15 -9 -24t-24 -9h-90q-13 0 -13 -12v-1108q0 -33 -32 -33h-172q-15 0 -24 9t-9 24v53q0 8 -5 9.5t-9 -5.5q-86 -106 -234 -106q-145 0 -246.5 76t-146.5 210q-37 112 -37 256q0 146 35 250q45 136 145.5 211.5t249.5 75.5q144 0 234 -100
q3 -4 6.5 -5t5.5 1.5t2 7.5v174q0 12 -12 12h-281q-15 0 -24 9t-9 24v82q0 32 33 32h281q12 0 12 13v88q0 15 9 24t24 9h172q32 0 32 -33v-88q0 -13 13 -13h90zM711 287q47 78 47 237q0 161 -51 244q-55 90 -154 90q-106 0 -164 -86q-59 -89 -59 -250q0 -148 49 -233
q55 -99 172 -99q101 0 160 97z" />
    <glyph glyph-name="Emacron" unicode="&#x112;" horiz-adv-x="1212" 
d="M889 1769q33 0 33 -32v-99q0 -32 -33 -32h-518q-33 0 -33 32v99q0 32 33 32h518zM1120 1262q0 -15 -9 -24t-24 -9h-688q-12 0 -12 -12v-379q0 -13 12 -13h459q33 0 33 -32v-140q0 -32 -33 -32h-459q-12 0 -12 -13v-391q0 -12 12 -12h688q15 0 24 -9t9 -24v-139
q0 -15 -9 -24t-24 -9h-905q-32 0 -32 33v1368q0 33 32 33h905q15 0 24 -9t9 -24v-139z" />
    <glyph glyph-name="emacron" unicode="&#x113;" horiz-adv-x="1110" 
d="M813 1374q15 0 24 -9t9 -24v-98q0 -15 -9 -24t-24 -9h-518q-15 0 -24 9t-9 24v98q0 15 9 24t24 9h518zM596 184q150 6 223 113q19 29 45 10l99 -78q24 -21 8 -45q-60 -94 -162.5 -147t-235.5 -53q-162 0 -272 76.5t-158 213.5q-41 112 -41 254q0 139 23 217
q39 146 154 232t278 86q383 0 449 -420q11 -68 14 -168q0 -15 -9 -24t-24 -9h-635q-12 0 -12 -12q0 -56 12 -90q22 -73 86 -114.5t158 -41.5zM555 858q-77 0 -127.5 -38t-69.5 -105q-13 -42 -16 -86q-3 -13 10 -13h412q12 0 12 13q-8 60 -12 73q-19 72 -73.5 114t-135.5 42z
" />
    <glyph glyph-name="Edotaccent" unicode="&#x116;" horiz-adv-x="1212" 
d="M629 1583q-53 0 -86 33.5t-33 85.5t33 84.5t86 32.5q52 0 84 -32t32 -85t-32 -86t-84 -33zM1120 1262q0 -15 -9 -24t-24 -9h-688q-12 0 -12 -12v-379q0 -13 12 -13h459q33 0 33 -32v-140q0 -32 -33 -32h-459q-12 0 -12 -13v-391q0 -12 12 -12h688q15 0 24 -9t9 -24v-139
q0 -15 -9 -24t-24 -9h-905q-32 0 -32 33v1368q0 33 32 33h905q15 0 24 -9t9 -24v-139z" />
    <glyph glyph-name="edotaccent" unicode="&#x117;" horiz-adv-x="1110" 
d="M553 1188q-53 0 -86 33t-33 86q0 52 33 84t86 32t85 -32t32 -84q0 -53 -32.5 -86t-84.5 -33zM596 184q150 6 223 113q19 29 45 10l99 -78q24 -21 8 -45q-60 -94 -162.5 -147t-235.5 -53q-162 0 -272 76.5t-158 213.5q-41 112 -41 254q0 139 23 217q39 146 154 232t278 86
q383 0 449 -420q11 -68 14 -168q0 -15 -9 -24t-24 -9h-635q-12 0 -12 -12q0 -56 12 -90q22 -73 86 -114.5t158 -41.5zM555 858q-77 0 -127.5 -38t-69.5 -105q-13 -42 -16 -86q-3 -13 10 -13h412q12 0 12 13q-8 60 -12 73q-19 72 -73.5 114t-135.5 42z" />
    <glyph glyph-name="Eogonek" unicode="&#x118;" horiz-adv-x="1212" 
d="M1120 1262q0 -15 -9 -24t-24 -9h-688q-12 0 -12 -12v-379q0 -13 12 -13h459q33 0 33 -32v-140q0 -32 -33 -32h-459q-12 0 -12 -13v-391q0 -12 12 -12h688q15 0 24 -9t9 -24v-139q0 -15 -9 -24t-24 -9h-364q-8 0 -14 -6q-114 -92 -97 -166q9 -35 40 -48t71 -3q33 6 39 -25
l10 -63q3 -31 -24 -39q-37 -11 -78.5 -13.5t-85.5 5.5t-78.5 38.5t-48.5 81.5q-29 117 78 224q6 4 3.5 9t-10.5 5h-346q-32 0 -32 33v1368q0 33 32 33h905q15 0 24 -9t9 -24v-139z" />
    <glyph glyph-name="eogonek" unicode="&#x119;" horiz-adv-x="1110" 
d="M596 184q150 6 223 113q19 29 45 10l99 -78q24 -20 10 -45q-48 -76 -126.5 -126.5t-178.5 -65.5q-9 -3 -15 -6q-123 -98 -106 -176q9 -35 39.5 -48t70.5 -4q33 6 39 -24l11 -64q3 -31 -25 -39q-37 -11 -78.5 -13.5t-85.5 6t-78.5 39t-48.5 81.5q-29 124 88 233q6 5 5 9
t-9 6q-123 21 -207.5 94.5t-124.5 187.5q-41 112 -41 254q0 139 23 217q39 146 154 232t278 86q383 0 449 -420q11 -68 14 -168q0 -15 -9 -24t-24 -9h-635q-12 0 -12 -12q0 -56 12 -90q22 -73 86 -114.5t158 -41.5zM555 858q-77 0 -127.5 -38t-69.5 -105q-13 -42 -16 -86
q-3 -13 10 -13h412q12 0 12 13q-8 60 -12 73q-19 72 -73.5 114t-135.5 42z" />
    <glyph glyph-name="Ecaron" unicode="&#x11a;" horiz-adv-x="1212" 
d="M762 1589q-14 -20 -39 -20h-193q-24 0 -38 20l-140 201q-10 17 -3.5 28t26.5 11h117q23 0 38 -21l91 -131q3 -5 8 -5t8 5l90 131q15 21 39 21h115q20 0 25.5 -11t-5.5 -28zM1120 1262q0 -15 -9 -24t-24 -9h-688q-12 0 -12 -12v-379q0 -13 12 -13h459q33 0 33 -32v-140
q0 -32 -33 -32h-459q-12 0 -12 -13v-391q0 -12 12 -12h688q15 0 24 -9t9 -24v-139q0 -15 -9 -24t-24 -9h-905q-32 0 -32 33v1368q0 33 32 33h905q15 0 24 -9t9 -24v-139z" />
    <glyph glyph-name="ecaron" unicode="&#x11b;" horiz-adv-x="1110" 
d="M686 1186q-15 -21 -39 -21h-192q-24 0 -39 21l-140 200q-10 17 -3.5 28t26.5 11h117q25 0 39 -20l90 -133q3 -4 8 -4t8 4l90 133q14 20 39 20h115q20 0 25.5 -11t-5.5 -28zM596 184q150 6 223 113q19 29 45 10l99 -78q24 -21 8 -45q-60 -94 -162.5 -147t-235.5 -53
q-162 0 -272 76.5t-158 213.5q-41 112 -41 254q0 139 23 217q39 146 154 232t278 86q383 0 449 -420q11 -68 14 -168q0 -15 -9 -24t-24 -9h-635q-12 0 -12 -12q0 -56 12 -90q22 -73 86 -114.5t158 -41.5zM555 858q-77 0 -127.5 -38t-69.5 -105q-13 -42 -16 -86
q-3 -13 10 -13h412q12 0 12 13q-8 60 -12 73q-19 72 -73.5 114t-135.5 42z" />
    <glyph glyph-name="Gbreve" unicode="&#x11e;" horiz-adv-x="1241" 
d="M627 1534q-94 0 -163 57.5t-81 143.5q-1 17 8 25.5t25 8.5h65q26 0 35 -30q9 -40 40 -66t71 -26q41 0 72 26t40 66q9 30 35 30h64q15 0 24 -8.5t8 -23.5q-12 -88 -80.5 -145.5t-162.5 -57.5zM629 -16q-232 0 -373 133.5t-141 351.5v496q0 219 141 352t373 133
q227 0 368.5 -128.5t141.5 -324.5v-8q0 -15 -9 -24t-24 -9h-170q-15 0 -24 5.5t-9 13.5v16q0 111 -75 182.5t-199 71.5q-125 0 -201 -74.5t-76 -197.5v-512q0 -122 80 -197.5t207 -75.5q122 0 193 64.5t71 177.5v125q0 12 -12 12h-242q-15 0 -24 9t-9 24v135q0 15 9 24t24 9
h457q15 0 24 -9t9 -24v-254q0 -236 -138 -366.5t-372 -130.5z" />
    <glyph glyph-name="gbreve" unicode="&#x11f;" horiz-adv-x="1124" 
d="M584 1149q-94 0 -163 57.5t-81 143.5q-1 17 8 25.5t25 8.5h65q26 0 35 -30q9 -40 40 -66t71 -26q41 0 72 26t40 66q9 30 35 30h64q15 0 24 -8.5t8 -23.5q-12 -88 -80.5 -145.5t-162.5 -57.5zM768 1014q0 15 9 24t24 9h172q15 0 24 -9t9 -24v-944q0 -87 -19 -159
t-53 -122.5t-81 -89t-104 -59.5t-121.5 -34t-133 -12.5t-138.5 5.5q-28 3 -28 36l6 152q0 32 37 29q205 -18 301 40t96 220v12q0 8 -4 10t-10 -4q-85 -88 -236 -88q-133 0 -243.5 68t-153.5 207q-27 100 -27 247q0 170 33 260q41 124 141.5 199.5t235.5 75.5q158 0 250 -92
q6 -6 10 -4t4 10v37zM754 348q14 55 14 182q0 124 -16 179q-16 67 -67 108t-128 41q-74 0 -125 -41t-74 -108q-24 -59 -24 -181q0 -126 20 -178q21 -66 75 -107.5t130 -41.5q79 0 129 41t66 106z" />
    <glyph glyph-name="Gdotaccent" unicode="&#x120;" horiz-adv-x="1241" 
d="M627 1575q-53 0 -86 33.5t-33 85.5t33 84t86 32t84.5 -32t31.5 -84q0 -53 -32 -86t-84 -33zM629 -16q-232 0 -373 133.5t-141 351.5v496q0 219 141 352t373 133q227 0 368.5 -128.5t141.5 -324.5v-8q0 -15 -9 -24t-24 -9h-170q-15 0 -24 5.5t-9 13.5v16q0 111 -75 182.5
t-199 71.5q-125 0 -201 -74.5t-76 -197.5v-512q0 -122 80 -197.5t207 -75.5q122 0 193 64.5t71 177.5v125q0 12 -12 12h-242q-15 0 -24 9t-9 24v135q0 15 9 24t24 9h457q15 0 24 -9t9 -24v-254q0 -236 -138 -366.5t-372 -130.5z" />
    <glyph glyph-name="gdotaccent" unicode="&#x121;" horiz-adv-x="1124" 
d="M584 1190q-52 0 -85.5 33t-33.5 86q0 52 33 84t86 32q52 0 84 -31.5t32 -84.5t-32 -86t-84 -33zM768 1014q0 15 9 24t24 9h172q15 0 24 -9t9 -24v-944q0 -87 -19 -159t-53 -122.5t-81 -89t-104 -59.5t-121.5 -34t-133 -12.5t-138.5 5.5q-28 3 -28 36l6 152q0 32 37 29
q205 -18 301 40t96 220v12q0 8 -4 10t-10 -4q-85 -88 -236 -88q-133 0 -243.5 68t-153.5 207q-27 100 -27 247q0 170 33 260q41 124 141.5 199.5t235.5 75.5q158 0 250 -92q6 -6 10 -4t4 10v37zM754 348q14 55 14 182q0 124 -16 179q-16 67 -67 108t-128 41q-74 0 -125 -41
t-74 -108q-24 -59 -24 -181q0 -126 20 -178q21 -66 75 -107.5t130 -41.5q79 0 129 41t66 106z" />
    <glyph glyph-name="uni0122" unicode="&#x122;" horiz-adv-x="1241" 
d="M629 -16q-232 0 -373 133.5t-141 351.5v496q0 219 141 352t373 133q227 0 368.5 -128.5t141.5 -324.5v-8q0 -15 -9 -24t-24 -9h-170q-15 0 -24 5.5t-9 13.5v16q0 111 -75 182.5t-199 71.5q-125 0 -201 -74.5t-76 -197.5v-512q0 -122 80 -197.5t207 -75.5q122 0 193 64.5
t71 177.5v125q0 12 -12 12h-242q-15 0 -24 9t-9 24v135q0 15 9 24t24 9h457q15 0 24 -9t9 -24v-254q0 -236 -138 -366.5t-372 -130.5zM467 -385q-19 0 -26.5 11t1.5 28l107 194q13 23 39 23h162q20 0 25.5 -11t-5.5 -28l-131 -197q-13 -20 -39 -20h-133z" />
    <glyph glyph-name="uni0123" unicode="&#x123;" horiz-adv-x="1124" 
d="M743 1434q19 0 26.5 -11t-1.5 -28l-106 -195q-13 -22 -39 -22h-162q-20 0 -26 11t5 28l131 196q13 21 39 21h133zM768 1014q0 15 9 24t24 9h172q15 0 24 -9t9 -24v-944q0 -87 -19 -159t-53 -122.5t-81 -89t-104 -59.5t-121.5 -34t-133 -12.5t-138.5 5.5q-28 3 -28 36
l6 152q0 32 37 29q205 -18 301 40t96 220v12q0 8 -4 10t-10 -4q-85 -88 -236 -88q-133 0 -243.5 68t-153.5 207q-27 100 -27 247q0 170 33 260q41 124 141.5 199.5t235.5 75.5q158 0 250 -92q6 -6 10 -4t4 10v37zM754 348q14 55 14 182q0 124 -16 179q-16 67 -67 108
t-128 41q-74 0 -125 -41t-74 -108q-24 -59 -24 -181q0 -126 20 -178q21 -66 75 -107.5t130 -41.5q79 0 129 41t66 106z" />
    <glyph glyph-name="Hbar" unicode="&#x126;" horiz-adv-x="1304" 
d="M1255 1200q15 0 24 -9t9 -24v-96q0 -15 -9 -24t-24 -9h-75q-13 0 -13 -12v-993q0 -33 -32 -33h-172q-15 0 -24 9t-9 24v575q0 13 -12 13h-519q-12 0 -12 -13v-575q0 -15 -9 -24t-24 -9h-172q-32 0 -32 33v993q0 12 -13 12h-76q-32 0 -32 33v96q0 33 32 33h76q13 0 13 12
v189q0 33 32 33h172q15 0 24 -9t9 -24v-189q0 -12 12 -12h519q12 0 12 12v189q0 15 9 24t24 9h172q32 0 32 -33v-189q0 -12 13 -12h75zM918 825q12 0 12 13v188q0 12 -12 12h-519q-12 0 -12 -12v-188q0 -13 12 -13h519z" />
    <glyph glyph-name="hbar" unicode="&#x127;" horiz-adv-x="1114" 
d="M629 1063q167 0 266.5 -99t99.5 -268v-663q0 -33 -32 -33h-172q-15 0 -24 9t-9 24v614q0 94 -54 152.5t-143 58.5q-88 0 -142 -57.5t-54 -151.5v-616q0 -15 -9 -24t-24 -9h-172q-15 0 -24 9t-9 24v1085q0 12 -12 12h-90q-15 0 -24 9t-9 24v82q0 15 9 24t24 9h90
q12 0 12 12v111q0 15 9 24t24 9h172q15 0 24 -9t9 -24v-111q0 -12 12 -12h280q15 0 24 -9t9 -24v-82q0 -15 -9 -24t-24 -9h-280q-12 0 -12 -12v-160q0 -8 3.5 -10t8.5 4q86 111 252 111z" />
    <glyph glyph-name="Imacron" unicode="&#x12a;" horiz-adv-x="536" 
d="M10 1606q-33 0 -33 32v99q0 32 33 32h518q33 0 33 -32v-99q0 -32 -33 -32h-518zM182 0q-32 0 -32 33v1368q0 33 32 33h172q15 0 24 -9t9 -24v-1368q0 -15 -9 -24t-24 -9h-172z" />
    <glyph glyph-name="imacron" unicode="&#x12b;" horiz-adv-x="479" 
d="M-27 1217q-32 0 -32 32v99q0 32 32 32h519q32 0 32 -32v-99q0 -32 -32 -32h-519zM152 0q-15 0 -24 9t-9 24v981q0 15 9 24t24 9h172q32 0 32 -33v-981q0 -33 -32 -33h-172z" />
    <glyph glyph-name="Iogonek" unicode="&#x12e;" horiz-adv-x="624" 
d="M422 -248q33 6 39 -24l10 -64q3 -31 -25 -39q-37 -11 -78.5 -13.5t-85 6t-78 39t-48.5 81.5q-33 132 106 248q4 3 5.5 6.5t0 5.5t-5.5 2h-20q-15 0 -24 9t-9 24v1368q0 15 9 24t24 9h172q32 0 32 -33v-1376q0 -25 -20 -39q-132 -100 -115 -183q9 -35 40 -48t71 -3z" />
    <glyph glyph-name="iogonek" unicode="&#x12f;" horiz-adv-x="542" 
d="M285 1194q-53 0 -86 33t-33 86q0 52 33 84.5t86 32.5q52 0 84 -32t32 -85t-32 -86t-84 -33zM381 -248q33 6 39 -24l10 -64q3 -31 -24 -39q-37 -11 -78.5 -13.5t-85.5 6t-78.5 39t-48.5 81.5q-33 132 106 248q12 9 6 13q-2 1 -4 1h-18q-15 0 -24 9t-9 24v981q0 15 9 24
t24 9h172q15 0 24 -9t9 -24v-981l-2 -33h-2q-156 -109 -136 -197q9 -35 40 -48t71 -3z" />
    <glyph glyph-name="Idotaccent" unicode="&#x130;" horiz-adv-x="536" 
d="M268 1583q-52 0 -85 33t-33 86q0 52 32.5 84.5t85.5 32.5q52 0 84.5 -32.5t32.5 -84.5q0 -53 -32.5 -86t-84.5 -33zM182 0q-32 0 -32 33v1368q0 33 32 33h172q15 0 24 -9t9 -24v-1368q0 -15 -9 -24t-24 -9h-172z" />
    <glyph glyph-name="dotlessi" unicode="&#x131;" horiz-adv-x="479" 
d="M152 0q-15 0 -24 9t-9 24v981q0 15 9 24t24 9h172q32 0 32 -33v-981q0 -33 -32 -33h-172z" />
    <glyph glyph-name="ij" unicode="&#x133;" horiz-adv-x="1001" 
d="M262 1178q-68 0 -110.5 41.5t-42.5 107.5q0 65 43 106.5t110 41.5t109.5 -41.5t42.5 -106.5q0 -66 -42.5 -107.5t-109.5 -41.5zM756 1171q-67 0 -109.5 43t-42.5 107q0 62 45.5 104.5t106.5 42.5q64 0 109.5 -42.5t45.5 -104.5q0 -64 -43.5 -107t-111.5 -43zM176 0
q-15 0 -24 9t-9 24v981q0 15 9 24t24 9h172q15 0 24 -9t9 -24v-981q0 -15 -9 -24t-24 -9h-172zM428 -420q-15 0 -24 9t-9 24v135q0 34 35 31q111 0 159 44t48 142v1049q0 15 9 24t24 9h172q32 0 32 -33v-1047q0 -147 -41.5 -230t-138 -121t-266.5 -36z" />
    <glyph glyph-name="uni0136" unicode="&#x136;" horiz-adv-x="1269" 
d="M182 0q-32 0 -32 33v1368q0 33 32 33h172q15 0 24 -9t9 -24v-602q0 -7 4.5 -8.5t9.5 4.5l527 620q16 19 41 19h194q20 0 25.5 -13t-6.5 -28l-461 -564q-6 -6 0 -16l496 -774q10 -17 3.5 -28t-26.5 -11h-197q-26 0 -39 23l-399 622q-8 16 -18 2l-148 -174q-6 -9 -6 -14
v-426q0 -15 -9 -24t-24 -9h-172zM485 -369q-19 0 -26 11t2 28l106 195q13 22 39 22h162q20 0 25.5 -11t-5.5 -28l-131 -196q-13 -21 -39 -21h-133z" />
    <glyph glyph-name="uni0137" unicode="&#x137;" horiz-adv-x="1069" 
d="M160 0q-15 0 -24 9t-9 24v1368q0 15 9 24t24 9h172q15 0 24 -9t9 -24v-727q0 -8 4.5 -10t9.5 4l326 360q16 19 40 19h197q20 0 27 -13t-6 -28l-252 -299q-6 -6 -2 -17l303 -651q7 -19 0.5 -29t-25.5 -10h-182q-28 0 -37 25l-221 512q-5 14 -17 2l-159 -187q-6 -9 -6 -14
v-305q0 -15 -9 -24t-24 -9h-172zM399 -369q-19 0 -26 11t2 28l106 195q13 22 39 22h162q20 0 25.5 -11t-5.5 -28l-131 -196q-13 -21 -39 -21h-133z" />
    <glyph glyph-name="Lacute" unicode="&#x139;" horiz-adv-x="1169" 
d="M182 1565q-19 0 -26 11t2 28l106 194q13 23 39 23h162q20 0 25.5 -11t-5.5 -28l-131 -197q-13 -20 -39 -20h-133zM182 0q-32 0 -32 33v1368q0 33 32 33h172q15 0 24 -9t9 -24v-1184q0 -12 12 -12h676q15 0 24 -9t9 -24v-139q0 -15 -9 -24t-24 -9h-893z" />
    <glyph glyph-name="lacute" unicode="&#x13a;" horiz-adv-x="497" 
d="M166 1565q-19 0 -26.5 11t1.5 28l107 194q13 23 39 23h162q20 0 25.5 -11t-5.5 -28l-131 -197q-12 -20 -39 -20h-133zM162 0q-15 0 -24 9t-9 24v1368q0 15 9 24t24 9h172q15 0 24 -9t9 -24v-1368q0 -15 -9 -24t-24 -9h-172z" />
    <glyph glyph-name="uni013B" unicode="&#x13b;" horiz-adv-x="1169" 
d="M182 0q-32 0 -32 33v1368q0 33 32 33h172q15 0 24 -9t9 -24v-1184q0 -12 12 -12h676q15 0 24 -9t9 -24v-139q0 -15 -9 -24t-24 -9h-893zM418 -369q-19 0 -26.5 11t1.5 28l107 195q13 22 39 22h161q20 0 26 -11t-5 -28l-131 -196q-13 -21 -39 -21h-133z" />
    <glyph glyph-name="uni013C" unicode="&#x13c;" horiz-adv-x="499" 
d="M162 0q-15 0 -24 9t-9 24v1368q0 15 9 24t24 9h172q15 0 24 -9t9 -24v-1368q0 -15 -9 -24t-24 -9h-172zM41 -369q-19 0 -26.5 11t1.5 28l107 195q13 22 39 22h162q20 0 25.5 -11t-5.5 -28l-131 -196q-13 -21 -39 -21h-133z" />
    <glyph glyph-name="Lcaron" unicode="&#x13d;" horiz-adv-x="1169" 
d="M168 1536q-25 0 -39 20l-139 201q-11 17 -4.5 28t26.5 11h117q25 0 39 -20l90 -134q3 -4 8 -4t8 4l91 134q14 20 38 20h115q20 0 26 -11t-5 -28l-140 -201q-14 -20 -39 -20h-192zM182 0q-32 0 -32 33v1368q0 33 32 33h172q15 0 24 -9t9 -24v-1184q0 -12 12 -12h676
q15 0 24 -9t9 -24v-139q0 -15 -9 -24t-24 -9h-893z" />
    <glyph glyph-name="lcaron" unicode="&#x13e;" horiz-adv-x="497" 
d="M152 1536q-25 0 -39 20l-140 201q-10 17 -3.5 28t26.5 11h117q25 0 39 -20l90 -134q3 -4 8 -4t8 4l90 134q14 20 39 20h115q20 0 25.5 -11t-5.5 -28l-139 -201q-14 -20 -39 -20h-192zM162 0q-15 0 -24 9t-9 24v1368q0 15 9 24t24 9h172q15 0 24 -9t9 -24v-1368
q0 -15 -9 -24t-24 -9h-172z" />
    <glyph glyph-name="Lslash" unicode="&#x141;" horiz-adv-x="1169" 
d="M387 217q0 -12 12 -12h676q15 0 24 -9t9 -24v-139q0 -15 -9 -24t-24 -9h-893q-32 0 -32 33v401q0 17 -15 6l-164 -131q-25 -22 -45 4l-73 88q-22 25 4 45l286 232q7 7 7 14v709q0 33 32 33h172q15 0 24 -9t9 -24v-506q0 -17 14 -6l396 317q25 22 45 -4l76 -90
q19 -25 -7 -45l-518 -418q-6 -6 -6 -14v-418z" />
    <glyph glyph-name="lslash" unicode="&#x142;" horiz-adv-x="497" 
d="M643 856q16 -29 -12 -45l-256 -143q-8 -3 -8 -15v-620q0 -15 -9 -24t-24 -9h-172q-15 0 -24 9t-9 24v481q0 6 -4 9t-10 -1l-99 -55q-31 -17 -45 12l-51 96q-16 29 14 46l187 106q8 3 8 14v660q0 15 9 24t24 9h172q15 0 24 -9t9 -24v-516q0 -6 4 -9t10 1l162 92
q29 16 45 -13z" />
    <glyph glyph-name="Nacute" unicode="&#x143;" horiz-adv-x="1359" 
d="M584 1589q-19 0 -26.5 11t1.5 28l107 195q13 22 39 22h161q20 0 26 -11t-5 -28l-131 -196q-13 -21 -39 -21h-133zM182 0q-32 0 -32 33v1368q0 33 32 33h164q28 0 41 -23l574 -938q5 -8 9.5 -6.5t4.5 10.5v924q0 15 9 24t24 9h172q32 0 32 -33v-1368q0 -33 -32 -33h-168
q-28 0 -41 23l-574 944q-5 8 -9.5 6.5t-4.5 -10.5l2 -930q0 -33 -33 -33h-170z" />
    <glyph glyph-name="nacute" unicode="&#x144;" horiz-adv-x="1114" 
d="M764 1434q20 0 25.5 -11t-5.5 -28l-131 -197q-13 -20 -39 -20h-133q-19 0 -26 11t2 28l106 194q13 23 39 23h162zM629 1063q167 0 266.5 -99t99.5 -268v-663q0 -33 -32 -33h-172q-15 0 -24 9t-9 24v614q0 94 -54 152.5t-143 58.5q-88 0 -142 -57.5t-54 -151.5v-616
q0 -15 -9 -24t-24 -9h-172q-15 0 -24 9t-9 24v981q0 15 9 24t24 9h172q15 0 24 -9t9 -24v-56q0 -8 3.5 -10t8.5 4q86 111 252 111z" />
    <glyph glyph-name="uni0145" unicode="&#x145;" horiz-adv-x="1359" 
d="M182 0q-32 0 -32 33v1368q0 33 32 33h164q28 0 41 -23l574 -938q5 -8 9.5 -6.5t4.5 10.5v924q0 15 9 24t24 9h172q32 0 32 -33v-1368q0 -33 -32 -33h-168q-28 0 -41 23l-574 944q-5 8 -9.5 6.5t-4.5 -10.5l2 -930q0 -33 -33 -33h-170zM553 -369q-19 0 -26.5 11t1.5 28
l107 195q13 22 39 22h162q20 0 25.5 -11t-5.5 -28l-131 -196q-13 -21 -39 -21h-133z" />
    <glyph glyph-name="uni0146" unicode="&#x146;" horiz-adv-x="1114" 
d="M629 1063q167 0 266.5 -99t99.5 -268v-663q0 -33 -32 -33h-172q-15 0 -24 9t-9 24v614q0 94 -54 152.5t-143 58.5q-88 0 -142 -57.5t-54 -151.5v-616q0 -15 -9 -24t-24 -9h-172q-15 0 -24 9t-9 24v981q0 15 9 24t24 9h172q15 0 24 -9t9 -24v-56q0 -8 3.5 -10t8.5 4
q86 111 252 111zM412 -369q-19 0 -26.5 11t1.5 28l107 195q13 22 38 22h162q20 0 26 -11t-5 -28l-131 -196q-13 -21 -39 -21h-133z" />
    <glyph glyph-name="Ncaron" unicode="&#x147;" horiz-adv-x="1359" 
d="M569 1569q-25 0 -39 20l-139 201q-10 17 -3.5 28t26.5 11h116q24 0 39 -21l90 -131q3 -5 8.5 -5t8.5 5l90 131q15 21 39 21h115q20 0 25.5 -11t-5.5 -28l-139 -201q-14 -20 -39 -20h-193zM182 0q-32 0 -32 33v1368q0 33 32 33h164q28 0 41 -23l574 -938q5 -8 9.5 -6.5
t4.5 10.5v924q0 15 9 24t24 9h172q32 0 32 -33v-1368q0 -33 -32 -33h-168q-28 0 -41 23l-574 944q-5 8 -9.5 6.5t-4.5 -10.5l2 -930q0 -33 -33 -33h-170z" />
    <glyph glyph-name="ncaron" unicode="&#x148;" horiz-adv-x="1114" 
d="M698 1178q-15 -21 -39 -21h-192q-24 0 -39 21l-139 200q-11 17 -4.5 28t26.5 11h117q25 0 39 -20l90 -131q3 -4 8 -4t8 4l91 131q14 20 38 20h115q20 0 26 -11t-5 -28zM629 1063q167 0 266.5 -99t99.5 -268v-663q0 -33 -32 -33h-172q-15 0 -24 9t-9 24v614
q0 94 -54 152.5t-143 58.5q-88 0 -142 -57.5t-54 -151.5v-616q0 -15 -9 -24t-24 -9h-172q-15 0 -24 9t-9 24v981q0 15 9 24t24 9h172q15 0 24 -9t9 -24v-56q0 -8 3.5 -10t8.5 4q86 111 252 111z" />
    <glyph glyph-name="Eng" unicode="&#x14a;" horiz-adv-x="1370" 
d="M1212 1120q0 -2 1 -4t2 -5t2 -5q4 -12 4 -27v-1046q0 -149 -37 -231.5t-129.5 -121t-261.5 -36.5q-33 0 -33 32v136q0 30 35 30q98 0 140 36t48 118q0 6 -4 14l-582 957q-5 8 -9.5 6.5t-4.5 -10.5l2 -930q0 -33 -33 -33h-170q-32 0 -32 33v1368q0 33 32 33h164
q28 0 41 -23l574 -938q5 -8 9.5 -6.5t4.5 10.5v924q0 15 9 24t24 9h172q32 0 32 -33v-281z" />
    <glyph glyph-name="eng" unicode="&#x14b;" horiz-adv-x="1116" 
d="M995 444q0 -12 4 -12h2v-420q0 -104 -16.5 -172t-60.5 -118.5t-121.5 -73.5t-198.5 -25q-35 0 -35 33v127q0 32 33 35q83 6 120 46.5t42 123.5q0 12 -2 12h-4v647q0 94 -54 152.5t-143 58.5q-88 0 -142 -57.5t-54 -151.5v-616q0 -15 -9 -24t-24 -9h-172q-15 0 -24 9
t-9 24v981q0 15 9 24t24 9h172q15 0 24 -9t9 -24v-56q0 -8 4.5 -9.5t9.5 5.5q84 109 250 109q167 0 266.5 -99t99.5 -268v-252z" />
    <glyph glyph-name="Omacron" unicode="&#x14c;" horiz-adv-x="1271" 
d="M377 1597q-15 0 -24 9t-9 24v99q0 32 33 32h518q33 0 33 -32v-99q0 -15 -9 -24t-24 -9h-518zM635 -20q-234 0 -377 138t-143 365v467q0 224 143.5 362t376.5 138q235 0 378.5 -138t143.5 -362v-467q0 -227 -143.5 -365t-378.5 -138zM635 184q129 0 207 79.5t78 211.5v477
q0 132 -78 212.5t-207 80.5q-127 0 -205 -80.5t-78 -212.5v-477q0 -132 77.5 -211.5t205.5 -79.5z" />
    <glyph glyph-name="omacron" unicode="&#x14d;" horiz-adv-x="1140" 
d="M311 1210q-32 0 -32 33v98q0 33 32 33h518q15 0 24 -9t9 -24v-98q0 -15 -9 -24t-24 -9h-518zM573 -16q-161 0 -278.5 82t-161.5 227q-35 100 -35 233q0 130 33 234q46 143 163 223t281 80q156 0 270 -80t161 -221q36 -95 36 -234q0 -132 -34 -233q-46 -146 -161.5 -228.5
t-273.5 -82.5zM573 188q75 0 129.5 43.5t77.5 120.5q23 68 23 172q0 97 -21 172q-23 77 -79 119.5t-134 42.5t-133 -42.5t-78 -119.5q-20 -72 -20 -172t20 -172q23 -77 79.5 -120.5t135.5 -43.5z" />
    <glyph glyph-name="Ohungarumlaut" unicode="&#x150;" horiz-adv-x="1271" 
d="M395 1577q-19 0 -25.5 11t1.5 28l94 192q13 25 39 25h147q19 0 26.5 -11t-1.5 -28l-105 -195q-13 -22 -39 -22h-137zM752 1577q-19 0 -26.5 11t1.5 28l104 194q13 23 39 23h136q19 0 26 -11t-2 -28l-106 -195q-13 -22 -39 -22h-133zM635 -20q-234 0 -377 138t-143 365
v467q0 224 143.5 362t376.5 138q235 0 378.5 -138t143.5 -362v-467q0 -227 -143.5 -365t-378.5 -138zM635 184q129 0 207 79.5t78 211.5v477q0 132 -78 212.5t-207 80.5q-127 0 -205 -80.5t-78 -212.5v-477q0 -132 77.5 -211.5t205.5 -79.5z" />
    <glyph glyph-name="ohungarumlaut" unicode="&#x151;" horiz-adv-x="1140" 
d="M330 1190q-19 0 -26 11t1 28l94 192q13 25 39 25h148q19 0 26 -11t-2 -28l-104 -195q-13 -22 -39 -22h-137zM686 1190q-19 0 -26 11t2 28l104 194q13 23 39 23h135q19 0 26.5 -11t-1.5 -28l-107 -195q-13 -22 -39 -22h-133zM573 -16q-161 0 -278.5 82t-161.5 227
q-35 100 -35 233q0 130 33 234q46 143 163 223t281 80q156 0 270 -80t161 -221q36 -95 36 -234q0 -132 -34 -233q-46 -146 -161.5 -228.5t-273.5 -82.5zM573 188q75 0 129.5 43.5t77.5 120.5q23 68 23 172q0 97 -21 172q-23 77 -79 119.5t-134 42.5t-133 -42.5t-78 -119.5
q-20 -72 -20 -172t20 -172q23 -77 79.5 -120.5t135.5 -43.5z" />
    <glyph glyph-name="OE" unicode="&#x152;" horiz-adv-x="1898" 
d="M1806 1262q0 -33 -32 -33h-639q-13 0 -13 -12v-379q0 -13 13 -13h409q33 0 33 -32v-140q0 -32 -33 -32h-409q-13 0 -13 -13v-391q0 -12 13 -12h639q32 0 32 -33v-139q0 -33 -32 -33h-856q-15 0 -24 9t-9 24v47q0 17 -15 6q-134 -106 -311 -106q-190 0 -317 136t-127 349
v502q0 211 127 347t317 136q175 0 311 -104q15 -11 15 6v49q0 15 9 24t24 9h856q32 0 32 -33v-139zM616 184q121 0 195 77t74 198v512q0 121 -74 197.5t-195 76.5q-118 0 -191 -76.5t-73 -197.5v-512q0 -121 73 -198t191 -77z" />
    <glyph glyph-name="oe" unicode="&#x153;" horiz-adv-x="1775" 
d="M1276 182q57 0 113 30t90 79q22 28 45 8l102 -82q23 -17 8 -45q-63 -90 -161.5 -139t-225.5 -49q-216 0 -348 155q-3 5 -8 5t-8 -5q-62 -72 -148.5 -113.5t-185.5 -41.5q-152 0 -264.5 80.5t-157.5 216.5q-29 93 -29 245q0 161 29 244q43 134 156 213.5t266 79.5
q99 0 185 -41t149 -113q3 -5 8 -5t8 5q62 72 147 113t183 41q156 0 272 -82t156 -213q26 -80 29 -291q0 -35 -33 -35h-621q-12 0 -12 -12q3 -59 14 -86q21 -77 82.5 -119.5t159.5 -42.5zM743 344q19 53 19 182t-19 179q-17 70 -69 111.5t-125 41.5q-72 0 -124 -42t-71 -111
q-18 -59 -18 -179q0 -114 20 -182q17 -71 68.5 -113.5t124.5 -42.5q72 0 124 43t70 113zM1231 858q-76 0 -127.5 -42.5t-69.5 -113.5q-11 -32 -14 -84q0 -12 12 -12h402q12 0 12 12q-3 57 -14 84q-18 70 -71 113t-130 43z" />
    <glyph glyph-name="Racute" unicode="&#x154;" horiz-adv-x="1255" 
d="M795 1821q20 0 25.5 -11t-5.5 -28l-131 -197q-12 -20 -39 -20h-133q-19 0 -26.5 11t1.5 28l107 194q13 23 39 23h162zM961 0q-28 0 -39 25l-269 585q-3 8 -14 8h-240q-12 0 -12 -12v-573q0 -15 -9 -24t-24 -9h-172q-32 0 -32 33v1370q0 33 32 33h555q190 0 307 -115
t117 -303q0 -141 -72.5 -240.5t-199.5 -136.5q-14 -4 -6 -16l282 -586q8 -17 1.5 -28t-25.5 -11h-180zM399 1231q-12 0 -12 -12v-404q0 -12 12 -12h306q98 0 158.5 58.5t60.5 152.5q0 97 -60.5 157t-158.5 60h-306z" />
    <glyph glyph-name="racute" unicode="&#x155;" horiz-adv-x="770" 
d="M639 1444q20 0 25.5 -11t-5.5 -28l-131 -197q-12 -20 -39 -20h-133q-19 0 -26 11t2 28l106 194q13 23 39 23h162zM614 1059q57 0 109 -23q24 -12 18 -41l-32 -170q-5 -29 -39 -20q-48 14 -105 6q-86 -5 -143 -60.5t-57 -146.5v-571q0 -15 -9 -24t-24 -9h-172q-15 0 -24 9
t-9 24v981q0 15 9 24t24 9h172q15 0 24 -9t9 -24v-80q0 -8 3.5 -9.5t8.5 5.5q85 129 237 129z" />
    <glyph glyph-name="uni0156" unicode="&#x156;" horiz-adv-x="1255" 
d="M889 641q-14 -4 -6 -16l282 -586q8 -17 1.5 -28t-25.5 -11h-180q-28 0 -39 25l-269 585q-3 8 -14 8h-240q-12 0 -12 -12v-573q0 -15 -9 -24t-24 -9h-172q-32 0 -32 33v1370q0 33 32 33h555q190 0 307 -115t117 -303q0 -141 -72.5 -240.5t-199.5 -136.5zM399 1231
q-12 0 -12 -12v-404q0 -12 12 -12h306q98 0 158.5 58.5t60.5 152.5q0 97 -60.5 157t-158.5 60h-306zM465 -369q-19 0 -26.5 11t1.5 28l107 195q13 22 39 22h162q20 0 25.5 -11t-5.5 -28l-131 -196q-13 -21 -39 -21h-133z" />
    <glyph glyph-name="uni0157" unicode="&#x157;" horiz-adv-x="778" 
d="M614 1059q57 0 109 -23q24 -12 18 -41l-32 -170q-5 -29 -39 -20q-48 14 -105 6q-86 -5 -143 -60.5t-57 -146.5v-571q0 -15 -9 -24t-24 -9h-172q-15 0 -24 9t-9 24v981q0 15 9 24t24 9h172q15 0 24 -9t9 -24v-80q0 -8 3.5 -9.5t8.5 5.5q85 129 237 129zM31 -369
q-19 0 -26.5 11t1.5 28l107 195q13 22 39 22h161q20 0 26 -11t-5 -28l-131 -196q-13 -21 -39 -21h-133z" />
    <glyph glyph-name="Rcaron" unicode="&#x158;" horiz-adv-x="1255" 
d="M729 1565q-15 -21 -39 -21h-192q-24 0 -39 21l-140 200q-10 17 -3.5 28t26.5 11h117q25 0 39 -20l90 -131q3 -5 8 -5t8 5l90 131q14 20 39 20h115q20 0 25.5 -11t-5.5 -28zM961 0q-28 0 -39 25l-269 585q-3 8 -14 8h-240q-12 0 -12 -12v-573q0 -15 -9 -24t-24 -9h-172
q-32 0 -32 33v1370q0 33 32 33h555q190 0 307 -115t117 -303q0 -141 -72.5 -240.5t-199.5 -136.5q-14 -4 -6 -16l282 -586q8 -17 1.5 -28t-25.5 -11h-180zM399 1231q-12 0 -12 -12v-404q0 -12 12 -12h306q98 0 158.5 58.5t60.5 152.5q0 97 -60.5 157t-158.5 60h-306z" />
    <glyph glyph-name="rcaron" unicode="&#x159;" horiz-adv-x="770" 
d="M573 1188q-15 -21 -38 -21h-193q-24 0 -39 21l-139 201q-10 17 -4 27.5t26 10.5h117q25 0 39 -20l90 -131q3 -4 8.5 -4t8.5 4l90 131q14 20 39 20h114q20 0 26 -10.5t-5 -27.5zM614 1059q57 0 109 -23q24 -12 18 -41l-32 -170q-5 -29 -39 -20q-48 14 -105 6
q-86 -5 -143 -60.5t-57 -146.5v-571q0 -15 -9 -24t-24 -9h-172q-15 0 -24 9t-9 24v981q0 15 9 24t24 9h172q15 0 24 -9t9 -24v-80q0 -8 3.5 -9.5t8.5 5.5q85 129 237 129z" />
    <glyph glyph-name="Sacute" unicode="&#x15a;" horiz-adv-x="1208" 
d="M512 1581q-19 0 -26.5 11t1.5 28l107 195q13 22 39 22h162q20 0 25.5 -11t-5.5 -28l-131 -196q-13 -21 -39 -21h-133zM610 -16q-236 0 -377 112t-141 299v43q0 15 9 24t24 9h168q33 0 33 -31v-32q0 -94 83 -157t220 -63q125 0 188.5 53.5t63.5 137.5q0 30 -8 54t-29 45.5
t-43.5 38.5t-65.5 37.5t-80 36t-102 40.5q-60 22 -96.5 36.5t-89.5 39t-85.5 46.5t-69.5 55t-57.5 68.5t-34.5 83t-14 101.5q0 181 131.5 285t350.5 104q233 0 376.5 -116.5t143.5 -305.5v-27q0 -32 -33 -32h-168q-15 0 -24 6.5t-9 17.5v23q0 97 -78.5 163t-217.5 66
q-114 0 -176 -47t-62 -133q0 -37 13.5 -66.5t34.5 -51t68 -45.5t91 -41.5t127 -47.5q176 -67 248 -111q174 -104 193 -270q3 -23 3 -47q0 -182 -137 -291.5t-371 -109.5z" />
    <glyph glyph-name="sacute" unicode="&#x15b;" horiz-adv-x="1011" 
d="M422 1190q-19 0 -26.5 11t1.5 28l107 194q13 23 39 23h162q20 0 25.5 -11t-5.5 -28l-131 -197q-12 -20 -39 -20h-133zM518 -12q-194 0 -312 82t-118 209v10q0 15 9 24t24 9h164q32 0 32 -15v-14q0 -52 56 -89.5t143 -37.5q82 0 133 33.5t51 85.5q0 21 -10.5 38t-25 28
t-42.5 22t-51 18t-62 18.5t-65 20.5q-60 18 -100 32.5t-91 41.5t-81.5 57.5t-52 78t-21.5 105.5q0 145 112 229.5t296 84.5q188 0 303 -87t115 -224q0 -11 -9 -18t-24 -7h-158q-33 0 -33 12v13q0 53 -52.5 88.5t-141.5 35.5q-81 0 -130.5 -29t-49.5 -83q0 -14 3.5 -26
t13 -22t18 -18t26 -16t29.5 -13.5t36 -12.5t38.5 -11.5t43.5 -12.5t44 -12q52 -15 86.5 -26.5t81.5 -31.5t77 -42.5t58.5 -53.5t42.5 -72t14 -91q0 -146 -114 -228.5t-306 -82.5z" />
    <glyph glyph-name="Scedilla" unicode="&#x15e;" horiz-adv-x="1208" 
d="M1118 385q0 -159 -107.5 -264.5t-297.5 -130.5q-8 -2 -9 -6t5 -9q111 -108 82 -227q-14 -51 -48.5 -81.5t-78.5 -39t-86 -6t-80 13.5q-26 9 -23 39l10 64q6 30 39 24q40 -9 71 4t40 48q17 75 -98 168q-6 6 -15 6q-199 22 -314.5 130.5t-115.5 276.5v43q0 15 9 24t24 9
h168q33 0 33 -31v-32q0 -94 83 -157t220 -63q125 0 188.5 53.5t63.5 137.5q0 30 -8 54t-29 45.5t-43.5 38.5t-65.5 37.5t-80 36t-102 40.5q-60 22 -96.5 36.5t-89.5 39t-85.5 46.5t-69.5 55t-57.5 68.5t-34.5 83t-14 101.5q0 181 131.5 285t350.5 104q233 0 376.5 -116.5
t143.5 -305.5v-27q0 -32 -33 -32h-168q-15 0 -24 6.5t-9 17.5v23q0 97 -78.5 163t-217.5 66q-114 0 -176 -47t-62 -133q0 -37 13.5 -66.5t34.5 -51t68 -45.5t91 -41.5t127 -47.5q176 -67 248 -111q174 -104 193 -270q3 -23 3 -47z" />
    <glyph glyph-name="scedilla" unicode="&#x15f;" horiz-adv-x="1011" 
d="M938 299q0 -123 -83.5 -203t-229.5 -102q-18 -4 -4 -14q113 -110 84 -228q-14 -51 -48.5 -81.5t-79 -38.5t-86 -5.5t-79.5 13.5q-26 9 -23 38l10 64q6 31 39 25q40 -10 71 3t40 48q17 75 -98 168q-6 6 -15 6q-159 17 -253.5 96t-94.5 191v10q0 15 9 24t24 9h164
q32 0 32 -15v-14q0 -52 56 -89.5t143 -37.5q82 0 133 33.5t51 85.5q0 21 -10.5 38t-25 28t-42.5 22t-51 18t-62 18.5t-65 20.5q-60 18 -100 32.5t-91 41.5t-81.5 57.5t-52 78t-21.5 105.5q0 145 112 229.5t296 84.5q188 0 303 -87t115 -224q0 -11 -9 -18t-24 -7h-158
q-33 0 -33 12v13q0 53 -52.5 88.5t-141.5 35.5q-81 0 -130.5 -29t-49.5 -83q0 -14 3.5 -26t13 -22t18 -18t26 -16t29.5 -13.5t36 -12.5t38.5 -11.5t43.5 -12.5t44 -12q52 -15 86.5 -26.5t81.5 -31.5t77 -42.5t58.5 -53.5t42.5 -72t14 -91z" />
    <glyph glyph-name="Scaron" unicode="&#x160;" horiz-adv-x="1208" 
d="M498 1561q-25 0 -39 20l-140 201q-10 17 -3.5 28t26.5 11h117q24 0 39 -21l90 -131q3 -5 8 -5t8 5l90 131q15 21 39 21h115q20 0 25.5 -11t-5.5 -28l-139 -201q-14 -20 -39 -20h-192zM610 -16q-236 0 -377 112t-141 299v43q0 15 9 24t24 9h168q33 0 33 -31v-32
q0 -94 83 -157t220 -63q125 0 188.5 53.5t63.5 137.5q0 30 -8 54t-29 45.5t-43.5 38.5t-65.5 37.5t-80 36t-102 40.5q-60 22 -96.5 36.5t-89.5 39t-85.5 46.5t-69.5 55t-57.5 68.5t-34.5 83t-14 101.5q0 181 131.5 285t350.5 104q233 0 376.5 -116.5t143.5 -305.5v-27
q0 -32 -33 -32h-168q-15 0 -24 6.5t-9 17.5v23q0 97 -78.5 163t-217.5 66q-114 0 -176 -47t-62 -133q0 -37 13.5 -66.5t34.5 -51t68 -45.5t91 -41.5t127 -47.5q176 -67 248 -111q174 -104 193 -270q3 -23 3 -47q0 -182 -137 -291.5t-371 -109.5z" />
    <glyph glyph-name="scaron" unicode="&#x161;" horiz-adv-x="1011" 
d="M408 1169q-24 0 -39 21l-140 201q-10 17 -3.5 28t26.5 11h117q24 0 39 -21l90 -131q3 -4 8 -4t8 4l90 131q15 21 39 21h115q20 0 25.5 -11t-5.5 -28l-139 -201q-15 -21 -39 -21h-192zM518 -12q-194 0 -312 82t-118 209v10q0 15 9 24t24 9h164q32 0 32 -15v-14
q0 -52 56 -89.5t143 -37.5q82 0 133 33.5t51 85.5q0 21 -10.5 38t-25 28t-42.5 22t-51 18t-62 18.5t-65 20.5q-60 18 -100 32.5t-91 41.5t-81.5 57.5t-52 78t-21.5 105.5q0 145 112 229.5t296 84.5q188 0 303 -87t115 -224q0 -11 -9 -18t-24 -7h-158q-33 0 -33 12v13
q0 53 -52.5 88.5t-141.5 35.5q-81 0 -130.5 -29t-49.5 -83q0 -14 3.5 -26t13 -22t18 -18t26 -16t29.5 -13.5t36 -12.5t38.5 -11.5t43.5 -12.5t44 -12q52 -15 86.5 -26.5t81.5 -31.5t77 -42.5t58.5 -53.5t42.5 -72t14 -91q0 -146 -114 -228.5t-306 -82.5z" />
    <glyph glyph-name="uni0162" unicode="&#x162;" horiz-adv-x="1185" 
d="M717 1227q-12 0 -12 -13v-1181q0 -33 -11 -33q-7 0 -1 -9q2 -3 5 -5q105 -105 76 -222q-14 -51 -48.5 -81.5t-79 -38.5t-86 -5.5t-79.5 13.5q-25 8 -22 39l10 63q6 31 39 25q40 -9 70.5 3.5t39.5 47.5q17 75 -94 164q-6 6 -14 6h-10q-15 0 -24 9t-9 24v1181q0 13 -12 13
h-353q-32 0 -32 33v141q0 33 32 33h981q15 0 24 -9t9 -24v-141q0 -15 -9 -24t-24 -9h-366z" />
    <glyph glyph-name="uni0163" unicode="&#x163;" horiz-adv-x="765" 
d="M666 39q0 -32 -33 -35q-17 0 -49 -1t-49 -1q-79 0 -134.5 11.5t-100 40t-66.5 82t-23 132.5v574q0 12 -12 12h-107q-15 0 -24 9t-9 24v127q0 15 9 24t24 9h107q12 0 12 12v229q0 15 9 24t24 9h162q32 0 32 -33v-229q0 -12 13 -12h198q15 0 24 -9t9 -24v-127q0 -15 -9 -24
t-24 -9h-198q-13 0 -13 -12v-484q0 -79 34.5 -114t107.5 -35h53q15 0 24 -9t9 -24v-137zM532 -78q24 0 41 -14q139 -116 107 -248q-14 -51 -48.5 -81.5t-78.5 -39t-86 -6t-80 13.5q-25 8 -22 39l10 64q6 30 39 24q40 -9 70.5 4t39.5 48q16 67 -84 157q-19 15 -14.5 27
t27.5 12h79z" />
    <glyph glyph-name="Tcaron" unicode="&#x164;" horiz-adv-x="1185" 
d="M723 1556q-14 -20 -39 -20h-192q-25 0 -39 20l-140 201q-10 17 -3.5 28t26.5 11h117q25 0 39 -20l90 -134q3 -4 8 -4t8 4l90 134q14 20 39 20h115q20 0 25.5 -11t-5.5 -28zM1083 1434q15 0 24 -9t9 -24v-141q0 -15 -9 -24t-24 -9h-366q-12 0 -12 -13v-1181q0 -15 -9 -24
t-24 -9h-172q-15 0 -24 9t-9 24v1181q0 13 -12 13h-353q-32 0 -32 33v141q0 33 32 33h981z" />
    <glyph glyph-name="tcaron" unicode="&#x165;" horiz-adv-x="765" 
d="M465 1444q-15 -21 -39 -21h-193q-23 0 -38 21l-140 201q-10 17 -3.5 27.5t26.5 10.5h117q24 0 38 -20l91 -133q3 -4 8 -4t8 4l90 133q14 20 39 20h115q20 0 25.5 -10.5t-5.5 -27.5zM682 887q0 -15 -9 -24t-24 -9h-198q-13 0 -13 -12v-484q0 -79 34.5 -114t107.5 -35h53
q15 0 24 -9t9 -24v-137q0 -32 -33 -35q-17 0 -49 -1t-49 -1q-79 0 -134.5 11.5t-100 40t-66.5 82t-23 132.5v574q0 12 -12 12h-107q-15 0 -24 9t-9 24v127q0 15 9 24t24 9h107q12 0 12 12v229q0 15 9 24t24 9h162q32 0 32 -33v-229q0 -12 13 -12h198q15 0 24 -9t9 -24v-127z
" />
    <glyph glyph-name="Tbar" unicode="&#x166;" horiz-adv-x="1228" 
d="M1116 1260q0 -15 -9 -24t-24 -9h-366q-12 0 -12 -13v-356q0 -12 12 -12h194q15 0 24 -9t9 -24v-82q0 -15 -9 -24t-24 -9h-194q-12 0 -12 -12v-653q0 -15 -9 -24t-24 -9h-172q-15 0 -24 9t-9 24v653q0 12 -12 12h-176q-15 0 -24 9t-9 24v82q0 15 9 24t24 9h176q12 0 12 12
v356q0 13 -12 13h-353q-32 0 -32 33v141q0 33 32 33h981q15 0 24 -9t9 -24v-141z" />
    <glyph glyph-name="tbar" unicode="&#x167;" horiz-adv-x="1228" 
d="M682 887q0 -15 -9 -24t-24 -9h-198q-13 0 -13 -12v-117q0 -12 13 -12h190q15 0 24 -9t9 -24v-82q0 -15 -9 -24t-24 -9h-190q-13 0 -13 -12v-195q0 -79 34.5 -114t107.5 -35h53q15 0 24 -9t9 -24v-137q0 -32 -33 -35q-17 0 -49 -1t-49 -1q-79 0 -134.5 11.5t-100 40
t-66.5 82t-23 132.5v285q0 12 -12 12h-101q-32 0 -32 33v82q0 33 32 33h101q12 0 12 12v117q0 12 -12 12h-107q-15 0 -24 9t-9 24v127q0 15 9 24t24 9h107q12 0 12 12v229q0 15 9 24t24 9h162q32 0 32 -33v-229q0 -12 13 -12h198q15 0 24 -9t9 -24v-127z" />
    <glyph glyph-name="Umacron" unicode="&#x16a;" horiz-adv-x="1302" 
d="M393 1608q-33 0 -33 32v99q0 15 9 24t24 9h518q15 0 24 -9t9 -24v-99q0 -32 -33 -32h-518zM651 -16q-231 0 -372.5 131.5t-141.5 349.5v936q0 15 9 24t24 9h172q15 0 24 -9t9 -24v-940q0 -122 76 -197.5t200 -75.5t200.5 75.5t76.5 197.5v940q0 15 9 24t24 9h172
q32 0 32 -33v-936q0 -218 -141 -349.5t-373 -131.5z" />
    <glyph glyph-name="umacron" unicode="&#x16b;" horiz-adv-x="1107" 
d="M807 1358q15 0 24 -9t9 -24v-98q0 -15 -9 -24t-24 -9h-518q-15 0 -24 9t-9 24v98q0 15 9 24t24 9h518zM745 1014q0 15 9 24t24 9h170q15 0 24 -9t9 -24v-981q0 -15 -9 -24t-24 -9h-170q-15 0 -24 9t-9 24v53q0 8 -4.5 9.5t-9.5 -5.5q-81 -104 -250 -104q-156 0 -261 90.5
t-105 255.5v682q0 33 32 33h172q15 0 24 -9t9 -24v-615q0 -97 50 -154t141 -57q92 0 147 57.5t55 153.5v615z" />
    <glyph glyph-name="Uring" unicode="&#x16e;" horiz-adv-x="1302" 
d="M651 1567q-94 0 -158.5 64.5t-64.5 156.5q0 94 64.5 157.5t158.5 63.5t158.5 -63.5t64.5 -157.5q0 -92 -64.5 -156.5t-158.5 -64.5zM651 1679q45 0 78 32t33 77q0 46 -33 78t-78 32q-46 0 -78 -31.5t-32 -78.5q0 -46 32 -77.5t78 -31.5zM651 -16q-231 0 -372.5 131.5
t-141.5 349.5v936q0 15 9 24t24 9h172q15 0 24 -9t9 -24v-940q0 -122 76 -197.5t200 -75.5t200.5 75.5t76.5 197.5v940q0 15 9 24t24 9h172q32 0 32 -33v-936q0 -218 -141 -349.5t-373 -131.5z" />
    <glyph glyph-name="uring" unicode="&#x16f;" horiz-adv-x="1107" 
d="M547 1153q-94 0 -158.5 64.5t-64.5 156.5q0 94 64.5 157.5t158.5 63.5t158.5 -63.5t64.5 -157.5q0 -92 -64.5 -156.5t-158.5 -64.5zM547 1485q-46 0 -78.5 -32t-32.5 -79q0 -45 32.5 -76.5t78.5 -31.5q45 0 77.5 31.5t32.5 76.5q0 47 -32.5 79t-77.5 32zM745 1014
q0 15 9 24t24 9h170q15 0 24 -9t9 -24v-981q0 -15 -9 -24t-24 -9h-170q-15 0 -24 9t-9 24v53q0 8 -4.5 9.5t-9.5 -5.5q-81 -104 -250 -104q-156 0 -261 90.5t-105 255.5v682q0 33 32 33h172q15 0 24 -9t9 -24v-615q0 -97 50 -154t141 -57q92 0 147 57.5t55 153.5v615z" />
    <glyph glyph-name="Uhungarumlaut" unicode="&#x170;" horiz-adv-x="1302" 
d="M412 1587q-19 0 -26 11t1 28l94 193q12 24 39 24h148q19 0 26 -11t-2 -28l-104 -194q-13 -23 -39 -23h-137zM768 1587q-19 0 -26.5 11t1.5 28l105 195q13 22 39 22h135q19 0 26.5 -11t-1.5 -28l-107 -194q-13 -23 -39 -23h-133zM651 -16q-231 0 -372.5 131.5
t-141.5 349.5v936q0 15 9 24t24 9h172q15 0 24 -9t9 -24v-940q0 -122 76 -197.5t200 -75.5t200.5 75.5t76.5 197.5v940q0 15 9 24t24 9h172q32 0 32 -33v-936q0 -218 -141 -349.5t-373 -131.5z" />
    <glyph glyph-name="uhungarumlaut" unicode="&#x171;" horiz-adv-x="1107" 
d="M563 1430q19 0 26.5 -11t-1.5 -28l-105 -195q-13 -22 -39 -22h-137q-19 0 -25.5 10.5t1.5 27.5l94 193q13 25 39 25h147zM918 1430q19 0 26 -11t-2 -28l-106 -195q-13 -22 -39 -22h-133q-19 0 -26.5 10.5t1.5 27.5l104 195q13 23 39 23h136zM745 1014q0 15 9 24t24 9h170
q15 0 24 -9t9 -24v-981q0 -15 -9 -24t-24 -9h-170q-15 0 -24 9t-9 24v53q0 8 -4.5 9.5t-9.5 -5.5q-81 -104 -250 -104q-156 0 -261 90.5t-105 255.5v682q0 33 32 33h172q15 0 24 -9t9 -24v-615q0 -97 50 -154t141 -57q92 0 147 57.5t55 153.5v615z" />
    <glyph glyph-name="Uogonek" unicode="&#x172;" horiz-adv-x="1302" 
d="M928 1401q0 15 9 24t24 9h172q32 0 32 -33v-936q0 -200 -120 -328.5t-324 -150.5q-8 0 -14 -6q-97 -83 -80 -152q9 -35 39.5 -47.5t70.5 -3.5q33 6 39 -25l10 -63q3 -31 -24 -39q-37 -11 -78.5 -13.5t-85.5 5.5t-78.5 38.5t-48.5 81.5q-29 111 72 215q5 5 3 10t-9 5
q-185 33 -292.5 158.5t-107.5 314.5v936q0 15 9 24t24 9h172q15 0 24 -9t9 -24v-940q0 -122 76 -197.5t200 -75.5t200.5 75.5t76.5 197.5v940z" />
    <glyph glyph-name="uogonek" unicode="&#x173;" horiz-adv-x="1114" 
d="M965 -248q33 6 39 -24l10 -64q3 -31 -25 -39q-37 -11 -78.5 -13.5t-85.5 6t-78.5 39t-48.5 81.5q-33 131 107 248q4 3 5 6.5t-1.5 5.5t-7.5 2h-23q-15 0 -24 9t-9 24v53q0 8 -4.5 9.5t-9.5 -5.5q-81 -104 -250 -104q-156 0 -261 90.5t-105 255.5v682q0 33 32 33h172
q15 0 24 -9t9 -24v-615q0 -97 50 -154t141 -57q92 0 147 57.5t55 153.5v615q0 15 9 24t24 9h170q15 0 24 -9t9 -24v-1006q0 -10 -4 -14q-15 -15 -39 -33q-100 -90 -84 -158q9 -35 40 -48t71 -3z" />
    <glyph glyph-name="Wcircumflex" unicode="&#x174;" horiz-adv-x="1775" 
d="M629 1556q-20 0 -26.5 12t5.5 27l150 201q15 21 39 21h176q21 0 39 -21l151 -199q12 -15 6 -28t-26 -13h-119q-24 0 -39 21l-90 131q-3 4 -8 4t-8 -4l-91 -131q-15 -21 -38 -21h-121zM451 0q-31 0 -37 29l-369 1368q-4 17 4 27t25 10h184q29 0 35 -29l231 -922
q2 -9 8.5 -8.5t8.5 8.5l219 922q6 29 35 29h184q31 0 37 -29l233 -922q1 -9 8 -9t9 9l227 922q6 29 35 29h176q17 0 24.5 -10t2.5 -27l-349 -1368q-6 -29 -36 -29h-179q-28 0 -34 29l-238 964q-1 6 -4.5 7.5t-7 -0.5t-4.5 -7l-228 -964q-6 -29 -35 -29h-165z" />
    <glyph glyph-name="wcircumflex" unicode="&#x175;" horiz-adv-x="1558" 
d="M506 1169q-20 0 -26.5 12t5.5 27l150 201q15 21 39 21h176q22 0 39 -21l151 -199q12 -15 6 -28t-26 -13h-119q-24 0 -39 21l-90 131q-3 5 -8 5t-8 -5l-90 -131q-15 -21 -39 -21h-121zM381 0q-28 0 -37 27l-289 983q-4 17 4 27t25 10h178q29 0 35 -29l168 -672
q1 -6 4.5 -7.5t7 0.5t4.5 7l174 672q6 29 37 29h158q31 0 37 -29l180 -674q1 -8 8 -8t8 8l177 674q6 29 36 29l177 -3q37 0 28 -36l-291 -981q-9 -27 -36 -27h-183q-28 0 -37 27l-176 612q-2 5 -5.5 7t-6.5 0t-4 -7l-162 -610q-6 -29 -37 -29h-182z" />
    <glyph glyph-name="Ycircumflex" unicode="&#x176;" horiz-adv-x="1226" 
d="M354 1556q-20 0 -26 12t6 27l149 201q15 21 39 21h176q22 0 39 -21l152 -199q12 -15 5.5 -28t-26.5 -13h-118q-24 0 -39 21l-90 131q-3 4 -8.5 4t-8.5 -4l-90 -131q-15 -21 -39 -21h-121zM526 2q-32 0 -32 33v538q0 5 -5 15l-413 807q-9 17 -3 28t25 11h187q27 0 39 -25
l280 -563q3 -6 8.5 -6t8.5 6l282 563q13 25 39 25h188q19 0 25.5 -11t-2.5 -28l-418 -807q-4 -12 -4 -15v-538q0 -15 -9 -24t-24 -9h-172z" />
    <glyph glyph-name="ycircumflex" unicode="&#x177;" horiz-adv-x="1001" 
d="M242 1186q-20 0 -26.5 12t5.5 27l150 200q15 21 39 21h176q22 0 39 -21l151 -198q12 -15 6 -28t-26 -13h-119q-25 0 -39 20l-90 131q-3 5 -8 5t-8 -5l-91 -131q-14 -20 -39 -20h-120zM106 -408q-14 0 -14 33v131q0 33 14 33h13q123 0 175 39t87 164q3 10 0 16l-334 1002
q-12 37 27 37h184q28 0 37 -27l201 -678q3 -8 8 -8t8 8l195 678q9 27 36 27h185q38 0 26 -37l-358 -1067q-25 -72 -46.5 -120t-50 -90.5t-60.5 -67t-78.5 -42t-103.5 -24.5t-136 -7h-15z" />
    <glyph glyph-name="Ydieresis" unicode="&#x178;" horiz-adv-x="1226" 
d="M426 1577q-57 0 -93 35t-36 92t36 92t93 35q56 0 90.5 -35t34.5 -92t-34.5 -92t-90.5 -35zM801 1577q-57 0 -92 35t-35 92t35 92t92 35t92 -35t35 -92t-35 -92t-92 -35zM526 2q-32 0 -32 33v538q0 5 -5 15l-413 807q-9 17 -3 28t25 11h187q27 0 39 -25l280 -563
q3 -6 8.5 -6t8.5 6l282 563q13 25 39 25h188q19 0 25.5 -11t-2.5 -28l-418 -807q-4 -12 -4 -15v-538q0 -15 -9 -24t-24 -9h-172z" />
    <glyph glyph-name="Zacute" unicode="&#x179;" horiz-adv-x="1134" 
d="M477 1591q-19 0 -26 11t2 28l106 195q13 22 39 22h162q20 0 25.5 -11t-5.5 -28l-131 -196q-13 -21 -39 -21h-133zM109 0q-15 0 -24 9t-9 24v160q0 22 12 40l686 981q4 6 2 10.5t-10 4.5h-657q-15 0 -24 9t-9 24v139q0 15 9 24t24 9h905q15 0 24 -9t9 -24v-160
q0 -21 -13 -41l-686 -981q-4 -6 -2 -10t10 -4h658q15 0 24 -9t9 -24v-139q0 -15 -9 -24t-24 -9h-905z" />
    <glyph glyph-name="zacute" unicode="&#x17a;" horiz-adv-x="931" 
d="M377 1202q-19 0 -26.5 11t1.5 28l107 195q13 22 39 22h161q20 0 26 -11t-5 -28l-131 -196q-13 -21 -39 -21h-133zM90 0q-15 0 -24 9t-9 24v160q0 22 15 40l497 584q4 6 2 10t-10 4h-461q-32 0 -32 33v150q0 33 32 33h729q15 0 24 -9t9 -24v-160q0 -24 -14 -41l-510 -584
q-4 -6 -2 -10t10 -4h490q32 0 32 -33v-149q0 -33 -32 -33h-746z" />
    <glyph glyph-name="Zdotaccent" unicode="&#x17b;" horiz-adv-x="1134" 
d="M561 1585q-53 0 -86 33.5t-33 85.5t33 84.5t86 32.5t85 -32.5t32 -84.5q0 -53 -32.5 -86t-84.5 -33zM109 0q-15 0 -24 9t-9 24v160q0 22 12 40l686 981q4 6 2 10.5t-10 4.5h-657q-15 0 -24 9t-9 24v139q0 15 9 24t24 9h905q15 0 24 -9t9 -24v-160q0 -21 -13 -41
l-686 -981q-4 -6 -2 -10t10 -4h658q15 0 24 -9t9 -24v-139q0 -15 -9 -24t-24 -9h-905z" />
    <glyph glyph-name="zdotaccent" unicode="&#x17c;" horiz-adv-x="931" 
d="M461 1196q-53 0 -86 33t-33 86q0 52 33 84.5t86 32.5t85 -32t32 -85t-32.5 -86t-84.5 -33zM90 0q-15 0 -24 9t-9 24v160q0 22 15 40l497 584q4 6 2 10t-10 4h-461q-32 0 -32 33v150q0 33 32 33h729q15 0 24 -9t9 -24v-160q0 -24 -14 -41l-510 -584q-4 -6 -2 -10t10 -4
h490q32 0 32 -33v-149q0 -33 -32 -33h-746z" />
    <glyph glyph-name="Zcaron" unicode="&#x17d;" horiz-adv-x="1134" 
d="M463 1571q-25 0 -39 20l-139 201q-11 17 -4.5 28t26.5 11h117q24 0 39 -21l90 -131q3 -5 8 -5t8 5l90 131q15 21 39 21h115q20 0 26 -11t-5 -28l-140 -201q-14 -20 -39 -20h-192zM109 0q-15 0 -24 9t-9 24v160q0 22 12 40l686 981q4 6 2 10.5t-10 4.5h-657q-15 0 -24 9
t-9 24v139q0 15 9 24t24 9h905q15 0 24 -9t9 -24v-160q0 -21 -13 -41l-686 -981q-4 -6 -2 -10t10 -4h658q15 0 24 -9t9 -24v-139q0 -15 -9 -24t-24 -9h-905z" />
    <glyph glyph-name="zcaron" unicode="&#x17e;" horiz-adv-x="931" 
d="M362 1182q-24 0 -38 20l-140 201q-10 17 -3.5 28t26.5 11h117q23 0 38 -21l91 -131q3 -4 8 -4t8 4l90 131q15 21 39 21h115q20 0 25.5 -11t-5.5 -28l-139 -201q-14 -20 -39 -20h-193zM90 0q-15 0 -24 9t-9 24v160q0 22 15 40l497 584q4 6 2 10t-10 4h-461q-32 0 -32 33
v150q0 33 32 33h729q15 0 24 -9t9 -24v-160q0 -24 -14 -41l-510 -584q-4 -6 -2 -10t10 -4h490q32 0 32 -33v-149q0 -33 -32 -33h-746z" />
    <glyph glyph-name="florin" unicode="&#x192;" horiz-adv-x="1128" 
d="M530 1096q9 63 22.5 109.5t32.5 83.5t47.5 61.5t63 41.5t84.5 26t107 12.5t135 3.5q15 0 24 -9t9 -24v-127q0 -15 -9 -24t-24 -9h-76q-89 0 -127 -35.5t-53 -130.5l-31 -188q-3 -13 13 -13h145q33 0 33 -32v-146q0 -32 -33 -32h-180q-11 0 -15 -11l-114 -725
q-12 -73 -27.5 -124t-43 -90.5t-61.5 -62.5t-88 -37.5t-117.5 -19.5t-154.5 -4q-15 0 -24 9t-9 24v127q0 15 9 24t24 9h76q86 0 125.5 35.5t54.5 130.5l111 702q3 13 -13 13h-124q-33 0 -33 32v146q0 32 33 32h161q11 0 15 11z" />
    <glyph glyph-name="uni01CD" unicode="&#x1cd;" horiz-adv-x="1327" 
d="M793 1556q-14 -20 -39 -20h-193q-25 0 -39 20l-139 201q-10 17 -3.5 28t26.5 11h116q25 0 39 -20l90 -134q3 -4 8.5 -4t8.5 4l90 134q14 20 39 20h114q20 0 26 -11t-5 -28zM1047 0q-28 0 -37 27l-64 211q-2 10 -14 10h-537q-11 0 -14 -10l-64 -211q-9 -27 -36 -27h-187
q-36 0 -26 37l438 1370q9 27 37 27h239q28 0 37 -27l441 -1370q5 -17 -2.5 -27t-24.5 -10h-186zM444 449q-3 -15 11 -15h417q14 0 11 15l-211 696q-3 7 -8.5 7t-8.5 -7z" />
    <glyph glyph-name="uni01CE" unicode="&#x1ce;" horiz-adv-x="1069" 
d="M430 1165q-24 0 -39 21l-139 200q-11 17 -4.5 28t26.5 11h117q25 0 39 -20l90 -133q3 -4 8.5 -4t8.5 4l90 133q14 20 39 20h114q20 0 26 -11t-5 -28l-139 -200q-15 -21 -39 -21h-193zM526 1063q196 0 315.5 -97.5t119.5 -250.5v-682q0 -15 -9 -24t-24 -9h-172
q-15 0 -24 9t-9 24v51q0 16 -14 6q-109 -106 -295 -106q-152 0 -249 78t-97 231q0 159 111.5 248.5t314.5 89.5h217q12 0 12 12v47q0 80 -48 124t-143 44q-72 0 -119.5 -25.5t-62.5 -70.5q-9 -30 -37 -27l-184 23q-15 2 -23.5 9t-7.5 17q19 123 136 201t292 78zM479 172
q100 0 172 53t72 135v95q0 12 -12 12h-170q-109 0 -172.5 -41.5t-63.5 -116.5q0 -65 48.5 -101t125.5 -36z" />
    <glyph glyph-name="uni0218" unicode="&#x218;" horiz-adv-x="1208" 
d="M610 -16q-236 0 -377 112t-141 299v43q0 15 9 24t24 9h168q33 0 33 -31v-32q0 -94 83 -157t220 -63q125 0 188.5 53.5t63.5 137.5q0 30 -8 54t-29 45.5t-43.5 38.5t-65.5 37.5t-80 36t-102 40.5q-60 22 -96.5 36.5t-89.5 39t-85.5 46.5t-69.5 55t-57.5 68.5t-34.5 83
t-14 101.5q0 181 131.5 285t350.5 104q233 0 376.5 -116.5t143.5 -305.5v-27q0 -32 -33 -32h-168q-15 0 -24 6.5t-9 17.5v23q0 97 -78.5 163t-217.5 66q-114 0 -176 -47t-62 -133q0 -37 13.5 -66.5t34.5 -51t68 -45.5t91 -41.5t127 -47.5q176 -67 248 -111
q174 -104 193 -270q3 -23 3 -47q0 -182 -137 -291.5t-371 -109.5zM444 -385q-19 0 -26 11t2 28l106 194q13 23 39 23h162q20 0 26 -11t-5 -28l-132 -197q-13 -20 -38 -20h-134z" />
    <glyph glyph-name="uni0219" unicode="&#x219;" horiz-adv-x="1011" 
d="M518 -12q-194 0 -312 82t-118 209v10q0 15 9 24t24 9h164q32 0 32 -15v-14q0 -52 56 -89.5t143 -37.5q82 0 133 33.5t51 85.5q0 21 -10.5 38t-25 28t-42.5 22t-51 18t-62 18.5t-65 20.5q-60 18 -100 32.5t-91 41.5t-81.5 57.5t-52 78t-21.5 105.5q0 145 112 229.5
t296 84.5q188 0 303 -87t115 -224q0 -11 -9 -18t-24 -7h-158q-33 0 -33 12v13q0 53 -52.5 88.5t-141.5 35.5q-81 0 -130.5 -29t-49.5 -83q0 -14 3.5 -26t13 -22t18 -18t26 -16t29.5 -13.5t36 -12.5t38.5 -11.5t43.5 -12.5t44 -12q52 -15 86.5 -26.5t81.5 -31.5t77 -42.5
t58.5 -53.5t42.5 -72t14 -91q0 -146 -114 -228.5t-306 -82.5zM358 -381q-19 0 -26 11t2 28l106 195q13 22 39 22h162q20 0 26 -11t-5 -28l-132 -196q-13 -21 -38 -21h-134z" />
    <glyph glyph-name="uni021A" unicode="&#x21a;" horiz-adv-x="1208" 
d="M70 1401q0 33 32 33h981q15 0 24 -9t9 -24v-141q0 -15 -9 -24t-24 -9h-366q-12 0 -12 -13v-1181q0 -15 -9 -24t-24 -9h-172q-15 0 -24 9t-9 24v1181q0 13 -12 13h-353q-32 0 -32 33v141zM383 -369q-19 0 -26.5 11t1.5 28l107 195q13 22 39 22h162q20 0 25.5 -11t-5.5 -28
l-131 -196q-13 -21 -39 -21h-133z" />
    <glyph glyph-name="uni021B" unicode="&#x21b;" horiz-adv-x="765" 
d="M682 887q0 -15 -9 -24t-24 -9h-198q-13 0 -13 -12v-484q0 -79 34.5 -114t107.5 -35h53q15 0 24 -9t9 -24v-137q0 -32 -33 -35q-17 0 -49 -1t-49 -1q-79 0 -134.5 11.5t-100 40t-66.5 82t-23 132.5v574q0 12 -12 12h-107q-15 0 -24 9t-9 24v127q0 15 9 24t24 9h107
q12 0 12 12v229q0 15 9 24t24 9h162q32 0 32 -33v-229q0 -12 13 -12h198q15 0 24 -9t9 -24v-127zM334 -473q-19 0 -26.5 11t1.5 28l107 194q13 23 39 23h161q20 0 26 -11t-5 -28l-131 -197q-13 -20 -39 -20h-133z" />
    <glyph glyph-name="uni0228" unicode="&#x228;" horiz-adv-x="1212" 
d="M1120 1262q0 -15 -9 -24t-24 -9h-688q-12 0 -12 -12v-379q0 -13 12 -13h459q33 0 33 -32v-140q0 -32 -33 -32h-459q-12 0 -12 -13v-391q0 -12 12 -12h688q15 0 24 -9t9 -24v-139q0 -15 -9 -24t-24 -9h-329q-8 0 -10 -5t4 -9q104 -104 75 -222q-14 -51 -48.5 -81.5
t-78.5 -38.5t-85.5 -5.5t-79.5 13.5q-26 9 -23 39l10 63q6 31 39 25q40 -10 71 3t40 48q17 75 -94 164q-6 6 -15 6h-381q-32 0 -32 33v1368q0 33 32 33h905q15 0 24 -9t9 -24v-139z" />
    <glyph glyph-name="uni0229" unicode="&#x229;" horiz-adv-x="1110" 
d="M596 184q150 6 223 113q19 29 45 10l99 -78q24 -20 10 -45q-100 -155 -295 -190q-7 -1 -8.5 -7t4.5 -10q118 -106 88 -231q-14 -51 -48.5 -81.5t-78.5 -39t-86 -6t-80 13.5q-26 9 -23 39l11 64q6 30 39 24q40 -9 70.5 4t39.5 48q17 78 -102 172q-6 3 -15 6
q-129 18 -216.5 91.5t-129.5 192.5q-41 112 -41 254q0 139 23 217q39 146 154 232t278 86q383 0 449 -420q11 -68 14 -168q0 -15 -9 -24t-24 -9h-635q-12 0 -12 -12q0 -56 12 -90q22 -73 86 -114.5t158 -41.5zM555 858q-77 0 -127.5 -38t-69.5 -105q-13 -42 -16 -86
q-3 -13 10 -13h412q12 0 12 13q-8 60 -12 73q-19 72 -73.5 114t-135.5 42z" />
    <glyph glyph-name="circumflex" unicode="&#x2c6;" horiz-adv-x="614" 
d="M49 1169q-20 0 -26 12t6 27l149 201q15 21 39 21h176q21 0 39 -21l152 -199q12 -15 5.5 -28t-26.5 -13h-119q-23 0 -38 21l-91 131q-3 5 -8 5t-8 -5l-90 -131q-15 -21 -39 -21h-121z" />
    <glyph glyph-name="caron" unicode="&#x2c7;" horiz-adv-x="696" 
d="M250 1161q-24 0 -39 21l-139 200q-11 17 -4.5 28t26.5 11h117q25 0 39 -20l90 -131q3 -4 8 -4t8 4l90 131q14 20 39 20h115q20 0 26 -11t-5 -28l-140 -200q-15 -21 -39 -21h-192z" />
    <glyph glyph-name="uni02C9" unicode="&#x2c9;" horiz-adv-x="583" 
d="M33 1194q-15 0 -24 9t-9 24v98q0 15 9 24t24 9h518q15 0 24 -9t9 -24v-98q0 -15 -9 -24t-24 -9h-518z" />
    <glyph glyph-name="breve" unicode="&#x2d8;" horiz-adv-x="583" 
d="M291 1130q-94 0 -163 57.5t-81 143.5q-1 17 8 26t25 9h65q26 0 35 -31q9 -40 40 -66t71 -26q41 0 72 26t40 66q9 31 35 31h64q15 0 24.5 -9t8.5 -24q-12 -88 -81 -145.5t-163 -57.5z" />
    <glyph glyph-name="dotaccent" unicode="&#x2d9;" horiz-adv-x="325" 
d="M164 1171q-52 0 -85.5 33.5t-33.5 85.5t33 84.5t86 32.5q52 0 84.5 -32.5t32.5 -84.5q0 -53 -32.5 -86t-84.5 -33z" />
    <glyph glyph-name="ring" unicode="&#x2da;" horiz-adv-x="538" 
d="M270 1153q-94 0 -158.5 64.5t-64.5 156.5q0 94 64.5 157.5t158.5 63.5t159 -64t65 -157q0 -92 -65 -156.5t-159 -64.5zM270 1266q45 0 78 31.5t33 76.5q0 47 -33 79t-78 32q-46 0 -78 -32t-32 -79q0 -46 32 -77t78 -31z" />
    <glyph glyph-name="ogonek" unicode="&#x2db;" horiz-adv-x="325" 
d="M322 -336q3 -30 -23 -39q-38 -11 -80 -13.5t-86 6t-78.5 39t-48.5 81.5q-32 132 107 248q17 14 41 14h79q23 0 27.5 -12t-14.5 -27q-100 -90 -84 -158q9 -35 39.5 -47.5t70.5 -3.5q33 6 39 -24z" />
    <glyph glyph-name="tilde" unicode="&#x2dc;" horiz-adv-x="716" 
d="M469 1188q-26 0 -53.5 9t-41 17t-38.5 25q-49 35 -84 35q-51 0 -82 -39q-19 -29 -45 -10l-55 41q-27 17 -13 43q30 61 77 92t102 31q25 0 50 -8t39.5 -15.5t41.5 -24.5q61 -38 98 -38q50 0 78 40q23 29 47 11l55 -37q26 -17 2 -60q-35 -56 -83 -84t-95 -28z" />
    <glyph glyph-name="hungarumlaut" unicode="&#x2dd;" horiz-adv-x="827" 
d="M92 1194q-19 0 -26 11t2 28l104 194q13 23 39 23h160q20 0 25.5 -11t-5.5 -28l-131 -197q-12 -20 -39 -20h-129zM457 1194q-19 0 -26.5 11t1.5 28l105 194q13 23 38 23h160q20 0 26 -11t-5 -28l-131 -197q-13 -20 -39 -20h-129z" />
    <glyph glyph-name="gravecomb" unicode="&#x300;" 
d="M-23 1217q9 -17 2 -28t-26 -11h-133q-26 0 -39 20l-131 197q-11 17 -5.5 28t25.5 11h162q26 0 39 -23z" />
    <glyph glyph-name="acutecomb" unicode="&#x301;" 
d="M-395 1178q-19 0 -26.5 11t1.5 28l107 194q13 23 39 23h161q20 0 26 -11t-5 -28l-131 -197q-12 -20 -39 -20h-133z" />
    <glyph glyph-name="uni0302" unicode="&#x302;" 
d="M-565 1169q-20 0 -26.5 12t5.5 27l150 201q15 21 39 21h176q21 0 39 -21l151 -199q12 -15 6 -28t-26 -13h-119q-24 0 -39 21l-90 131q-3 5 -8 5t-8 -5l-91 -131q-15 -21 -38 -21h-121z" />
    <glyph glyph-name="tildecomb" unicode="&#x303;" 
d="M-223 1188q-26 0 -53.5 9t-41 17t-38.5 25q-49 35 -84 35q-51 0 -82 -39q-19 -29 -45 -10l-56 41q-27 17 -12 43q30 61 76.5 92t101.5 31q25 0 50 -8t39.5 -15.5t41.5 -24.5q61 -38 99 -38q49 0 77 40q23 30 48 11l55 -37q26 -17 2 -60q-35 -56 -83 -84t-95 -28z" />
    <glyph glyph-name="uni0304" unicode="&#x304;" 
d="M-551 1194q-15 0 -24 9t-9 24v98q0 15 9 24t24 9h518q15 0 24 -9t9 -24v-98q0 -15 -9 -24t-24 -9h-518z" />
    <glyph glyph-name="uni0306" unicode="&#x306;" 
d="M-293 1112q-94 0 -163 57.5t-81 143.5q-1 17 8 26t25 9h66q26 0 35 -31q9 -40 40 -66t70 -26q41 0 72.5 26t40.5 66q9 31 35 31h63q15 0 24.5 -9t8.5 -24q-12 -87 -81.5 -145t-162.5 -58z" />
    <glyph glyph-name="uni0307" unicode="&#x307;" 
d="M-117 1171q-53 0 -86 33.5t-33 85.5t33 84.5t86 32.5t85 -32.5t32 -84.5q0 -53 -32.5 -86t-84.5 -33z" />
    <glyph glyph-name="uni0308" unicode="&#x308;" 
d="M-502 1190q-57 0 -93 35t-36 92t36 92t93 35q56 0 90.5 -35t34.5 -92t-34.5 -92t-90.5 -35zM-127 1190q-57 0 -92 35t-35 92t35 92t92 35t92 -35t35 -92t-35 -92t-92 -35z" />
    <glyph glyph-name="uni030A" unicode="&#x30a;" 
d="M-217 1153q-94 0 -158.5 64.5t-64.5 156.5q0 94 64.5 157.5t158.5 63.5t158.5 -63.5t64.5 -157.5q0 -92 -64.5 -156.5t-158.5 -64.5zM-217 1266q45 0 78 31.5t33 76.5q0 47 -33 79t-78 32q-46 0 -78.5 -32t-32.5 -79q0 -45 32.5 -76.5t78.5 -31.5z" />
    <glyph glyph-name="uni030B" unicode="&#x30b;" 
d="M-702 1174q-19 0 -25.5 10.5t0.5 27.5l94 193q13 25 39 25h148q19 0 26 -11t-2 -28l-104 -195q-13 -22 -39 -22h-137zM-346 1174q-19 0 -26.5 10.5t1.5 27.5l105 195q13 23 39 23h135q19 0 26 -11t-2 -28l-106 -195q-13 -22 -39 -22h-133z" />
    <glyph glyph-name="uni030C" unicode="&#x30c;" 
d="M-446 1153q-24 0 -39 21l-140 200q-10 17 -3.5 28t26.5 11h117q25 0 39 -20l90 -133q3 -4 8 -4t8 4l90 133q14 20 39 20h115q20 0 25.5 -11t-5.5 -28l-139 -200q-15 -21 -39 -21h-192z" />
    <glyph glyph-name="uni0312" unicode="&#x312;" 
d="M-90 1417q19 0 26 -11t-2 -28l-106 -194q-13 -23 -39 -23h-162q-20 0 -25.5 11t5.5 28l131 197q12 20 39 20h133z" />
    <glyph glyph-name="uni0313" unicode="&#x313;" 
d="M-332 1178q-19 0 -26 11t2 28l106 194q13 23 39 23h162q20 0 25.5 -11t-5.5 -28l-131 -197q-12 -20 -39 -20h-133z" />
    <glyph glyph-name="uni0326" unicode="&#x326;" 
d="M-375 -369q-19 0 -26 11t2 28l106 195q13 22 39 22h162q20 0 25.5 -11t-5.5 -28l-131 -196q-13 -21 -39 -21h-133z" />
    <glyph glyph-name="uni0327" unicode="&#x327;" 
d="M-299 -375q-26 9 -23 39l11 64q6 30 39 24q40 -9 70.5 3.5t39.5 47.5q16 68 -84 158q-19 15 -14.5 27t27.5 12h79q24 0 41 -14q139 -116 107 -248q-14 -51 -48.5 -81.5t-78.5 -39t-86 -6t-80 13.5z" />
    <glyph glyph-name="uni0328" unicode="&#x328;" 
d="M-4 -336q3 -30 -23 -39q-38 -11 -79.5 -13.5t-85.5 6t-78.5 39t-48.5 81.5q-32 133 106 248q17 14 41 14h80q23 0 27 -12t-15 -27q-100 -90 -84 -158q9 -35 40 -48t71 -3q33 6 39 -24z" />
    <glyph glyph-name="uni0335" unicode="&#x335;" 
d="M-698 1268q0 32 32 32h633q33 0 33 -32v-82q0 -15 -9 -24t-24 -9h-633q-32 0 -32 33v82z" />
    <glyph glyph-name="uni0336" unicode="&#x336;" 
d="M-1227 1049q-33 0 -33 32v97q0 32 33 32h1194q33 0 33 -32v-97q0 -32 -33 -32h-1194z" />
    <glyph glyph-name="uni0337" unicode="&#x337;" 
d="M-827 -8q-25 -22 -45 4l-74 88q-22 25 4 45l940 760q27 20 45 -4l76 -90q19 -26 -6 -45z" />
    <glyph glyph-name="uni0338" unicode="&#x338;" 
d="M-928 -84q-19 0 -25.5 11t1.5 28l776 1548q12 25 39 25h94q18 0 24.5 -11t-1.5 -28l-777 -1548q-13 -25 -39 -25h-92z" />
    <glyph glyph-name="uni0394" unicode="&#x394;" horiz-adv-x="1337" 
d="M88 0q-15 0 -24 9t-9 24v151q0 20 8 39l506 1186q9 25 37 25h123q28 0 37 -25l508 -1188q8 -19 8 -39v-149q0 -15 -9 -24t-24 -9h-1161zM293 219q-6 -14 10 -14h731q16 0 10 14l-368 891q-3 8 -8.5 8t-8.5 -8z" />
    <glyph glyph-name="uni03A9" unicode="&#x3a9;" horiz-adv-x="1304" 
d="M147 0q-32 0 -32 33v139q0 33 32 33h103q8 0 10 4t-4 10q-125 119 -125 318v413q0 224 143.5 362t376.5 138q235 0 379 -138t144 -362v-413q0 -199 -125 -318q-6 -6 -4 -10t10 -4h102q15 0 24 -9t9 -24v-139q0 -15 -9 -24t-24 -9h-405q-15 0 -24 9t-9 24v147q0 25 29 35
q79 23 133.5 100t54.5 183v456q0 132 -78 212.5t-207 80.5q-127 0 -204.5 -80.5t-77.5 -212.5v-456q0 -106 54 -183t132 -102q29 -10 29 -35v-145q0 -15 -9 -24t-24 -9h-404z" />
    <glyph glyph-name="uni03BC" unicode="&#x3bc;" horiz-adv-x="1124" 
d="M758 1014q0 15 9 24t24 9h170q32 0 32 -33v-981q0 -33 -32 -33h-170q-15 0 -24 9t-9 24v53q0 8 -5 9.5t-10 -5.5q-81 -104 -249 -104q-63 0 -115 14q-14 4 -14 -10v-367q0 -15 -9 -24t-24 -9h-172q-15 0 -24 9t-9 24v1391q0 15 9 24t24 9h172q15 0 24 -9t9 -24v-615
q0 -97 49.5 -154t140.5 -57q92 0 147.5 58t55.5 153v615z" />
    <glyph glyph-name="pi" unicode="&#x3c0;" horiz-adv-x="1343" 
d="M1278 877q0 -15 -9 -24t-24 -9h-119q-12 0 -12 -13v-462q0 -100 26 -132t83 -32q32 0 32 -33v-139q0 -33 -32 -33q-33 1 -67.5 0t-69 4.5t-65.5 13.5t-58 26.5t-46.5 44t-30 65.5t-9.5 92v585q0 13 -13 13h-375q-12 0 -12 -13v-798q0 -15 -9 -24t-24 -9h-172
q-32 0 -32 33v798q0 13 -13 13h-129q-32 0 -32 33v137q0 33 32 33h1147q15 0 24 -9t9 -24v-137z" />
    <glyph glyph-name="Wgrave" unicode="&#x1e80;" horiz-adv-x="1775" 
d="M971 1604q9 -17 1.5 -28t-26.5 -11h-133q-27 0 -39 20l-131 197q-11 17 -5 28t26 11h161q26 0 39 -23zM451 0q-31 0 -37 29l-369 1368q-4 17 4 27t25 10h184q29 0 35 -29l231 -922q2 -9 8.5 -8.5t8.5 8.5l219 922q6 29 35 29h184q31 0 37 -29l233 -922q1 -9 8 -9t9 9
l227 922q6 29 35 29h176q17 0 24.5 -10t2.5 -27l-349 -1368q-6 -29 -36 -29h-179q-28 0 -34 29l-238 964q-1 6 -4.5 7.5t-7 -0.5t-4.5 -7l-228 -964q-6 -29 -35 -29h-165z" />
    <glyph glyph-name="wgrave" unicode="&#x1e81;" horiz-adv-x="1558" 
d="M848 1217q9 -17 1.5 -28t-26.5 -11h-133q-26 0 -39 20l-131 197q-11 17 -5 28t26 11h161q26 0 39 -23zM381 0q-28 0 -37 27l-289 983q-4 17 4 27t25 10h178q29 0 35 -29l168 -672q1 -6 4.5 -7.5t7 0.5t4.5 7l174 672q6 29 37 29h158q31 0 37 -29l180 -674q1 -8 8 -8t8 8
l177 674q6 29 36 29l177 -3q37 0 28 -36l-291 -981q-9 -27 -36 -27h-183q-28 0 -37 27l-176 612q-2 5 -5.5 7t-6.5 0t-4 -7l-162 -610q-6 -29 -37 -29h-182z" />
    <glyph glyph-name="Wacute" unicode="&#x1e82;" horiz-adv-x="1775" 
d="M803 1565q-19 0 -26.5 11t1.5 28l107 194q13 23 39 23h161q20 0 26 -11t-5 -28l-131 -197q-13 -20 -39 -20h-133zM451 0q-31 0 -37 29l-369 1368q-4 17 4 27t25 10h184q29 0 35 -29l231 -922q2 -9 8.5 -8.5t8.5 8.5l219 922q6 29 35 29h184q31 0 37 -29l233 -922
q1 -9 8 -9t9 9l227 922q6 29 35 29h176q17 0 24.5 -10t2.5 -27l-349 -1368q-6 -29 -36 -29h-179q-28 0 -34 29l-238 964q-1 6 -4.5 7.5t-7 -0.5t-4.5 -7l-228 -964q-6 -29 -35 -29h-165z" />
    <glyph glyph-name="wacute" unicode="&#x1e83;" horiz-adv-x="1558" 
d="M680 1178q-19 0 -26.5 11t1.5 28l107 194q13 23 39 23h162q20 0 25.5 -11t-5.5 -28l-131 -197q-12 -20 -39 -20h-133zM381 0q-28 0 -37 27l-289 983q-4 17 4 27t25 10h178q29 0 35 -29l168 -672q1 -6 4.5 -7.5t7 0.5t4.5 7l174 672q6 29 37 29h158q31 0 37 -29l180 -674
q1 -8 8 -8t8 8l177 674q6 29 36 29l177 -3q37 0 28 -36l-291 -981q-9 -27 -36 -27h-183q-28 0 -37 27l-176 612q-2 5 -5.5 7t-6.5 0t-4 -7l-162 -610q-6 -29 -37 -29h-182z" />
    <glyph glyph-name="Wdieresis" unicode="&#x1e84;" horiz-adv-x="1775" 
d="M700 1577q-57 0 -93 35t-36 92t36 92t93 35q56 0 90.5 -35t34.5 -92t-34.5 -92t-90.5 -35zM1075 1577q-57 0 -92 35t-35 92t35 92t92 35t92 -35t35 -92t-35 -92t-92 -35zM451 0q-31 0 -37 29l-369 1368q-4 17 4 27t25 10h184q29 0 35 -29l231 -922q2 -9 8.5 -8.5t8.5 8.5
l219 922q6 29 35 29h184q31 0 37 -29l233 -922q1 -9 8 -9t9 9l227 922q6 29 35 29h176q17 0 24.5 -10t2.5 -27l-349 -1368q-6 -29 -36 -29h-179q-28 0 -34 29l-238 964q-1 6 -4.5 7.5t-7 -0.5t-4.5 -7l-228 -964q-6 -29 -35 -29h-165z" />
    <glyph glyph-name="wdieresis" unicode="&#x1e85;" horiz-adv-x="1558" 
d="M578 1190q-57 0 -93 35t-36 92t36 92t93 35q56 0 90 -35t34 -92t-34 -92t-90 -35zM952 1190q-57 0 -92 35t-35 92t35 92t92 35t92 -35t35 -92t-35 -92t-92 -35zM381 0q-28 0 -37 27l-289 983q-4 17 4 27t25 10h178q29 0 35 -29l168 -672q1 -6 4.5 -7.5t7 0.5t4.5 7
l174 672q6 29 37 29h158q31 0 37 -29l180 -674q1 -8 8 -8t8 8l177 674q6 29 36 29l177 -3q37 0 28 -36l-291 -981q-9 -27 -36 -27h-183q-28 0 -37 27l-176 612q-2 5 -5.5 7t-6.5 0t-4 -7l-162 -610q-6 -29 -37 -29h-182z" />
    <glyph glyph-name="Ygrave" unicode="&#x1ef2;" horiz-adv-x="1226" 
d="M696 1604q9 -17 2 -28t-26 -11h-133q-27 0 -39 20l-131 197q-11 17 -5.5 28t25.5 11h162q26 0 39 -23zM526 2q-32 0 -32 33v538q0 5 -5 15l-413 807q-9 17 -3 28t25 11h187q27 0 39 -25l280 -563q3 -6 8.5 -6t8.5 6l282 563q13 25 39 25h188q19 0 25.5 -11t-2.5 -28
l-418 -807q-4 -12 -4 -15v-538q0 -15 -9 -24t-24 -9h-172z" />
    <glyph glyph-name="ygrave" unicode="&#x1ef3;" horiz-adv-x="1001" 
d="M584 1233q9 -17 1.5 -28t-26.5 -11h-133q-26 0 -39 20l-131 197q-11 17 -5.5 28t25.5 11h162q26 0 39 -23zM106 -408q-14 0 -14 33v131q0 33 14 33h13q123 0 175 39t87 164q3 10 0 16l-334 1002q-12 37 27 37h184q28 0 37 -27l201 -678q3 -8 8 -8t8 8l195 678q9 27 36 27
h185q38 0 26 -37l-358 -1067q-25 -72 -46.5 -120t-50 -90.5t-60.5 -67t-78.5 -42t-103.5 -24.5t-136 -7h-15z" />
    <glyph glyph-name="endash" unicode="&#x2013;" horiz-adv-x="956" 
d="M98 477q-32 0 -32 33v139q0 33 32 33h760q15 0 24 -9t9 -24v-139q0 -15 -9 -24t-24 -9h-760z" />
    <glyph glyph-name="emdash" unicode="&#x2014;" horiz-adv-x="1368" 
d="M98 479q-32 0 -32 33v137q0 33 32 33h1172q15 0 24 -9t9 -24v-137q0 -15 -9 -24t-24 -9h-1172z" />
    <glyph glyph-name="quoteleft" unicode="&#x2018;" horiz-adv-x="370" 
d="M41 987q-19 0 -26 11t-1 28l156 383q8 25 37 25h125q17 0 24.5 -10t3.5 -27l-110 -383q-9 -27 -37 -27h-172z" />
    <glyph glyph-name="quoteright" unicode="&#x2019;" horiz-adv-x="370" 
d="M330 1434q18 0 25 -10.5t1 -28.5l-155 -383q-8 -25 -37 -25h-125q-17 0 -25 10t-4 27l111 383q9 27 37 27h172z" />
    <glyph glyph-name="quotesinglbase" unicode="&#x201a;" horiz-adv-x="1228" 
d="M133 -186q-17 0 -24.5 9.5t-4.5 24.5l74 443q7 31 35 31h147q17 0 24.5 -10t2.5 -27l-117 -443q-6 -28 -37 -28h-100z" />
    <glyph glyph-name="quotedblleft" unicode="&#x201c;" horiz-adv-x="673" 
d="M41 987q-39 0 -27 37l138 383q10 27 38 27h117q17 0 25 -10t4 -27l-96 -381q-6 -29 -35 -29h-164zM371 987q-39 0 -27 37l137 383q10 27 39 27h117q17 0 25 -10t4 -27l-97 -381q-6 -29 -34 -29h-164z" />
    <glyph glyph-name="quotedblright" unicode="&#x201d;" horiz-adv-x="673" 
d="M303 1434q39 0 27 -37l-137 -383q-10 -27 -39 -27h-117q-17 0 -25 10t-4 27l96 381q6 29 35 29h164zM633 1434q38 0 26 -37l-137 -383q-10 -27 -39 -27h-116q-17 0 -25 10t-4 27l96 381q6 29 35 29h164z" />
    <glyph glyph-name="quotedblbase" unicode="&#x201e;" horiz-adv-x="704" 
d="M303 262q39 0 27 -37l-137 -383q-10 -26 -39 -26h-117q-17 0 -25 10t-4 27l96 380q6 29 35 29h164zM633 262q38 0 26 -37l-137 -383q-10 -26 -39 -26h-116q-17 0 -25 10t-4 27l96 380q6 29 35 29h164z" />
    <glyph glyph-name="dagger" unicode="&#x2020;" horiz-adv-x="903" 
d="M805 940q15 0 24 -9t9 -24v-116q0 -15 -9 -24t-24 -9h-221q-13 0 -13 -13v-1122q0 -33 -32 -33h-172q-15 0 -24 9t-9 24v1122q0 13 -12 13h-224q-32 0 -32 33v116q0 33 32 33h224q12 0 12 12v449q0 15 9 24t24 9h172q32 0 32 -33v-449q0 -12 13 -12h221z" />
    <glyph glyph-name="daggerdbl" unicode="&#x2021;" horiz-adv-x="903" 
d="M838 791q0 -15 -9 -24t-24 -9h-221q-13 0 -13 -13v-466q0 -13 13 -13h221q15 0 24 -9t9 -24v-116q0 -15 -9 -24t-24 -9h-221q-13 0 -13 -12v-449q0 -33 -32 -33h-172q-15 0 -24 9t-9 24v449q0 12 -12 12h-224q-32 0 -32 33v116q0 33 32 33h224q12 0 12 13v466
q0 13 -12 13h-224q-32 0 -32 33v116q0 33 32 33h224q12 0 12 12v449q0 15 9 24t24 9h172q32 0 32 -33v-449q0 -12 13 -12h221q15 0 24 -9t9 -24v-116z" />
    <glyph glyph-name="bullet" unicode="&#x2022;" horiz-adv-x="643" 
d="M324 303q-107 0 -182.5 75.5t-75.5 180.5q0 107 75 180.5t183 73.5q104 0 177.5 -73.5t73.5 -180.5q0 -104 -74 -180t-177 -76z" />
    <glyph glyph-name="ellipsis" unicode="&#x2026;" horiz-adv-x="1695" 
d="M272 -2q-71 0 -117 45.5t-46 112.5q0 63 49.5 109t113.5 46q66 0 117 -46t51 -109q0 -66 -48 -112t-120 -46zM848 -2q-71 0 -117.5 45.5t-46.5 112.5q0 63 50 109t114 46q66 0 117 -46t51 -109q0 -66 -48 -112t-120 -46zM1417 -2q-71 0 -117.5 45.5t-46.5 112.5
q0 63 50 109t114 46q66 0 117 -46t51 -109q0 -66 -48 -112t-120 -46z" />
    <glyph glyph-name="perthousand" unicode="&#x2030;" horiz-adv-x="2377" 
d="M336 565q-132 0 -209.5 75t-77.5 202v334q0 126 77.5 200t209.5 74q131 0 209 -74t78 -200v-334q0 -127 -78 -202t-209 -75zM395 0q-19 0 -24 11t4 28l821 1372q13 23 39 23h102q19 0 25.5 -11t-2.5 -28l-821 -1372q-13 -23 -39 -23h-105zM336 700q60 0 95.5 35.5
t35.5 95.5v351q0 60 -35.5 96.5t-95.5 36.5t-94.5 -36.5t-34.5 -96.5v-351q0 -60 34.5 -95.5t94.5 -35.5zM1382 -16q-132 0 -209 74.5t-77 201.5v334q0 126 77 200t209 74q131 0 209 -74t78 -200v-334q0 -127 -78 -201.5t-209 -74.5zM2048 -16q-132 0 -209.5 74.5
t-77.5 201.5v334q0 126 77.5 200t209.5 74q131 0 209 -74t78 -200v-334q0 -127 -78 -201.5t-209 -74.5zM1382 119q60 0 95.5 35.5t35.5 95.5v350q0 60 -35.5 96.5t-95.5 36.5t-94.5 -36.5t-34.5 -96.5v-350q0 -60 34.5 -95.5t94.5 -35.5zM2048 119q60 0 95.5 35.5t35.5 95.5
v350q0 60 -35.5 96.5t-95.5 36.5t-94.5 -36.5t-34.5 -96.5v-350q0 -60 34.5 -95.5t94.5 -35.5z" />
    <glyph glyph-name="guilsinglleft" unicode="&#x2039;" horiz-adv-x="706" 
d="M530 258q11 -17 5.5 -28t-25.5 -11h-156q-26 0 -39 21l-209 313q-16 23 0 45l209 313q13 21 39 21h156q20 0 25.5 -11t-5.5 -28l-208 -309q-6 -8 0 -17z" />
    <glyph glyph-name="guilsinglright" unicode="&#x203a;" horiz-adv-x="753" 
d="M197 219q-20 0 -26 11t5 28l209 309q6 9 0 17l-209 309q-11 17 -5 28t26 11h155q26 0 39 -21l209 -313q16 -22 0 -45l-209 -313q-13 -21 -39 -21h-155z" />
    <glyph glyph-name="fraction" unicode="&#x2044;" horiz-adv-x="462" 
d="M-223 0q-19 0 -24.5 11t3.5 28l822 1372q13 23 38 23h103q19 0 25 -11t-3 -28l-821 -1372q-13 -23 -39 -23h-104z" />
    <glyph glyph-name="uni2074" unicode="&#x2074;" horiz-adv-x="731" 
d="M637 1235q15 0 24 -9t9 -24v-76q0 -32 -33 -32h-27q-12 0 -12 -13v-176q0 -15 -9 -24t-24 -9h-90q-15 0 -24 9t-9 24v176q0 13 -12 13h-352q-33 0 -33 32v62q0 23 8 39l217 481q11 25 37 25h96q19 0 25.5 -10t-0.5 -29l-199 -445q-6 -14 11 -14h190q12 0 12 12v137
q0 15 9 24t24 9h90q15 0 24 -9t9 -24v-137q0 -12 12 -12h27z" />
    <glyph glyph-name="uni2075" unicode="&#x2075;" horiz-adv-x="634" 
d="M571 1270q27 -62 27 -131q0 -72 -27 -131q-31 -71 -96.5 -111.5t-155.5 -40.5q-92 0 -160 45t-98 121q-10 25 -14 57q-3 17 6 26t25 9h96q30 0 33 -22l6 -23q11 -36 39 -57t67 -21q68 0 99 60q20 42 20 86q0 51 -18 88q-29 57 -98 57q-72 0 -101 -45q-16 -25 -39 -25
h-104q-15 0 -24 9t-9 24v447q0 32 33 32h457q32 0 32 -32v-68q0 -33 -32 -33h-322q-12 0 -12 -12v-186q0 -6 4 -8.5t10 1.5q60 31 129 31q76 0 135.5 -38t91.5 -109z" />
    <glyph glyph-name="uni2076" unicode="&#x2076;" horiz-adv-x="653" 
d="M594 1255q16 -52 16 -116q0 -68 -16 -117q-28 -74 -98.5 -120t-163.5 -46q-90 0 -157.5 44.5t-98.5 121.5q-19 56 -19 119v366q0 105 74 166.5t197 61.5q116 0 189 -59.5t73 -157.5v-13q0 -32 -33 -32h-92q-33 0 -33 12v12q0 44 -30 73t-74 29q-52 0 -83.5 -30t-31.5 -82
v-111q0 -8 4 -10t10 2q57 45 131 45q77 0 142 -42.5t94 -115.5zM438 1061q15 30 15 72q0 33 -4 49q-6 20 -13 37q-29 59 -102 59q-37 0 -64 -19t-39 -51q-16 -29 -16 -73q0 -43 12 -70q11 -34 39.5 -54t67.5 -20q37 0 64.5 19t39.5 51z" />
    <glyph glyph-name="uni2077" unicode="&#x2077;" horiz-adv-x="593" 
d="M176 872q-38 0 -26 37l253 674q3 14 -8 14h-235q-13 0 -13 -12v-61q0 -33 -32 -33h-64q-33 0 -33 33l2 176q0 33 33 33h490q32 0 32 -33v-82q0 -20 -8 -39l-258 -680q-10 -27 -39 -27h-94z" />
    <glyph glyph-name="uni2078" unicode="&#x2078;" horiz-adv-x="659" 
d="M586 1231q20 -46 20 -115q0 -59 -18 -104q-27 -70 -96.5 -113t-163.5 -43q-90 0 -157.5 41t-98.5 115q-23 55 -23 106q0 48 25 111q19 50 65 82q13 10 0 16q-43 37 -61 80q-25 46 -25 94q0 49 25 101q29 67 94.5 103t157.5 36q91 0 157.5 -37.5t96.5 -104.5
q20 -44 20 -94q0 -52 -22 -98q-21 -43 -64 -80q-11 -5 0 -16q47 -27 68 -80zM219 1536q-10 -23 -10 -45q0 -18 10 -45q11 -30 40.5 -49t70.5 -19q42 0 71.5 18.5t38.5 49.5q11 33 11 45q0 19 -11 45q-25 70 -110 70q-84 0 -111 -70zM430 1049q5 12 12 36q4 14 4 43
q0 27 -6 54q-11 36 -40.5 58t-69.5 22q-41 0 -70 -21.5t-41 -58.5q-8 -24 -8 -54q0 -23 6 -41q7 -24 12 -36q12 -28 39 -44t62 -16q70 0 100 58z" />
    <glyph glyph-name="uni2079" unicode="&#x2079;" horiz-adv-x="653" 
d="M578 1569q18 -53 18 -119v-367q0 -105 -73.5 -166t-196.5 -61q-116 0 -189.5 59.5t-73.5 157.5v12q0 15 9 24t24 9h92q33 0 33 -12v-12q0 -44 30.5 -73.5t74.5 -29.5q51 0 82.5 30.5t31.5 82.5v110q0 8 -4 10.5t-10 -1.5q-57 -45 -131 -45q-78 0 -142.5 42.5t-93.5 114.5
q-16 52 -16 117q0 68 16 117q28 74 99 120t164 46q90 0 157.5 -44.5t98.5 -121.5zM422 1382q16 29 16 74q0 43 -12 70q-11 34 -39 53.5t-68 19.5q-77 0 -104 -69q-14 -28 -14 -72q0 -33 4 -49q8 -27 12 -37q29 -59 102 -59q76 0 103 69z" />
    <glyph glyph-name="franc" unicode="&#x20a3;" horiz-adv-x="1302" 
d="M1268 1262q0 -15 -9 -24t-24 -9h-686q-12 0 -12 -12v-379q0 -13 12 -13h459q32 0 32 -32v-140q0 -32 -32 -32h-459q-12 0 -12 -13v-196q0 -13 12 -13h266q33 0 33 -32v-82q0 -15 -9 -24t-24 -9h-266q-12 0 -12 -12v-207q0 -15 -9 -24t-24 -9h-172q-15 0 -24 9t-9 24v207
q0 12 -12 12h-105q-32 0 -32 33v82q0 32 32 32h105q12 0 12 13v989q0 15 9 24t24 9h903q15 0 24 -9t9 -24v-139z" />
    <glyph glyph-name="Euro" unicode="&#x20ac;" horiz-adv-x="1300" 
d="M739 188q86 0 144 46.5t73 125.5q7 33 37 27l170 -29q35 -7 29 -39q-29 -156 -150 -245.5t-303 -89.5q-206 0 -331 120.5t-125 319.5v98q0 13 -13 13h-123q-32 0 -32 32v64q0 33 32 33h123q13 0 13 12v82q0 12 -13 12h-123q-32 0 -32 33v63q0 33 32 33h123q13 0 13 12
v101q0 199 125 318.5t331 119.5q186 0 307 -92t146 -250q3 -15 -5.5 -25t-23.5 -12l-172 -22q-31 -3 -37 28q-15 77 -72.5 122.5t-142.5 45.5q-98 0 -158.5 -62t-60.5 -165v-107q0 -12 12 -12h424q17 0 25 -10t4 -27l-20 -65q-9 -27 -37 -27h-396q-12 0 -12 -12v-82
q0 -12 12 -12h355q17 0 24.5 -10t3.5 -27l-20 -66q-9 -26 -37 -26h-326q-12 0 -12 -13v-108q0 -101 60.5 -163.5t158.5 -62.5z" />
    <glyph glyph-name="uni20BA" unicode="&#x20ba;" horiz-adv-x="1318" 
d="M977 535q3 32 35 32h172q33 0 33 -32q-6 -100 -46.5 -190.5t-112 -163.5t-181.5 -120t-246 -55q-120 -6 -242 -6q-15 0 -24 9t-9 24v534q0 6 -4 9t-10 2l-156 -46q-31 -9 -41 23l-20 74q-9 30 22 39l199 57q10 3 10 12v94q0 6 -4 9t-10 2l-156 -45q-31 -9 -41 22l-20 72
q-9 30 22 39l199 57q10 3 10 12v402q0 15 9 24t24 9h172q15 0 24 -9t9 -24v-330q0 -13 14 -10l275 78q30 9 41 -23l20 -72q9 -29 -22 -38l-318 -93q-10 -3 -10 -12v-92q0 -13 14 -10l275 78q31 9 41 -23l20 -74q9 -30 -20 -39l-320 -92q-10 -3 -10 -12v-420q0 -13 16 -10
q165 12 261.5 102.5t105.5 225.5z" />
    <glyph glyph-name="uni20BD" unicode="&#x20bd;" horiz-adv-x="1433" 
d="M930 598h-326q-12 0 -12 -12v-117q0 -12 12 -12h414q15 0 24 -9t9 -24v-78q0 -15 -9 -24t-24 -9h-414q-12 0 -12 -12v-268q0 -15 -9 -24t-24 -9h-172q-15 0 -24 9t-9 24v268q0 12 -12 12h-160q-32 0 -32 33v78q0 33 32 33h160q12 0 12 12v117q0 12 -12 12h-160
q-32 0 -32 33v127q0 33 32 33h160q12 0 12 12v600q0 15 9 24t24 9h553q194 0 314 -117t120 -305q0 -186 -126 -301t-318 -115zM604 1231q-12 0 -12 -12v-416q0 -12 12 -12h301q109 0 171.5 58t62.5 159q0 104 -62.5 163.5t-171.5 59.5h-301z" />
    <glyph glyph-name="uni2113" unicode="&#x2113;" horiz-adv-x="1026" 
d="M756 215q24 21 45 -2l71 -86q19 -26 0 -45q-91 -98 -278 -98q-148 0 -230.5 90t-82.5 250v100q0 6 -4.5 9t-10.5 -1q-8 -5 -24.5 -15.5t-24.5 -15.5q-29 -19 -43 15l-35 94q-9 28 15 43q45 29 116 78q9 6 9 16l-3 383q-1 56 12 113.5t40 111.5t65.5 96.5t93.5 68.5
t119 28q125 4 204 -77.5t79 -211.5q0 -85 -31 -165.5t-90.5 -152.5t-127 -132t-159.5 -127q-8 -5 -8 -17l2 -207q0 -194 143 -194q76 0 138 51zM471 995l2 -196q0 -17 14 -6q222 182 222 348q0 64 -28 103.5t-77 35.5q-59 -6 -96 -77.5t-37 -207.5z" />
    <glyph glyph-name="trademark" unicode="&#x2122;" horiz-adv-x="1361" 
d="M68 1319q-15 0 -24 9t-9 24v49q0 15 9 24t24 9h481q15 0 24 -9t9 -24v-49q0 -15 -9 -24t-24 -9h-166q-12 0 -12 -12v-559q0 -15 -9 -24t-24 -9h-68q-32 0 -32 33v559q0 12 -13 12h-157zM1143 1413q15 21 39 21h73q15 0 24 -9t9 -24v-653q0 -15 -9 -24t-24 -9h-69
q-15 0 -24 9t-9 24v452q0 8 -4.5 9.5t-9.5 -5.5l-101 -147q-15 -21 -39 -21h-12q-24 0 -39 21l-102 147q-4 7 -9.5 5.5t-5.5 -9.5v-452q0 -33 -32 -33h-68q-15 0 -24 9t-9 24v653q0 15 9 24t24 9h74q24 0 39 -21l141 -205q3 -4 8 -4t8 4z" />
    <glyph glyph-name="uni2126" unicode="&#x2126;" horiz-adv-x="1304" 
d="M147 0q-32 0 -32 33v139q0 33 32 33h103q8 0 10 4t-4 10q-125 119 -125 318v413q0 224 143.5 362t376.5 138q235 0 379 -138t144 -362v-413q0 -199 -125 -318q-6 -6 -4 -10t10 -4h102q15 0 24 -9t9 -24v-139q0 -15 -9 -24t-24 -9h-405q-15 0 -24 9t-9 24v147q0 25 29 35
q79 23 133.5 100t54.5 183v456q0 132 -78 212.5t-207 80.5q-127 0 -204.5 -80.5t-77.5 -212.5v-456q0 -106 54 -183t132 -102q29 -10 29 -35v-145q0 -15 -9 -24t-24 -9h-404z" />
    <glyph glyph-name="estimated" unicode="&#x212e;" horiz-adv-x="1736" 
d="M868 1450q216 0 388.5 -95.5t269 -264.5t96.5 -379q0 -9 -33 -9h-1245q-12 0 -12 -12v-397q0 -8 6 -14q94 -108 231.5 -169t298.5 -61q187 0 349.5 93.5t248.5 244.5q12 23 39 23h11q19 0 25.5 -11t-1.5 -28q-95 -175 -277 -281t-395 -106q-162 0 -302 55t-239 151.5
t-155.5 231t-56.5 289.5q0 158 56.5 295t155.5 234.5t239 153.5t302 56zM340 1153q-6 -6 -6 -14v-359q0 -12 12 -12h1045q12 0 12 12v357q0 8 -6 14q-94 110 -230.5 171.5t-298.5 61.5t-298 -61t-230 -170z" />
    <glyph glyph-name="oneeighth" unicode="&#x215b;" horiz-adv-x="1628" 
d="M315 606q0 -33 -32 -33h-93q-32 0 -32 33v676q0 13 -13 10l-45 -6q-15 -3 -24.5 4.5t-9.5 24.5v53q0 25 24 37l49 20q21 9 39 9h105q32 0 32 -33v-795zM1047 1411q13 23 38 23h103q19 0 25 -11t-3 -28l-821 -1372q-13 -23 -39 -23h-104q-19 0 -24.5 11t3.5 28zM1554 358
q21 -49 21 -114q0 -58 -19 -105q-27 -70 -96.5 -112.5t-163.5 -42.5q-90 0 -158 40.5t-98 114.5q-22 53 -22 107q0 50 24 110q19 49 66 82q14 10 0 17q-43 37 -61 80q-25 46 -25 94t25 100q29 67 94 103t157 36t158.5 -37.5t95.5 -103.5q21 -47 21 -94q0 -50 -23 -98
q-21 -44 -63 -80q-11 -6 0 -17q46 -26 67 -80zM1188 664q-10 -23 -10 -46q0 -18 10 -45q11 -30 39.5 -48.5t70.5 -18.5q43 0 72.5 18t38.5 49q10 30 10 45q0 23 -10 46q-25 69 -111 69q-83 0 -110 -69zM1399 176q4 10 12 37q4 14 4 43q0 26 -6 53q-11 36 -40.5 58t-70.5 22
q-83 0 -110 -80q-8 -24 -8 -53q0 -23 6 -41q8 -27 12 -37q26 -59 100 -59q34 0 60.5 15.5t40.5 41.5z" />
    <glyph glyph-name="threeeighths" unicode="&#x215c;" horiz-adv-x="1820" 
d="M580 719q-31 -70 -96.5 -109t-153.5 -39q-92 0 -160 46.5t-98 125.5q-14 37 -17 82q-1 15 7.5 24t23.5 9h94q30 0 33 -31q3 -24 10 -45q11 -34 40 -54.5t67 -20.5q68 0 98 55q23 44 23 100q0 62 -25 107q-27 55 -96 55q-22 0 -41 -8q-28 -12 -45 8l-43 53q-19 26 2 47
l182 168q6 4 4 9.5t-10 5.5h-277q-32 0 -32 32v70q0 33 32 33h463q15 0 24 -9t9 -24v-78q0 -25 -16 -41l-160 -157q-11 -11 6 -15q101 -19 152 -117q26 -59 26 -143q0 -76 -26 -139zM1239 1411q13 23 39 23h102q19 0 25.5 -11t-2.5 -28l-821 -1372q-13 -23 -39 -23h-105
q-19 0 -24 11t4 28zM1747 358q20 -46 20 -114q0 -60 -18 -105q-27 -70 -96.5 -112.5t-163.5 -42.5q-90 0 -158 40.5t-98 114.5q-23 55 -23 107q0 48 25 110q19 50 65 82q14 10 0 17q-43 37 -61 80q-25 46 -25 94t25 100q29 67 94.5 103t157.5 36t158.5 -37.5t95.5 -103.5
q20 -44 20 -94q0 -52 -22 -98q-21 -43 -64 -80q-11 -6 0 -17q47 -27 68 -80zM1380 664q-10 -23 -10 -46q0 -18 10 -45q11 -30 40 -48.5t71 -18.5q43 0 72.5 18t38.5 49q10 30 10 45q0 23 -10 46q-25 69 -111 69q-84 0 -111 -69zM1591 176q7 17 13 37q4 14 4 43q0 26 -6 53
q-11 36 -40.5 58t-70.5 22t-70 -21.5t-41 -58.5q-8 -24 -8 -53q0 -23 6 -41q6 -20 13 -37q26 -59 100 -59q71 0 100 57z" />
    <glyph glyph-name="fiveeighths" unicode="&#x215d;" horiz-adv-x="1785" 
d="M1204 1411q13 23 39 23h103q19 0 25 -11t-3 -28l-821 -1372q-13 -23 -39 -23h-105q-19 0 -24 11t4 28zM571 711q-31 -71 -96.5 -111.5t-155.5 -40.5q-92 0 -160 45t-98 121q-10 25 -14 57q-3 17 6 26t25 9h96q30 0 33 -22l6 -23q11 -36 39 -57t67 -21q68 0 99 60
q20 42 20 86q0 50 -18 88q-29 57 -98 57q-72 0 -101 -45q-16 -25 -39 -25h-104q-15 0 -24 9t-9 24v447q0 32 33 32h457q32 0 32 -32v-68q0 -33 -32 -33h-322q-12 0 -12 -12v-186q0 -6 4 -8t10 2q59 30 129 30q76 0 135.5 -38t91.5 -109q27 -62 27 -131q0 -72 -27 -131z
M1712 358q21 -49 21 -114q0 -58 -19 -105q-27 -70 -96.5 -112.5t-163.5 -42.5q-90 0 -158 40.5t-98 114.5q-22 53 -22 107q0 50 24 110q19 49 66 82q14 10 0 17q-45 39 -62 80q-24 44 -24 94q0 51 24 100q29 67 94.5 103t157.5 36t158.5 -37.5t95.5 -103.5q21 -47 21 -94
q0 -50 -23 -98q-21 -44 -63 -80q-11 -6 0 -17q46 -26 67 -80zM1346 664q-11 -26 -11 -46q0 -16 11 -45q11 -30 39.5 -48.5t70.5 -18.5q43 0 72.5 18t38.5 49q10 30 10 45q0 23 -10 46q-25 69 -111 69q-83 0 -110 -69zM1556 176q7 17 13 37q4 14 4 43q0 26 -6 53
q-11 36 -40.5 58t-70.5 22q-83 0 -110 -80q-9 -27 -9 -53q0 -23 6 -41q6 -20 13 -37q26 -59 100 -59q71 0 100 57z" />
    <glyph glyph-name="seveneighths" unicode="&#x215e;" horiz-adv-x="1669" 
d="M309 600q-10 -27 -39 -27h-94q-38 0 -26 37l253 674q3 14 -8 14h-235q-13 0 -13 -12v-61q0 -33 -32 -33h-64q-33 0 -33 33l2 176q0 33 33 33h490q32 0 32 -33v-82q0 -20 -8 -39zM1087 1411q13 23 39 23h103q19 0 25 -11t-3 -28l-821 -1372q-13 -23 -39 -23h-104
q-19 0 -24.5 11t3.5 28zM1595 358q21 -49 21 -114q0 -58 -19 -105q-27 -70 -96.5 -112.5t-163.5 -42.5q-90 0 -158 40.5t-98 114.5q-22 53 -22 107q0 50 24 110q19 49 66 82q14 10 0 17q-45 39 -62 80q-24 44 -24 94q0 51 24 100q29 67 94.5 103t157.5 36t158.5 -37.5
t95.5 -103.5q21 -47 21 -94q0 -50 -23 -98q-21 -44 -63 -80q-11 -6 0 -17q46 -26 67 -80zM1229 664q-10 -23 -10 -46q0 -18 10 -45q11 -30 39.5 -48.5t70.5 -18.5q43 0 72.5 18t38.5 49q10 30 10 45q0 23 -10 46q-25 69 -111 69q-83 0 -110 -69zM1440 176q4 10 12 37
q4 14 4 43q0 26 -6 53q-11 36 -40.5 58t-70.5 22q-83 0 -110 -80q-8 -24 -8 -53q0 -23 6 -41q8 -27 12 -37q26 -59 100 -59q34 0 60.5 15.5t40.5 41.5z" />
    <glyph glyph-name="partialdiff" unicode="&#x2202;" horiz-adv-x="1212" 
d="M905 1272q99 -121 140.5 -296.5t33.5 -354.5q-4 -102 -23 -191.5t-59.5 -173t-99.5 -142.5t-148.5 -94.5t-201.5 -35.5q-210 0 -337.5 121.5t-127.5 334.5q0 113 39 204t106 148t152 86t180 27q140 -3 252 -67q8 -3 11.5 0t2.5 10q-23 165 -96 266q-71 96 -188 105
q-114 11 -238 -58q-32 -16 -43 15l-57 149q-10 31 16 43q168 86 338 76q213 -9 348 -172zM559 188q249 0 277 371q0 4 -5 14q-39 65 -106 103t-147 37q-108 -2 -183.5 -75.5t-75.5 -188.5q0 -114 68 -187.5t172 -73.5z" />
    <glyph glyph-name="uni2206" unicode="&#x2206;" horiz-adv-x="1337" 
d="M88 0q-15 0 -24 9t-9 24v149q0 20 8 39l506 1188q9 25 37 25h123q28 0 37 -25l508 -1190q8 -19 8 -39v-147q0 -15 -9 -24t-24 -9h-1161zM293 219q-6 -14 10 -14h731q16 0 10 14l-368 891q-3 8 -8.5 8t-8.5 -8z" />
    <glyph glyph-name="product" unicode="&#x220f;" horiz-adv-x="1306" 
d="M1135 1638q32 0 32 -32v-1983q0 -33 -32 -33h-172q-15 0 -24 9t-9 24v1798q0 13 -12 13h-519q-12 0 -12 -13v-1798q0 -15 -9 -24t-24 -9h-172q-32 0 -32 33v1983q0 32 32 32h953z" />
    <glyph glyph-name="summation" unicode="&#x2211;" horiz-adv-x="1230" 
d="M182 -410q-32 0 -32 33v150q0 26 10 41l473 819q3 11 -2 16l-469 676q-12 18 -12 41v150q0 32 32 32h926q33 0 33 -32v-140q0 -15 -9 -24t-24 -9h-700q-8 0 -10.5 -4t1.5 -10l475 -665q16 -23 3 -46l-480 -808q-3 -6 0 -10.5t9 -4.5h702q15 0 24 -9t9 -24v-139
q0 -15 -9 -24t-24 -9h-926z" />
    <glyph glyph-name="minus" unicode="&#x2212;" horiz-adv-x="1005" 
d="M98 522q-32 0 -32 33v139q0 33 32 33h807q15 0 24 -9t9 -24v-139q0 -15 -9 -24t-24 -9h-807z" />
    <glyph glyph-name="uni2215" unicode="&#x2215;" horiz-adv-x="1048" 
d="M88 0q-19 0 -25 11t3 28l704 1370q12 25 39 25h149q19 0 25.5 -11t-2.5 -28l-702 -1370q-13 -25 -39 -25h-152z" />
    <glyph glyph-name="uni2219" unicode="&#x2219;" horiz-adv-x="643" 
d="M324 362q-107 0 -182.5 75.5t-75.5 180.5q0 107 75 180.5t183 73.5q104 0 177.5 -74t73.5 -180q0 -104 -74 -180t-177 -76z" />
    <glyph glyph-name="radical" unicode="&#x221a;" horiz-adv-x="1603" 
d="M375 -410q-29 0 -39 27l-279 752q-13 32 19 41l162 53q14 5 25.5 -0.5t15.5 -20.5l161 -448q3 -9 8.5 -9t6.5 9l426 1601q6 29 37 29h528q15 0 24 -9t9 -24v-139q0 -15 -9 -24t-24 -9h-365q-9 0 -12 -10l-479 -1790q-6 -29 -37 -29h-178z" />
    <glyph glyph-name="infinity" unicode="&#x221e;" horiz-adv-x="1548" 
d="M1120 1014q157 0 259 -103.5t102 -257.5q0 -155 -102.5 -257.5t-264.5 -102.5q-107 0 -187 47.5t-157 144.5q-3 5 -8 5t-8 -5q-74 -88 -154.5 -140t-181.5 -52q-148 0 -250 105t-102 259q0 151 102.5 254t255.5 103q106 0 185 -51t149 -140q8 -12 18 2q79 94 161 141.5
t183 47.5zM420 479q62 0 109 40t114 130q6 9 0 17q-63 89 -107.5 125t-107.5 36q-78 0 -127 -48t-49 -122q0 -76 48.5 -127t119.5 -51zM1116 479q83 0 130.5 48t47.5 126q0 77 -47 125.5t-123 48.5q-66 0 -120 -40t-121 -128q-6 -9 2 -20q61 -85 112 -122.5t119 -37.5z" />
    <glyph glyph-name="integral" unicode="&#x222b;" horiz-adv-x="864" 
d="M94 -410q-35 0 -35 33v127q0 15 9 24t24 9h49q89 0 122.5 36t35.5 130l16 1147q1 73 9 124t30 89.5t53 61.5t83 37.5t113.5 19.5t152.5 6q35 0 35 -33v-127q0 -15 -9 -24t-24 -9h-47q-89 0 -122.5 -36t-35.5 -130l-16 -1147q-2 -73 -10.5 -124t-30.5 -89.5t-52.5 -61.5
t-82.5 -37.5t-114 -19.5t-153 -6z" />
    <glyph glyph-name="approxequal" unicode="&#x2248;" horiz-adv-x="1069" 
d="M721 686q-38 0 -75.5 10t-59 20t-56.5 29q-103 60 -168 60q-81 0 -135 -70q-19 -29 -45 -10l-92 63q-25 19 -14 43q35 80 112 130.5t166 50.5q36 0 70 -9t54 -18.5t52 -26.5q41 -25 57.5 -34t51.5 -21t68 -12q62 0 118 70q17 25 45 8l109 -70q25 -17 12 -43
q-39 -77 -111.5 -123.5t-158.5 -46.5zM721 246q-38 0 -75.5 10t-59 20t-56.5 29q-103 60 -168 60q-81 0 -135 -70q-19 -29 -45 -10l-92 63q-25 19 -14 43q35 80 112 130t166 50q80 0 176 -53q41 -25 57.5 -34t51.5 -21t68 -12q63 0 118 69q17 26 45 8l109 -69q25 -17 12 -43
q-39 -77 -111.5 -123.5t-158.5 -46.5z" />
    <glyph glyph-name="notequal" unicode="&#x2260;" horiz-adv-x="1005" 
d="M938 780q0 -32 -33 -32h-278q-11 0 -15 -11l-80 -176q-6 -14 11 -14h362q15 0 24 -9t9 -24v-139q0 -15 -9 -24t-24 -9h-463q-11 0 -14 -8l-72 -158q-11 -24 -37 -24h-77q-42 0 -27 38l64 138q6 14 -11 14h-170q-32 0 -32 33v139q0 33 32 33h271q11 0 14 10l80 176
q6 15 -10 15h-355q-32 0 -32 32v140q0 32 32 32h455q10 0 14 11l76 165q11 25 37 25h78q19 0 26 -10t0 -29l-67 -147q-6 -15 10 -15h178q33 0 33 -32v-140z" />
    <glyph glyph-name="lessequal" unicode="&#x2264;" horiz-adv-x="1005" 
d="M940 328q0 -19 -11 -26.5t-28 -0.5l-809 367q-24 12 -24 37v153q0 25 24 37l809 367q17 7 28 -0.5t11 -26.5v-160q0 -25 -25 -37l-587 -247q-8 -3 -8 -8.5t8 -8.5l587 -250q25 -12 25 -37v-159zM940 33q0 -15 -9 -24t-24 -9h-807q-32 0 -32 33v139q0 33 32 33h807
q15 0 24 -9t9 -24v-139z" />
    <glyph glyph-name="greaterequal" unicode="&#x2265;" horiz-adv-x="1005" 
d="M104 301q-17 -7 -27.5 0.5t-10.5 26.5v159q0 25 24 37l588 250q8 3 8 8.5t-8 8.5l-588 247q-24 12 -24 37v160q0 19 10.5 26.5t27.5 0.5l809 -367q25 -13 25 -37v-153q0 -25 -25 -37zM98 0q-32 0 -32 33v139q0 33 32 33h807q15 0 24 -9t9 -24v-139q0 -15 -9 -24t-24 -9
h-807z" />
    <glyph glyph-name="lozenge" unicode="&#x25ca;" horiz-adv-x="1073" 
d="M479 -104q-28 0 -39 24l-364 774q-10 22 0 45l366 774q11 25 39 25h111q28 0 39 -25l366 -774q10 -23 0 -45l-364 -774q-11 -24 -39 -24h-115zM528 162q3 -6 8.5 -6t8.5 6l239 547q4 8 0 16l-239 547q-3 6 -8.5 6t-8.5 -6l-239 -547q-4 -8 0 -16z" />
    <glyph glyph-name="i.loclTRK" horiz-adv-x="479" 
d="M231 1194q-52 0 -85 33t-33 86q0 52 32.5 84.5t85.5 32.5t85 -32t32 -85t-32.5 -86t-84.5 -33zM152 0q-15 0 -24 9t-9 24v981q0 15 9 24t24 9h172q32 0 32 -33v-981q0 -33 -32 -33h-172z" />
    <glyph glyph-name="a.alt" horiz-adv-x="1126" 
d="M762 1014q0 15 9 24t24 9h172q32 0 32 -33v-981q0 -33 -32 -33h-172q-15 0 -24 9t-9 24v49q0 8 -5 10t-9 -4q-87 -104 -232 -104t-246.5 76t-146.5 210q-37 112 -37 256q0 146 35 250q45 136 145.5 211.5t249.5 75.5q142 0 232 -96q6 -7 10 -5.5t4 9.5v43zM713 287
q47 78 47 237q0 161 -51 244q-55 90 -154 90q-106 0 -164 -86q-59 -89 -59 -250q0 -148 49 -233q55 -99 172 -99q101 0 160 97z" />
    <glyph glyph-name="a.sc" horiz-adv-x="1138" 
d="M885 0q-28 0 -37 27l-45 151q-3 10 -15 10h-438q-12 0 -14 -10l-45 -151q-9 -27 -37 -27h-170q-39 0 -27 37l371 1118q9 27 37 27h209q28 0 37 -27l370 -1118q12 -37 -26 -37h-170zM401 389q-3 -14 11 -14h315q13 0 10 14l-159 529q-3 8 -8.5 8t-8.5 -8z" />
    <glyph glyph-name="aacute.sc" horiz-adv-x="1138" 
d="M766 1569q20 0 25.5 -11t-5.5 -28l-131 -197q-13 -20 -39 -20h-133q-19 0 -26 11t2 28l106 194q13 23 39 23h162zM885 0q-28 0 -37 27l-45 151q-3 10 -15 10h-438q-12 0 -14 -10l-45 -151q-9 -27 -37 -27h-170q-39 0 -27 37l371 1118q9 27 37 27h209q28 0 37 -27
l370 -1118q12 -37 -26 -37h-170zM401 389q-3 -14 11 -14h315q13 0 10 14l-159 529q-3 8 -8.5 8t-8.5 -8z" />
    <glyph glyph-name="abreve.sc" horiz-adv-x="1138" 
d="M567 1247q-93 0 -162 57t-81 144q-1 17 7.5 26t24.5 9h66q26 0 35 -31q9 -40 40 -66t70 -26q41 0 72.5 26t40.5 66q9 31 35 31h63q15 0 24.5 -9t8.5 -24q-12 -87 -81.5 -145t-162.5 -58zM885 0q-28 0 -37 27l-45 151q-3 10 -15 10h-438q-12 0 -14 -10l-45 -151
q-9 -27 -37 -27h-170q-39 0 -27 37l371 1118q9 27 37 27h209q28 0 37 -27l370 -1118q12 -37 -26 -37h-170zM401 389q-3 -14 11 -14h315q13 0 10 14l-159 529q-3 8 -8.5 8t-8.5 -8z" />
    <glyph glyph-name="uni01CE.sc" horiz-adv-x="1138" 
d="M700 1305q-15 -21 -38 -21h-193q-24 0 -39 21l-139 200q-11 17 -4.5 28t26.5 11h117q25 0 39 -20l90 -133q3 -5 8 -5t8 5l91 133q14 20 39 20h114q20 0 26 -11t-5 -28zM885 0q-28 0 -37 27l-45 151q-3 10 -15 10h-438q-12 0 -14 -10l-45 -151q-9 -27 -37 -27h-170
q-39 0 -27 37l371 1118q9 27 37 27h209q28 0 37 -27l370 -1118q12 -37 -26 -37h-170zM401 389q-3 -14 11 -14h315q13 0 10 14l-159 529q-3 8 -8.5 8t-8.5 -8z" />
    <glyph glyph-name="acircumflex.sc" horiz-adv-x="1138" 
d="M575 1456q-3 4 -8 4t-8 -4l-90 -131q-14 -20 -39 -20h-121q-20 0 -26 11.5t6 26.5l149 201q15 21 39 21h176q21 0 39 -21l152 -198q12 -15 5.5 -28t-26.5 -13h-118q-25 0 -39 20zM885 0q-28 0 -37 27l-45 151q-3 10 -15 10h-438q-12 0 -14 -10l-45 -151q-9 -27 -37 -27
h-170q-39 0 -27 37l371 1118q9 27 37 27h209q28 0 37 -27l370 -1118q12 -37 -26 -37h-170zM401 389q-3 -14 11 -14h315q13 0 10 14l-159 529q-3 8 -8.5 8t-8.5 -8z" />
    <glyph glyph-name="adieresis.sc" horiz-adv-x="1138" 
d="M381 1325q-57 0 -93 35t-36 92t36 92t93 35q56 0 90.5 -35t34.5 -92t-34.5 -92t-90.5 -35zM756 1325q-57 0 -92 35t-35 92t35 92t92 35t92 -35t35 -92t-35 -92t-92 -35zM885 0q-28 0 -37 27l-45 151q-3 10 -15 10h-438q-12 0 -14 -10l-45 -151q-9 -27 -37 -27h-170
q-39 0 -27 37l371 1118q9 27 37 27h209q28 0 37 -27l370 -1118q12 -37 -26 -37h-170zM401 389q-3 -14 11 -14h315q13 0 10 14l-159 529q-3 8 -8.5 8t-8.5 -8z" />
    <glyph glyph-name="agrave.sc" horiz-adv-x="1138" 
d="M651 1352q9 -17 2 -28t-26 -11h-133q-26 0 -39 20l-131 197q-11 17 -5.5 28t25.5 11h162q26 0 39 -23zM885 0q-28 0 -37 27l-45 151q-3 10 -15 10h-438q-12 0 -14 -10l-45 -151q-9 -27 -37 -27h-170q-39 0 -27 37l371 1118q9 27 37 27h209q28 0 37 -27l370 -1118
q12 -37 -26 -37h-170zM401 389q-3 -14 11 -14h315q13 0 10 14l-159 529q-3 8 -8.5 8t-8.5 -8z" />
    <glyph glyph-name="amacron.sc" horiz-adv-x="1138" 
d="M827 1493q15 0 24 -9t9 -24v-98q0 -15 -9 -24t-24 -9h-518q-15 0 -24 9t-9 24v98q0 15 9 24t24 9h518zM885 0q-28 0 -37 27l-45 151q-3 10 -15 10h-438q-12 0 -14 -10l-45 -151q-9 -27 -37 -27h-170q-39 0 -27 37l371 1118q9 27 37 27h209q28 0 37 -27l370 -1118
q12 -37 -26 -37h-170zM401 389q-3 -14 11 -14h315q13 0 10 14l-159 529q-3 8 -8.5 8t-8.5 -8z" />
    <glyph glyph-name="aogonek.sc" horiz-adv-x="1167" 
d="M1065 -248q33 6 39 -24l10 -64q3 -31 -24 -39q-37 -11 -78.5 -13.5t-85.5 6t-78.5 39t-48.5 81.5q-33 132 106 248q6 5 6 9.5t-6 4.5h-20q-28 0 -37 27l-45 151q-3 10 -15 10h-438q-12 0 -14 -10l-45 -151q-9 -27 -37 -27h-170q-39 0 -27 37l371 1118q9 27 37 27h209
q28 0 37 -27l370 -1118l11 -37h-2q-156 -109 -136 -197q9 -35 40 -48t71 -3zM401 389q-3 -14 11 -14h315q13 0 10 14l-159 529q-3 8 -8.5 8t-8.5 -8z" />
    <glyph glyph-name="aring.sc" horiz-adv-x="1138" 
d="M567 1288q-94 0 -158.5 64.5t-64.5 156.5q0 94 64.5 158t158.5 64t159 -64t65 -158q0 -92 -65 -156.5t-159 -64.5zM567 1620q-46 0 -78 -32t-32 -79q0 -46 32 -77t78 -31q45 0 78 31.5t33 76.5q0 47 -33 79t-78 32zM885 0q-28 0 -37 27l-45 151q-3 10 -15 10h-438
q-12 0 -14 -10l-45 -151q-9 -27 -37 -27h-170q-39 0 -27 37l371 1118q9 27 37 27h209q28 0 37 -27l370 -1118q12 -37 -26 -37h-170zM401 389q-3 -14 11 -14h315q13 0 10 14l-159 529q-3 8 -8.5 8t-8.5 -8z" />
    <glyph glyph-name="atilde.sc" horiz-adv-x="1138" 
d="M487 1409q-50 0 -81 -39q-20 -30 -46 -10l-55 41q-27 17 -12 43q30 61 76.5 92t101.5 31q25 0 49.5 -7.5t40 -15.5t41.5 -24q63 -39 98 -39q49 0 78 41q22 29 47 10l56 -37q26 -17 10 -45q-33 -63 -84.5 -95t-101.5 -32q-26 0 -53.5 9t-41.5 17.5t-39 24.5q-49 35 -84 35
zM885 0q-28 0 -37 27l-45 151q-3 10 -15 10h-438q-12 0 -14 -10l-45 -151q-9 -27 -37 -27h-170q-39 0 -27 37l371 1118q9 27 37 27h209q28 0 37 -27l370 -1118q12 -37 -26 -37h-170zM401 389q-3 -14 11 -14h315q13 0 10 14l-159 529q-3 8 -8.5 8t-8.5 -8z" />
    <glyph glyph-name="ae.sc" horiz-adv-x="1681" 
d="M1612 1010q0 -15 -9 -24t-24 -9h-547q-12 0 -12 -12v-254q0 -13 12 -13h348q33 0 33 -32v-138q0 -32 -33 -32h-348q-12 0 -12 -13v-266q0 -12 12 -12h547q15 0 24 -9t9 -24v-139q0 -15 -9 -24t-24 -9h-766q-15 0 -24 9t-9 24v143q0 12 -12 12h-352q-12 0 -15 -8l-82 -157
q-11 -23 -38 -23h-193q-19 0 -25 11t3 28l589 1120q11 23 39 23h885q15 0 24 -9t9 -24v-139zM510 389q-6 -14 8 -14h250q12 0 12 12v492q0 9 -5 11t-9 -7z" />
    <glyph glyph-name="b.sc" horiz-adv-x="1091" 
d="M840 618q-6 -3 -6 -8t6 -8q164 -81 164 -272q0 -84 -32 -148t-89 -103.5t-131 -59t-162 -19.5h-445q-32 0 -32 33v1116q0 33 32 33h430q412 0 412 -326q0 -169 -147 -238zM362 977q-12 0 -12 -12v-256q0 -13 12 -13h230q73 0 117.5 39t44.5 101q0 64 -44 102.5t-118 38.5
h-230zM606 207q73 0 116.5 40t43.5 109q0 65 -45 106.5t-117 41.5h-242q-12 0 -12 -12v-273q0 -12 12 -12h244z" />
    <glyph glyph-name="c.sc" horiz-adv-x="1064" 
d="M539 -14q-204 0 -328.5 120.5t-124.5 321.5v330q0 199 124 318.5t329 119.5q203 0 325.5 -115t122.5 -305q0 -19 -31 -22l-174 -11q-14 -1 -23 2.5t-9 8.5v10q0 103 -57.5 163.5t-153.5 63.5q-97 3 -156 -60t-59 -167v-348q0 -102 59 -164t156 -62q95 0 153 61.5
t58 164.5q0 23 32 20l172 -8q33 -3 33 -10v-8q0 -193 -122.5 -308.5t-325.5 -115.5z" />
    <glyph glyph-name="cacute.sc" horiz-adv-x="1064" 
d="M455 1327q-19 0 -26.5 11t1.5 28l107 195q13 22 38 22h162q20 0 26 -11t-5 -28l-131 -196q-13 -21 -39 -21h-133zM539 -14q-204 0 -328.5 120.5t-124.5 321.5v330q0 199 124 318.5t329 119.5q203 0 325.5 -115t122.5 -305q0 -19 -31 -22l-174 -11q-14 -1 -23 2.5t-9 8.5
v10q0 103 -57.5 163.5t-153.5 63.5q-97 3 -156 -60t-59 -167v-348q0 -102 59 -164t156 -62q95 0 153 61.5t58 164.5q0 23 32 20l172 -8q33 -3 33 -10v-8q0 -193 -122.5 -308.5t-325.5 -115.5z" />
    <glyph glyph-name="ccaron.sc" horiz-adv-x="1064" 
d="M440 1298q-24 0 -39 21l-139 201q-10 17 -3.5 28t26.5 11h116q24 0 39 -21l90 -133q3 -5 8.5 -5t8.5 5l90 133q15 21 39 21h115q20 0 25.5 -11t-5.5 -28l-139 -201q-15 -21 -39 -21h-193zM539 -14q-204 0 -328.5 120.5t-124.5 321.5v330q0 199 124 318.5t329 119.5
q203 0 325.5 -115t122.5 -305q0 -19 -31 -22l-174 -11q-14 -1 -23 2.5t-9 8.5v10q0 103 -57.5 163.5t-153.5 63.5q-97 3 -156 -60t-59 -167v-348q0 -102 59 -164t156 -62q95 0 153 61.5t58 164.5q0 23 32 20l172 -8q33 -3 33 -10v-8q0 -193 -122.5 -308.5t-325.5 -115.5z
" />
    <glyph glyph-name="ccedilla.sc" horiz-adv-x="1064" 
d="M987 766q0 -9 -31 -12l-174 -11q-14 -1 -23 2.5t-9 8.5v10q0 103 -57.5 163.5t-153.5 63.5q-97 3 -156 -60t-59 -167v-348q0 -102 59 -164t156 -62q95 0 153 61.5t58 164.5q0 23 32 20l172 -8q33 -3 33 -10v-8q0 -176 -103.5 -288.5t-277.5 -131.5q-17 -4 -4 -17
q109 -106 80 -223q-14 -51 -48.5 -81.5t-79 -38.5t-86 -5.5t-79.5 13.5q-25 8 -22 38l10 64q6 30 39 24q40 -9 70.5 4t39.5 48q19 78 -112 180q-6 3 -15 6q-147 37 -230 149t-83 277v330q0 199 124 318.5t329 119.5q203 0 325.5 -115t122.5 -305v-10z" />
    <glyph glyph-name="cdotaccent.sc" horiz-adv-x="1064" 
d="M539 1321q-53 0 -86 33.5t-33 85.5t33 84t86 32t84.5 -32t31.5 -84q0 -53 -32 -86t-84 -33zM539 -14q-204 0 -328.5 120.5t-124.5 321.5v330q0 199 124 318.5t329 119.5q203 0 325.5 -115t122.5 -305q0 -19 -31 -22l-174 -11q-14 -1 -23 2.5t-9 8.5v10q0 103 -57.5 163.5
t-153.5 63.5q-97 3 -156 -60t-59 -167v-348q0 -102 59 -164t156 -62q95 0 153 61.5t58 164.5q0 23 32 20l172 -8q33 -3 33 -10v-8q0 -193 -122.5 -308.5t-325.5 -115.5z" />
    <glyph glyph-name="d.sc" horiz-adv-x="1083" 
d="M145 0q-32 0 -32 33v1116q0 33 32 33h424q196 0 315.5 -98.5t119.5 -260.5v-465q0 -162 -119.5 -260t-315.5 -98h-424zM350 217q0 -12 12 -12h218q82 0 133.5 52t52.5 138v391q0 86 -51.5 138.5t-136.5 52.5h-216q-12 0 -12 -12v-748z" />
    <glyph glyph-name="eth.sc" horiz-adv-x="1175" 
d="M662 1182q195 0 314.5 -98.5t119.5 -260.5v-465q0 -162 -119 -260t-315 -98h-424q-15 0 -24 9t-9 24v483q0 12 -12 12h-48q-32 0 -32 33v94q0 33 32 33h48q12 0 12 12v449q0 15 9 24t24 9h424zM858 395v391q0 86 -51.5 138.5t-136.5 52.5h-215q-13 0 -13 -12v-265
q0 -12 13 -12h127q32 0 32 -33v-94q0 -33 -32 -33h-127q-13 0 -13 -12v-299q0 -12 13 -12h217q82 0 133.5 52t52.5 138z" />
    <glyph glyph-name="dcaron.sc" horiz-adv-x="1083" 
d="M430 1292q-24 0 -39 21l-139 200q-11 17 -4.5 28t26.5 11h117q25 0 39 -20l90 -133q3 -5 8.5 -5t8.5 5l90 133q14 20 39 20h114q20 0 26 -11t-5 -28l-139 -200q-15 -21 -39 -21h-193zM145 0q-32 0 -32 33v1116q0 33 32 33h424q196 0 315.5 -98.5t119.5 -260.5v-465
q0 -162 -119.5 -260t-315.5 -98h-424zM350 217q0 -12 12 -12h218q82 0 133.5 52t52.5 138v391q0 86 -51.5 138.5t-136.5 52.5h-216q-12 0 -12 -12v-748z" />
    <glyph glyph-name="dcroat.sc" horiz-adv-x="1175" 
d="M662 1182q195 0 314.5 -98.5t119.5 -260.5v-465q0 -162 -119 -260t-315 -98h-424q-15 0 -24 9t-9 24v483q0 12 -12 12h-48q-32 0 -32 33v94q0 33 32 33h48q12 0 12 12v449q0 15 9 24t24 9h424zM858 395v391q0 86 -51.5 138.5t-136.5 52.5h-215q-13 0 -13 -12v-265
q0 -12 13 -12h127q32 0 32 -33v-94q0 -33 -32 -33h-127q-13 0 -13 -12v-299q0 -12 13 -12h217q82 0 133.5 52t52.5 138z" />
    <glyph glyph-name="e.sc" horiz-adv-x="1028" 
d="M958 1008q0 -33 -32 -33h-564q-12 0 -12 -12v-252q0 -13 12 -13h367q33 0 33 -32v-138q0 -32 -33 -32h-367q-12 0 -12 -13v-266q0 -12 12 -12h564q32 0 32 -33v-139q0 -33 -32 -33h-781q-32 0 -32 33v1116q0 33 32 33h781q32 0 32 -33v-141z" />
    <glyph glyph-name="eacute.sc" horiz-adv-x="1028" 
d="M729 1589q20 0 26 -11t-5 -28l-132 -196q-13 -21 -38 -21h-134q-19 0 -26 11t2 28l106 195q13 22 39 22h162zM958 1008q0 -33 -32 -33h-564q-12 0 -12 -12v-252q0 -13 12 -13h367q33 0 33 -32v-138q0 -32 -33 -32h-367q-12 0 -12 -13v-266q0 -12 12 -12h564q32 0 32 -33
v-139q0 -33 -32 -33h-781q-32 0 -32 33v1116q0 33 32 33h781q32 0 32 -33v-141z" />
    <glyph glyph-name="ecaron.sc" horiz-adv-x="1028" 
d="M664 1325q-14 -20 -39 -20h-193q-25 0 -39 20l-139 201q-11 17 -4.5 28t26.5 11h117q24 0 39 -21l90 -133q3 -5 8.5 -5t8.5 5l90 133q15 21 39 21h114q20 0 26 -11t-5 -28zM958 1008q0 -33 -32 -33h-564q-12 0 -12 -12v-252q0 -13 12 -13h367q33 0 33 -32v-138
q0 -32 -33 -32h-367q-12 0 -12 -13v-266q0 -12 12 -12h564q32 0 32 -33v-139q0 -33 -32 -33h-781q-32 0 -32 33v1116q0 33 32 33h781q32 0 32 -33v-141z" />
    <glyph glyph-name="uni0229.sc" horiz-adv-x="1028" 
d="M958 1008q0 -33 -32 -33h-564q-12 0 -12 -12v-252q0 -13 12 -13h367q33 0 33 -32v-138q0 -32 -33 -32h-367q-12 0 -12 -13v-266q0 -12 12 -12h564q32 0 32 -33v-139q0 -33 -32 -33h-297q-8 0 -10 -5t4 -9q104 -104 75 -222q-14 -51 -48.5 -81.5t-78.5 -38.5t-85.5 -5.5
t-79.5 13.5q-26 9 -23 39l10 63q6 31 39 25q40 -10 71 3t40 48q17 75 -94 164q-6 6 -15 6h-289q-32 0 -32 33v1116q0 33 32 33h781q32 0 32 -33v-141z" />
    <glyph glyph-name="ecircumflex.sc" horiz-adv-x="1028" 
d="M539 1477q-3 5 -8.5 5t-8.5 -5l-90 -131q-15 -21 -39 -21h-121q-20 0 -26 12t6 27l149 201q14 20 39 20h176q22 0 39 -20l152 -199q12 -15 5.5 -28t-26.5 -13h-118q-24 0 -39 21zM958 1008q0 -33 -32 -33h-564q-12 0 -12 -12v-252q0 -13 12 -13h367q33 0 33 -32v-138
q0 -32 -33 -32h-367q-12 0 -12 -13v-266q0 -12 12 -12h564q32 0 32 -33v-139q0 -33 -32 -33h-781q-32 0 -32 33v1116q0 33 32 33h781q32 0 32 -33v-141z" />
    <glyph glyph-name="edieresis.sc" horiz-adv-x="1028" 
d="M344 1346q-57 0 -93 35t-36 92t36 91.5t93 34.5q56 0 90.5 -34.5t34.5 -91.5t-34.5 -92t-90.5 -35zM719 1346q-57 0 -92 35t-35 92t35 91.5t92 34.5t92 -34.5t35 -91.5t-35 -92t-92 -35zM958 1008q0 -33 -32 -33h-564q-12 0 -12 -12v-252q0 -13 12 -13h367q33 0 33 -32
v-138q0 -32 -33 -32h-367q-12 0 -12 -13v-266q0 -12 12 -12h564q32 0 32 -33v-139q0 -33 -32 -33h-781q-32 0 -32 33v1116q0 33 32 33h781q32 0 32 -33v-141z" />
    <glyph glyph-name="edotaccent.sc" horiz-adv-x="1028" 
d="M530 1327q-52 0 -85 33t-33 86q0 52 32.5 84.5t85.5 32.5q52 0 84.5 -32.5t32.5 -84.5q0 -53 -32.5 -86t-84.5 -33zM958 1008q0 -33 -32 -33h-564q-12 0 -12 -12v-252q0 -13 12 -13h367q33 0 33 -32v-138q0 -32 -33 -32h-367q-12 0 -12 -13v-266q0 -12 12 -12h564
q32 0 32 -33v-139q0 -33 -32 -33h-781q-32 0 -32 33v1116q0 33 32 33h781q32 0 32 -33v-141z" />
    <glyph glyph-name="egrave.sc" horiz-adv-x="1028" 
d="M614 1372q9 -17 2 -28t-26 -11h-133q-26 0 -39 21l-131 196q-11 17 -5.5 28t25.5 11h162q26 0 39 -22zM958 1008q0 -33 -32 -33h-564q-12 0 -12 -12v-252q0 -13 12 -13h367q33 0 33 -32v-138q0 -32 -33 -32h-367q-12 0 -12 -13v-266q0 -12 12 -12h564q32 0 32 -33v-139
q0 -33 -32 -33h-781q-32 0 -32 33v1116q0 33 32 33h781q32 0 32 -33v-141z" />
    <glyph glyph-name="emacron.sc" horiz-adv-x="1028" 
d="M791 1513q32 0 32 -32v-99q0 -32 -32 -32h-519q-32 0 -32 32v99q0 32 32 32h519zM958 1008q0 -33 -32 -33h-564q-12 0 -12 -12v-252q0 -13 12 -13h367q33 0 33 -32v-138q0 -32 -33 -32h-367q-12 0 -12 -13v-266q0 -12 12 -12h564q32 0 32 -33v-139q0 -33 -32 -33h-781
q-32 0 -32 33v1116q0 33 32 33h781q32 0 32 -33v-141z" />
    <glyph glyph-name="eogonek.sc" horiz-adv-x="1028" 
d="M958 1008q0 -33 -32 -33h-564q-12 0 -12 -12v-252q0 -13 12 -13h367q33 0 33 -32v-138q0 -32 -33 -32h-367q-12 0 -12 -13v-266q0 -12 12 -12h564q32 0 32 -33v-139q0 -33 -32 -33h-332q-8 0 -14 -6q-114 -92 -97 -166q9 -35 40 -48t71 -3q33 6 39 -25l10 -63
q3 -31 -25 -39q-37 -11 -78.5 -13.5t-85 5.5t-78 38.5t-48.5 81.5q-29 117 78 224q6 4 3.5 9t-10.5 5h-254q-32 0 -32 33v1116q0 33 32 33h781q32 0 32 -33v-141z" />
    <glyph glyph-name="f.sc" horiz-adv-x="980" 
d="M956 1010q0 -33 -32 -33h-562q-12 0 -12 -12v-254q0 -13 12 -13h367q33 0 33 -32v-138q0 -32 -33 -32h-367q-12 0 -12 -13v-450q0 -15 -9 -24t-24 -9h-172q-32 0 -32 33v1116q0 33 32 33h779q32 0 32 -33v-139z" />
    <glyph glyph-name="g.sc" horiz-adv-x="1177" 
d="M598 -14q-226 0 -360 119.5t-134 328.5v316q0 208 134 327t360 119q220 0 353.5 -118t133.5 -318q0 -23 -32 -23h-170q-33 0 -33 11v10q0 112 -67.5 172.5t-184.5 60.5q-119 0 -188.5 -63.5t-69.5 -186.5v-313q0 -115 70 -176.5t188 -61.5t185 61.5t67 176.5q0 10 -12 10
h-197q-15 0 -24 9t-9 24v121q0 15 9 24t24 9h412q32 0 32 -33v-158q0 -208 -133 -328t-354 -120z" />
    <glyph glyph-name="gbreve.sc" horiz-adv-x="1177" 
d="M596 1262q-94 0 -163 57t-81 143q-1 17 8 26t25 9h66q25 0 34 -31q9 -40 40 -66t71 -26q41 0 72.5 26t40.5 66q9 31 34 31h64q15 0 24.5 -9t8.5 -24q-12 -87 -81.5 -144.5t-162.5 -57.5zM598 -14q-226 0 -360 119.5t-134 328.5v316q0 208 134 327t360 119
q220 0 353.5 -118t133.5 -318q0 -23 -32 -23h-170q-33 0 -33 11v10q0 112 -67.5 172.5t-184.5 60.5q-119 0 -188.5 -63.5t-69.5 -186.5v-313q0 -115 70 -176.5t188 -61.5t185 61.5t67 176.5q0 10 -12 10h-197q-15 0 -24 9t-9 24v121q0 15 9 24t24 9h412q32 0 32 -33v-158
q0 -208 -133 -328t-354 -120z" />
    <glyph glyph-name="uni0123.sc" horiz-adv-x="1177" 
d="M598 -14q-226 0 -360 119.5t-134 328.5v316q0 208 134 327t360 119q220 0 353.5 -118t133.5 -318q0 -23 -32 -23h-170q-33 0 -33 11v10q0 112 -67.5 172.5t-184.5 60.5q-119 0 -188.5 -63.5t-69.5 -186.5v-313q0 -115 70 -176.5t188 -61.5t185 61.5t67 176.5q0 10 -12 10
h-197q-15 0 -24 9t-9 24v121q0 15 9 24t24 9h412q32 0 32 -33v-158q0 -208 -133 -328t-354 -120zM436 -383q-19 0 -26 11t2 28l106 194q13 23 39 23h162q20 0 25.5 -11t-5.5 -28l-131 -196q-13 -21 -39 -21h-133z" />
    <glyph glyph-name="gdotaccent.sc" horiz-adv-x="1177" 
d="M596 1321q-52 0 -85.5 33.5t-33.5 85.5t33 84t86 32t85 -32t32 -84q0 -53 -32.5 -86t-84.5 -33zM598 -14q-226 0 -360 119.5t-134 328.5v316q0 208 134 327t360 119q220 0 353.5 -118t133.5 -318q0 -23 -32 -23h-170q-33 0 -33 11v10q0 112 -67.5 172.5t-184.5 60.5
q-119 0 -188.5 -63.5t-69.5 -186.5v-313q0 -115 70 -176.5t188 -61.5t185 61.5t67 176.5q0 10 -12 10h-197q-15 0 -24 9t-9 24v121q0 15 9 24t24 9h412q32 0 32 -33v-158q0 -208 -133 -328t-354 -120z" />
    <glyph glyph-name="h.sc" horiz-adv-x="1103" 
d="M768 1149q0 15 9 24t24 9h172q15 0 24 -9t9 -24v-1116q0 -15 -9 -24t-24 -9h-172q-15 0 -24 9t-9 24v448q0 13 -12 13h-394q-12 0 -12 -13v-448q0 -15 -9 -24t-24 -9h-172q-32 0 -32 33v1116q0 33 32 33h172q15 0 24 -9t9 -24v-438q0 -13 12 -13h394q12 0 12 13v438z" />
    <glyph glyph-name="hbar.sc" horiz-adv-x="1103" 
d="M1157 1020q15 0 24 -9t9 -24v-96q0 -15 -9 -24t-24 -9h-139q-12 0 -12 -12v-813q0 -15 -9 -24t-24 -9h-172q-15 0 -24 9t-9 24v448q0 13 -12 13h-394q-12 0 -12 -13v-448q0 -15 -9 -24t-24 -9h-172q-32 0 -32 33v813q0 12 -13 12h-137q-15 0 -24 9t-9 24v96q0 15 9 24
t24 9h137q13 0 13 12v117q0 33 32 33h172q15 0 24 -9t9 -24v-117q0 -12 12 -12h394q12 0 12 12v117q0 15 9 24t24 9h172q15 0 24 -9t9 -24v-117q0 -12 12 -12h139zM756 698q12 0 12 13v135q0 12 -12 12h-394q-12 0 -12 -12v-135q0 -13 12 -13h394z" />
    <glyph glyph-name="i.sc" horiz-adv-x="462" 
d="M145 0q-32 0 -32 33v1116q0 33 32 33h172q15 0 24 -9t9 -24v-1116q0 -15 -9 -24t-24 -9h-172z" />
    <glyph glyph-name="iacute.sc" horiz-adv-x="462" 
d="M147 1333q-19 0 -26 11t2 28l106 195q13 22 39 22h162q20 0 26 -11t-5 -28l-132 -196q-13 -21 -38 -21h-134zM145 0q-32 0 -32 33v1116q0 33 32 33h172q15 0 24 -9t9 -24v-1116q0 -15 -9 -24t-24 -9h-172z" />
    <glyph glyph-name="icircumflex.sc" horiz-adv-x="462" 
d="M-27 1325q-20 0 -26 12t6 27l149 201q14 20 39 20h176q22 0 39 -20l152 -199q12 -15 5.5 -28t-26.5 -13h-118q-24 0 -39 21l-90 131q-3 5 -8.5 5t-8.5 -5l-90 -131q-15 -21 -39 -21h-121zM145 0q-32 0 -32 33v1116q0 33 32 33h172q15 0 24 -9t9 -24v-1116q0 -15 -9 -24
t-24 -9h-172z" />
    <glyph glyph-name="idieresis.sc" horiz-adv-x="462" 
d="M45 1346q-57 0 -93 35t-36 92t36 91.5t93 34.5q56 0 90.5 -34.5t34.5 -91.5t-34.5 -92t-90.5 -35zM420 1346q-57 0 -92 35t-35 92t35 91.5t92 34.5t92 -34.5t35 -91.5t-35 -92t-92 -35zM145 0q-32 0 -32 33v1116q0 33 32 33h172q15 0 24 -9t9 -24v-1116q0 -15 -9 -24
t-24 -9h-172z" />
    <glyph glyph-name="i.sc.loclTRK" horiz-adv-x="462" 
d="M231 1327q-52 0 -85 33t-33 86q0 52 32.5 84.5t85.5 32.5t85 -32.5t32 -84.5q0 -53 -32.5 -86t-84.5 -33zM145 0q-32 0 -32 33v1116q0 33 32 33h172q15 0 24 -9t9 -24v-1116q0 -15 -9 -24t-24 -9h-172z" />
    <glyph glyph-name="igrave.sc" horiz-adv-x="462" 
d="M315 1372q9 -17 2 -28t-26 -11h-133q-26 0 -39 21l-131 196q-11 17 -5.5 28t25.5 11h162q26 0 39 -22zM145 0q-32 0 -32 33v1116q0 33 32 33h172q15 0 24 -9t9 -24v-1116q0 -15 -9 -24t-24 -9h-172z" />
    <glyph glyph-name="ij.sc" horiz-adv-x="1497" 
d="M145 0q-32 0 -32 33v1116q0 33 32 33h172q15 0 24 -9t9 -24v-1116q0 -15 -9 -24t-24 -9h-172zM940 -14q-200 0 -322 120t-122 318v37q0 33 32 33h172q15 0 24 -9t9 -24v-35q0 -107 56.5 -171.5t150.5 -64.5q93 0 150 64.5t57 171.5v723q0 15 9 24t24 9h172q32 0 32 -33
v-725q0 -197 -122.5 -317.5t-321.5 -120.5z" />
    <glyph glyph-name="imacron.sc" horiz-adv-x="462" 
d="M-27 1350q-32 0 -32 32v99q0 32 32 32h519q32 0 32 -32v-99q0 -32 -32 -32h-519zM145 0q-32 0 -32 33v1116q0 33 32 33h172q15 0 24 -9t9 -24v-1116q0 -15 -9 -24t-24 -9h-172z" />
    <glyph glyph-name="iogonek.sc" horiz-adv-x="487" 
d="M328 -248q33 6 39 -24l10 -64q3 -31 -25 -39q-37 -11 -78.5 -13.5t-85.5 6t-78.5 39t-48.5 81.5q-33 131 107 248q6 4 5 9t-7 5h-21q-32 0 -32 33v1116q0 33 32 33h172q15 0 24 -9t9 -24v-1149q-4 -4 -18 -14q-132 -100 -115 -183q9 -35 40 -48t71 -3z" />
    <glyph glyph-name="j.sc" horiz-adv-x="1034" 
d="M477 -14q-200 0 -322 120t-122 318v37q0 15 9 24t24 9h172q32 0 32 -33v-35q0 -107 56.5 -171.5t150.5 -64.5q93 0 150 64.5t57 171.5v723q0 15 9 24t24 9h172q15 0 24 -9t9 -24v-725q0 -197 -123 -317.5t-322 -120.5z" />
    <glyph glyph-name="k.sc" horiz-adv-x="1093" 
d="M145 0q-32 0 -32 33v1116q0 33 32 33h172q15 0 24 -9t9 -24v-467q0 -7 5 -8.5t10 4.5l407 485q16 19 41 19h186q20 0 25.5 -13t-6.5 -28l-373 -455q-6 -6 0 -16l402 -631q10 -17 3.5 -28t-26.5 -11h-193q-25 0 -38 20l-310 482q-7 14 -18 0l-109 -135q-6 -9 -6 -15v-319
q0 -15 -9 -24t-24 -9h-172z" />
    <glyph glyph-name="uni0137.sc" horiz-adv-x="1093" 
d="M145 0q-32 0 -32 33v1116q0 33 32 33h172q15 0 24 -9t9 -24v-467q0 -7 5 -8.5t10 4.5l407 485q16 19 41 19h186q20 0 25.5 -13t-6.5 -28l-373 -455q-6 -6 0 -16l402 -631q10 -17 3.5 -28t-26.5 -11h-193q-25 0 -38 20l-310 482q-7 14 -18 0l-109 -135q-6 -9 -6 -15v-319
q0 -15 -9 -24t-24 -9h-172zM395 -369q-19 0 -26 11t2 28l106 195q13 22 39 22h162q20 0 25.5 -11t-5.5 -28l-131 -196q-13 -21 -39 -21h-133z" />
    <glyph glyph-name="l.sc" horiz-adv-x="1001" 
d="M145 0q-32 0 -32 33v1116q0 33 32 33h172q15 0 24 -9t9 -24v-932q0 -12 12 -12h560q32 0 32 -33v-139q0 -33 -32 -33h-777z" />
    <glyph glyph-name="lacute.sc" horiz-adv-x="1001" 
d="M145 1313q-19 0 -26 11t2 28l106 194q13 23 39 23h162q20 0 26 -11t-5 -28l-132 -197q-13 -20 -38 -20h-134zM145 0q-32 0 -32 33v1116q0 33 32 33h172q15 0 24 -9t9 -24v-932q0 -12 12 -12h560q32 0 32 -33v-139q0 -33 -32 -33h-777z" />
    <glyph glyph-name="lcaron.sc" horiz-adv-x="1001" 
d="M131 1284q-24 0 -39 21l-139 200q-11 17 -4.5 28t26.5 11h117q25 0 39 -20l90 -133q3 -5 8.5 -5t8.5 5l90 133q14 20 39 20h114q20 0 26 -11t-5 -28l-140 -200q-15 -21 -38 -21h-193zM145 0q-32 0 -32 33v1116q0 33 32 33h172q15 0 24 -9t9 -24v-932q0 -12 12 -12h560
q32 0 32 -33v-139q0 -33 -32 -33h-777z" />
    <glyph glyph-name="uni013C.sc" horiz-adv-x="1001" 
d="M145 0q-32 0 -32 33v1116q0 33 32 33h172q15 0 24 -9t9 -24v-932q0 -12 12 -12h560q32 0 32 -33v-139q0 -33 -32 -33h-777zM332 -369q-19 0 -26.5 11t1.5 28l107 195q13 22 39 22h161q20 0 26 -11t-5 -28l-131 -196q-13 -21 -39 -21h-133z" />
    <glyph glyph-name="lslash.sc" horiz-adv-x="1083" 
d="M350 217q0 -12 12 -12h560q32 0 32 -33v-139q0 -33 -32 -33h-777q-32 0 -32 33v278q0 17 -15 6l-65 -51q-25 -22 -45 4l-62 72q-21 24 6 45l174 141q7 7 7 15v606q0 33 32 33h172q15 0 24 -9t9 -24v-404q0 -17 15 -6l395 318q27 20 45 -4l61 -76q19 -26 -6 -45l-502 -406
q-8 -8 -8 -16v-293z" />
    <glyph glyph-name="m.sc" horiz-adv-x="1253" 
d="M145 0q-32 0 -32 33v1116q0 33 32 33h172q28 0 41 -23l260 -416q3 -6 8.5 -6t8.5 6l260 416q13 23 41 23h172q15 0 24 -9t9 -24v-1116q0 -15 -9 -24t-24 -9h-172q-15 0 -24 9t-9 24v794q0 9 -4.5 10.5t-9.5 -6.5l-201 -325q-13 -23 -41 -23h-41q-28 0 -41 23l-200 325
q-5 8 -10 6.5t-5 -10.5v-794q0 -15 -9 -24t-24 -9h-172z" />
    <glyph glyph-name="n.sc" horiz-adv-x="1169" 
d="M145 0q-32 0 -32 33v1116q0 33 32 33h179q26 0 38 -23l445 -753q5 -8 9.5 -6.5t4.5 10.5l-2 739q0 33 33 33h172q15 0 24 -9t9 -24v-1116q0 -15 -9 -24t-24 -9h-178q-28 0 -39 23l-445 761q-4 9 -9 7t-5 -11l2 -747q0 -33 -33 -33h-172z" />
    <glyph glyph-name="nacute.sc" horiz-adv-x="1169" 
d="M487 1333q-19 0 -26 11t2 28l106 195q13 22 39 22h162q20 0 26 -11t-5 -28l-132 -196q-13 -21 -38 -21h-134zM145 0q-32 0 -32 33v1116q0 33 32 33h179q26 0 38 -23l445 -753q5 -8 9.5 -6.5t4.5 10.5l-2 739q0 33 33 33h172q15 0 24 -9t9 -24v-1116q0 -15 -9 -24t-24 -9
h-178q-28 0 -39 23l-445 761q-4 9 -9 7t-5 -11l2 -747q0 -33 -33 -33h-172z" />
    <glyph glyph-name="ncaron.sc" horiz-adv-x="1169" 
d="M473 1305q-25 0 -39 20l-139 201q-11 17 -4.5 28t26.5 11h117q24 0 39 -21l90 -133q3 -5 8.5 -5t8.5 5l90 133q15 21 39 21h114q20 0 26 -11t-5 -28l-139 -201q-14 -20 -39 -20h-193zM145 0q-32 0 -32 33v1116q0 33 32 33h179q26 0 38 -23l445 -753q5 -8 9.5 -6.5
t4.5 10.5l-2 739q0 33 33 33h172q15 0 24 -9t9 -24v-1116q0 -15 -9 -24t-24 -9h-178q-28 0 -39 23l-445 761q-4 9 -9 7t-5 -11l2 -747q0 -33 -33 -33h-172z" />
    <glyph glyph-name="uni0146.sc" horiz-adv-x="1169" 
d="M145 0q-32 0 -32 33v1116q0 33 32 33h179q26 0 38 -23l445 -753q5 -8 9.5 -6.5t4.5 10.5l-2 739q0 33 33 33h172q15 0 24 -9t9 -24v-1116q0 -15 -9 -24t-24 -9h-178q-28 0 -39 23l-445 761q-4 9 -9 7t-5 -11l2 -747q0 -33 -33 -33h-172zM426 -369q-19 0 -26.5 11t1.5 28
l107 195q13 22 39 22h162q20 0 25.5 -11t-5.5 -28l-131 -196q-13 -21 -39 -21h-133z" />
    <glyph glyph-name="eng.sc" horiz-adv-x="1169" 
d="M1024 1182q15 0 24 -9t9 -24v-1129v-20h-2q-4 -122 -41 -188.5t-121.5 -95.5t-237.5 -27q-32 0 -32 32v136q0 30 34 30q81 -1 116.5 24t43.5 85q0 4 -4 16l-451 772q-4 9 -9 7t-5 -11l2 -747q0 -33 -33 -33h-172q-32 0 -32 33v1116q0 33 32 33h179q26 0 38 -23l441 -747
q5 -8 9.5 -6.5t4.5 10.5v469v10q2 6 2 16v238q0 15 9 24t24 9h172z" />
    <glyph glyph-name="ntilde.sc" horiz-adv-x="1169" 
d="M709 1343q-26 0 -53.5 9.5t-41 17.5t-39.5 25q-49 35 -83 35q-51 0 -82 -39q-20 -30 -45 -11l-56 41q-27 17 -12 43q30 61 76.5 92t101.5 31q25 0 49.5 -7.5t40 -15.5t41.5 -24q63 -39 99 -39q48 0 77 41q22 29 47 10l56 -36q26 -17 2 -60q-35 -56 -83 -84.5t-95 -28.5z
M145 0q-32 0 -32 33v1116q0 33 32 33h179q26 0 38 -23l445 -753q5 -8 9.5 -6.5t4.5 10.5l-2 739q0 33 33 33h172q15 0 24 -9t9 -24v-1116q0 -15 -9 -24t-24 -9h-178q-28 0 -39 23l-445 761q-4 9 -9 7t-5 -11l2 -747q0 -33 -33 -33h-172z" />
    <glyph glyph-name="o.sc" horiz-adv-x="1114" 
d="M557 -18q-214 0 -342.5 128t-128.5 343v276q0 212 128.5 339.5t342.5 127.5q212 0 341.5 -128t129.5 -339v-276q0 -214 -129.5 -342.5t-341.5 -128.5zM557 186q105 0 169.5 70.5t64.5 189.5v285q0 119 -64.5 189.5t-169.5 70.5q-106 0 -169.5 -70t-63.5 -190v-285
q0 -120 63.5 -190t169.5 -70z" />
    <glyph glyph-name="oacute.sc" horiz-adv-x="1114" 
d="M473 1327q-19 0 -26 11t2 28l106 195q13 22 39 22h162q20 0 25.5 -11t-5.5 -28l-131 -196q-13 -21 -39 -21h-133zM557 -18q-214 0 -342.5 128t-128.5 343v276q0 212 128.5 339.5t342.5 127.5q212 0 341.5 -128t129.5 -339v-276q0 -214 -129.5 -342.5t-341.5 -128.5z
M557 186q105 0 169.5 70.5t64.5 189.5v285q0 119 -64.5 189.5t-169.5 70.5q-106 0 -169.5 -70t-63.5 -190v-285q0 -120 63.5 -190t169.5 -70z" />
    </font>
</defs>
</svg>
