<?xml version="1.0" standalone="no"?>
<!DOCTYPE svg PUBLIC "-//W3C//DTD SVG 1.1//EN" "http://www.w3.org/Graphics/SVG/1.1/DTD/svg11.dtd" >
<svg xmlns="http://www.w3.org/2000/svg" xmlns:xlink="http://www.w3.org/1999/xlink" version="1.1">
<metadata>
Created by FontForge 20170731 at Mon Jan 18 07:23:59 2021
 By Aleksey,,,
Copyright 2017 The Barlow Project Authors (https://github.com/jpt/barlow)
</metadata>
<defs>
<font id="Barlow-Regular" horiz-adv-x="0" >
  <font-face 
    font-family="Barlow"
    font-weight="400"
    font-stretch="normal"
    units-per-em="2048"
    panose-1="0 0 5 0 0 0 0 0 0 0"
    ascent="1638"
    descent="-410"
    x-height="1036"
    cap-height="1434"
    bbox="-1210 -428 2281 2007"
    underline-thickness="102"
    underline-position="-307"
    unicode-range="U+000D-25CA"
  />
<missing-glyph horiz-adv-x="858" 
d="M0 10q0 -10 10 -10h838q10 0 10 10v1413q0 11 -10 11h-838q-10 0 -10 -11v-1413zM387 475q-12 0 -19.5 7.5t-7.5 19.5v73q0 52 26 93.5t62.5 70.5l73 58t62.5 71t26 95q0 73 -47.5 117t-124.5 44q-78 0 -126 -45t-48 -118v-33q0 -25 -26 -25l-50 2q-26 0 -26 27v29
q0 117 77 187.5t203 70.5q123 0 198 -69.5t75 -186.5q0 -50 -14 -91.5t-36 -69.5t-48.5 -52t-53 -44t-48.5 -39.5t-36 -44t-14 -53.5v-67q0 -12 -7.5 -19.5t-19.5 -7.5h-51zM418 184q-35 0 -60.5 24.5t-25.5 59.5q0 34 25.5 59t60.5 25t61.5 -25t26.5 -59q0 -35 -26 -59.5
t-62 -24.5z" />
    <glyph glyph-name="I_J.liga" unicode="IJ" horiz-adv-x="1718" 
d="M219 0q-26 0 -26 27v1380q0 27 26 27h92q12 0 19.5 -7.5t7.5 -19.5v-1380q0 -12 -7.5 -19.5t-19.5 -7.5h-92zM1057 -16q-211 0 -339 117.5t-128 310.5v94q0 26 26 26h93q26 0 26 -26v-94q0 -135 88.5 -218t233.5 -83q146 0 234.5 83t88.5 218v995q0 12 7.5 19.5t19.5 7.5
h92q12 0 19.5 -7.5t7.5 -19.5v-995q0 -193 -129 -310.5t-340 -117.5z" />
    <glyph glyph-name="f_f_i.liga" unicode="ffi" horiz-adv-x="1912" 
d="M371 1106v-59q0 -11 10 -11h248q26 0 26 -26v-68q0 -27 -26 -27h-248q-10 0 -10 -10v-878q0 -12 -7.5 -19.5t-19.5 -7.5h-90q-12 0 -19.5 7.5t-7.5 19.5v878q0 10 -10 10h-121q-26 0 -26 27v68q0 26 26 26h121q10 0 10 11v69q0 166 73.5 243.5t256.5 74.5h53
q12 0 19.5 -7.5t7.5 -19.5v-53q0 -12 -7.5 -19.5t-19.5 -7.5h-53q-109 -1 -147.5 -54.5t-38.5 -166.5zM913 1116q0 166 74 243.5t258 74.5h53q12 0 19.5 -7.5t7.5 -19.5v-53q0 -12 -7.5 -19.5t-19.5 -7.5h-53q-109 -1 -147.5 -54.5t-38.5 -166.5v-59q0 -11 10 -11h229
q27 0 27 -26v-68q0 -12 -7.5 -19.5t-19.5 -7.5h-229q-10 0 -10 -10v-878q0 -12 -7.5 -19.5t-19.5 -7.5h-92q-12 0 -19.5 7.5t-7.5 19.5v878q0 10 -10 10h-180q-12 0 -19.5 7.5t-7.5 19.5v68q0 26 27 26h180q10 0 10 11v69zM1661 1432q49 0 80 -30.5t31 -76.5t-31 -76
t-80 -30q-47 0 -79 30t-32 76t32 76.5t79 30.5zM1616 0q-12 0 -19.5 7.5t-7.5 19.5v983q0 26 27 26h92q27 0 27 -26v-983q0 -12 -7.5 -19.5t-19.5 -7.5h-92z" />
    <glyph glyph-name="f_f_l.liga" unicode="ffl" horiz-adv-x="1884" 
d="M913 1116q0 166 74 243.5t258 74.5h53q12 0 19.5 -7.5t7.5 -19.5v-53q0 -12 -7.5 -19.5t-19.5 -7.5h-53q-109 -1 -147.5 -54.5t-38.5 -166.5v-59q0 -11 10 -11h229q27 0 27 -26v-68q0 -12 -7.5 -19.5t-19.5 -7.5h-229q-10 0 -10 -10v-878q0 -12 -7.5 -19.5t-19.5 -7.5
h-92q-12 0 -19.5 7.5t-7.5 19.5v878q0 10 -10 10h-522q-10 0 -10 -10v-878q0 -12 -7.5 -19.5t-19.5 -7.5h-90q-12 0 -19.5 7.5t-7.5 19.5v878q0 10 -10 10h-121q-26 0 -26 27v68q0 26 26 26h121q10 0 10 11v69q0 166 73.5 243.5t256.5 74.5h53q12 0 19.5 -7.5t7.5 -19.5v-53
q0 -12 -7.5 -19.5t-19.5 -7.5h-53q-109 -1 -147.5 -54.5t-38.5 -166.5v-59q0 -11 10 -11h522q10 0 10 11v69zM1573 1407q0 27 26 27h93q26 0 26 -27v-1380q0 -27 -26 -27h-93q-26 0 -26 27v1380z" />
    <glyph glyph-name="f_i.liga" unicode="fi" horiz-adv-x="1230" 
d="M236 1094q0 95 15 157t52.5 104t99.5 60.5t158 18.5h53q12 0 19.5 -7.5t7.5 -19.5v-74q0 -26 -27 -26h-41q-113 0 -153.5 -50t-40.5 -172v-38q0 -11 10 -11h221q27 0 27 -26v-80q0 -12 -7.5 -19.5t-19.5 -7.5h-221q-10 0 -10 -10v-866q0 -12 -7.5 -19.5t-19.5 -7.5h-90
q-26 0 -26 27v866q0 10 -11 10h-129q-26 0 -26 27v80q0 26 26 26h129q11 0 11 11v47zM981 1434q49 0 80 -29.5t31 -75.5q0 -47 -31 -76.5t-80 -29.5t-80 29.5t-31 76.5q0 46 31 75.5t80 29.5zM936 0q-12 0 -19.5 7.5t-7.5 19.5v983q0 26 27 26h92q27 0 27 -26v-983
q0 -12 -7.5 -19.5t-19.5 -7.5h-92z" />
    <glyph glyph-name="f_l.liga" unicode="fl" horiz-adv-x="1204" 
d="M236 1094q0 95 15 157t52.5 104t99.5 60.5t158 18.5h53q12 0 19.5 -7.5t7.5 -19.5v-74q0 -26 -27 -26h-41q-113 0 -153.5 -50t-40.5 -172v-38q0 -11 10 -11h221q27 0 27 -26v-80q0 -12 -7.5 -19.5t-19.5 -7.5h-221q-10 0 -10 -10v-866q0 -12 -7.5 -19.5t-19.5 -7.5h-90
q-26 0 -26 27v866q0 10 -11 10h-129q-26 0 -26 27v80q0 26 26 26h129q11 0 11 11v47zM893 1407q0 12 7.5 19.5t19.5 7.5h92q26 0 26 -27v-1380q0 -27 -26 -27h-92q-12 0 -19.5 7.5t-7.5 19.5v1380z" />
    <glyph glyph-name="g_j.liga" unicode="gj" horiz-adv-x="1572" 
d="M1337 1430q48 0 80.5 -29.5t32.5 -75.5t-31 -75t-82 -29q-49 0 -79.5 29t-30.5 75t32.5 75.5t77.5 29.5zM791 936q5 -6 8.5 -4t3.5 8v70q0 26 26 26h93q26 0 26 -26v-975q0 -126 -41.5 -216.5t-118.5 -141t-176.5 -70.5t-224.5 -13q-27 3 -27 29l5 82q0 28 26 25
q217 -9 314.5 64t97.5 245v72q0 6 -3.5 8t-8.5 -4q-92 -121 -267 -121q-132 0 -235 71.5t-139 202.5q-25 87 -25 250q0 180 27 262q36 123 132.5 198t231.5 75q179 0 275 -117zM1264 -90v1100q0 26 26 26h92q27 0 27 -26v-1100q0 -169 -89.5 -251t-266.5 -85
q-12 0 -19.5 7.5t-7.5 19.5v71q0 12 7.5 19.5t19.5 7.5q98 5 154.5 59t56.5 152zM793 313q10 49 10 207t-12 207q-16 87 -81 143t-163 56q-97 0 -163.5 -55.5t-92.5 -143.5q-21 -68 -21 -205q0 -146 21 -207q21 -87 89.5 -142.5t166.5 -55.5q101 0 165.5 56t80.5 140z" />
    <glyph glyph-name="i_j.liga" unicode="ij" horiz-adv-x="966" 
d="M252 1223q-49 0 -80 29.5t-31 76.5q0 46 31 75.5t80 29.5t79.5 -29.5t30.5 -75.5q0 -47 -30.5 -76.5t-79.5 -29.5zM731 1219q-49 0 -79.5 30t-30.5 76t32.5 76.5t77.5 30.5q48 0 80.5 -30t32.5 -77q0 -46 -31.5 -76t-81.5 -30zM207 0q-12 0 -19.5 7.5t-7.5 19.5v983
q0 26 27 26h92q27 0 27 -26v-983q0 -12 -7.5 -19.5t-19.5 -7.5h-92zM444 -426q-26 0 -26 27v71q0 27 26 27q213 6 213 211v1100q0 26 27 26h92q27 0 27 -26v-1100q0 -173 -85 -254t-274 -82z" />
    <glyph glyph-name="hyphen_hyphen.liga" unicode="&#x2d;&#x2d;" horiz-adv-x="1402" 
d="M106 559q-26 0 -26 27v73q0 27 26 27h1190q12 0 19.5 -7.5t7.5 -19.5v-73q0 -12 -7.5 -19.5t-19.5 -7.5h-1190z" />
    <glyph glyph-name=".notdef" horiz-adv-x="858" 
d="M0 10q0 -10 10 -10h838q10 0 10 10v1413q0 11 -10 11h-838q-10 0 -10 -11v-1413zM387 475q-12 0 -19.5 7.5t-7.5 19.5v73q0 52 26 93.5t62.5 70.5l73 58t62.5 71t26 95q0 73 -47.5 117t-124.5 44q-78 0 -126 -45t-48 -118v-33q0 -25 -26 -25l-50 2q-26 0 -26 27v29
q0 117 77 187.5t203 70.5q123 0 198 -69.5t75 -186.5q0 -50 -14 -91.5t-36 -69.5t-48.5 -52t-53 -44t-48.5 -39.5t-36 -44t-14 -53.5v-67q0 -12 -7.5 -19.5t-19.5 -7.5h-51zM418 184q-35 0 -60.5 24.5t-25.5 59.5q0 34 25.5 59t60.5 25t61.5 -25t26.5 -59q0 -35 -26 -59.5
t-62 -24.5z" />
    <glyph glyph-name=".null" 
 />
    <glyph glyph-name="nonmarkingreturn" horiz-adv-x="682" 
 />
    <glyph glyph-name="CR" unicode="&#xd;" horiz-adv-x="409" 
 />
    <glyph glyph-name="space" unicode=" " horiz-adv-x="409" 
 />
    <glyph glyph-name="exclam" unicode="!" horiz-adv-x="661" 
d="M295 467q-27 0 -27 27l-10 913q0 27 27 27h92q26 0 26 -27l-12 -913q0 -27 -26 -27h-70zM326 8q-55 0 -91 35t-36 86q0 50 38.5 85.5t88.5 35.5t88.5 -35.5t38.5 -85.5q0 -51 -37 -86t-90 -35z" />
    <glyph glyph-name="quotedbl" unicode="&#x22;" horiz-adv-x="538" 
d="M102 999q-26 0 -26 27l-15 369q0 26 25 26h94q25 0 25 -26l-15 -369q0 -27 -26 -27h-62zM379 999q-27 0 -27 27l-14 369q0 26 24 26h93q24 0 24 -26l-14 -369q0 -27 -27 -27h-59z" />
    <glyph glyph-name="numbersign" unicode="#" horiz-adv-x="1349" 
d="M1200 905q0 -26 -26 -26h-148q-12 0 -12 -11l-49 -321q0 -10 8 -10h129q26 0 26 -27l-2 -74q0 -26 -26 -26h-146q-12 0 -12 -11l-53 -342q-3 -24 -29 -24l-92 4q-12 0 -19.5 8.5t-5.5 20.5l52 333q0 11 -9 11h-321q-12 0 -12 -11l-54 -342q-3 -24 -28 -24l-92 4
q-12 0 -19.5 8.5t-5.5 20.5l51 333q0 11 -8 11h-123q-27 0 -27 26l3 74q0 27 26 27h141q13 0 13 10l49 321q0 11 -8 11h-121q-27 0 -27 26v76q0 12 7.5 19.5t19.5 7.5h141q12 0 12 10l54 342q3 24 28 24l93 -4q12 0 19 -8t5 -20l-51 -334q0 -10 8 -10h320q12 0 12 10l53 342
q3 24 29 24l92 -4q12 0 19 -8t6 -20l-52 -334q0 -10 9 -10h129q26 0 26 -27zM807 537q12 0 12 10l49 321q0 11 -8 11h-321q-13 0 -13 -11l-49 -321q0 -10 8 -10h322z" />
    <glyph glyph-name="dollar" unicode="$" horiz-adv-x="1116" 
d="M1006 365q0 -163 -103 -265.5t-293 -115.5q-10 0 -10 -11l2 -114q0 -27 -27 -27h-51q-26 0 -26 27l2 116q0 11 -11 11q-173 19 -270.5 114.5t-97.5 245.5v78q0 27 26 27h86q12 0 19.5 -7.5t7.5 -19.5v-49q0 -118 83 -191t230 -73q139 0 213 66.5t74 178.5q0 30 -9 56.5
t-21.5 47.5t-38.5 44.5t-48 39.5t-63.5 40t-70 39t-83 43.5t-88.5 46.5q-82 43 -130.5 74t-92.5 75t-63 98t-19 125q0 158 89.5 251t258.5 112q11 0 11 10l-3 129q0 27 27 27h49q27 0 27 -27l-2 -127q0 -10 10 -10q189 -12 292 -111t103 -260v-57q0 -27 -26 -27h-90
q-12 0 -19.5 7.5t-7.5 19.5v31q0 121 -78.5 195.5t-226.5 74.5q-129 0 -198.5 -59.5t-69.5 -169.5q0 -25 4.5 -46.5t11.5 -39.5t21.5 -35t27 -30t36 -28t40.5 -25t48.5 -25t53 -24.5t60 -26.5t63.5 -28q189 -88 275 -184t86 -237z" />
    <glyph glyph-name="percent" unicode="%" horiz-adv-x="1736" 
d="M487 870q-123 0 -208.5 84.5t-85.5 206.5t85.5 206.5t208.5 84.5q122 0 207.5 -85t85.5 -206t-85.5 -206t-207.5 -85zM449 0q-15 0 -20.5 10t1.5 23l770 1382q10 19 31 19h53q15 0 20.5 -10t-1.5 -23l-768 -1383q-9 -18 -31 -18h-55zM487 956q85 0 144 60t59 145
q0 86 -59 145.5t-144 59.5q-86 0 -145 -59.5t-59 -145.5t59 -145.5t145 -59.5zM1257 -18q-123 0 -208.5 84.5t-85.5 207.5q0 120 85.5 204.5t208.5 84.5q120 0 205.5 -84.5t85.5 -204.5q0 -123 -84.5 -207.5t-206.5 -84.5zM1257 68q85 0 144 60t59 146q0 84 -59.5 143.5
t-143.5 59.5q-86 0 -146 -59t-60 -144q0 -87 59.5 -146.5t146.5 -59.5z" />
    <glyph glyph-name="ampersand" unicode="&#x26;" horiz-adv-x="1355" 
d="M1217 33q10 -13 5 -23t-22 -10h-102q-22 0 -33 14l-117 136q-5 8 -14 2q-182 -168 -416 -168q-181 0 -291 84.5t-110 246.5q0 75 24 140.5t69.5 119.5t94 94.5t115.5 84.5q8 8 2 14q-120 146 -158.5 217t-38.5 143q0 145 94.5 233.5t249.5 88.5q158 0 257.5 -86.5
t99.5 -226.5q0 -66 -23 -124.5t-68 -107.5t-90.5 -86t-111.5 -80q-7 -7 -2 -14q130 -153 239 -281q33 -39 68 -82q8 -8 14 0q67 80 131 170q15 21 37 9l66 -39q24 -15 8 -37q-100 -142 -158 -209q-5 -5 11 -25q33 -38 71.5 -83.5t61 -71.5t37.5 -43zM573 1315
q-92 0 -147 -50t-55 -137q0 -48 31 -103t133 -181q5 -8 14 -2q113 78 172 144.5t59 150.5q0 81 -57.5 129.5t-149.5 48.5zM541 109q160 8 307 143q8 5 2 14q-37 43 -66.5 77.5t-41 48t-24 27.5t-26.5 30q-132 151 -174 202q-5 8 -14 2q-54 -39 -92 -70.5t-74 -72.5
t-55.5 -87t-20.5 -97q-3 -105 73 -163.5t206 -53.5z" />
    <glyph glyph-name="quotesingle" unicode="'" horiz-adv-x="270" 
d="M102 1010q-26 0 -26 26l-15 367q0 27 25 27h98q25 0 25 -27l-14 -367q0 -26 -27 -26h-66z" />
    <glyph glyph-name="parenleft" unicode="(" horiz-adv-x="534" 
d="M242 -213q-22 0 -33 16q-99 153 -159 381.5t-60 481.5q0 258 61.5 491t163.5 389q9 17 31 17h86q15 0 20 -8.5t-2 -22.5q-86 -159 -140 -387t-54 -477q0 -244 54 -468t140 -382q7 -14 2 -22.5t-20 -8.5h-90z" />
    <glyph glyph-name="parenright" unicode=")" horiz-adv-x="534" 
d="M326 -197q-11 -16 -33 -16h-90q-15 0 -20.5 8.5t1.5 22.5q87 158 141 382t54 468q0 248 -54.5 476.5t-140.5 387.5q-7 14 -1.5 22.5t20.5 8.5h86q21 0 30 -17q102 -156 164 -389t62 -491q0 -253 -60 -481.5t-159 -381.5z" />
    <glyph glyph-name="asterisk" unicode="*" horiz-adv-x="813" 
d="M385 805q-27 0 -27 26l2 242q0 6 -4 8.5t-8 -0.5l-219 -127q-23 -13 -37 11l-20 39q-11 22 10 34l219 123q10 7 0 13l-219 122q-21 12 -10 35l20 39q13 23 37 10l219 -127q4 -3 8 0t4 9l-2 241q0 27 27 27h43q27 0 27 -27l-2 -241q0 -6 4 -9t8 0l219 127q24 13 37 -10
l20 -39q11 -23 -10 -35l-221 -122q-10 -6 0 -13l221 -123q21 -12 10 -34l-20 -39q-14 -24 -37 -11l-219 127q-5 3 -8.5 0.5t-3.5 -8.5l2 -242q0 -26 -27 -26h-43z" />
    <glyph glyph-name="plus" unicode="+" horiz-adv-x="1024" 
d="M918 705q26 0 26 -27v-74q0 -26 -26 -26h-332q-11 0 -11 -11v-323q0 -27 -26 -27h-74q-26 0 -26 27v323q0 11 -11 11h-332q-26 0 -26 26v74q0 27 26 27h332q11 0 11 10v340q0 26 26 26h74q26 0 26 -26v-340q0 -10 11 -10h332z" />
    <glyph glyph-name="comma" unicode="," horiz-adv-x="540" 
d="M164 -162q-14 0 -21 8t-4 21l88 426q7 24 29 24h78q28 0 22 -28l-110 -428q-7 -23 -31 -23h-51z" />
    <glyph glyph-name="hyphen" unicode="-" horiz-adv-x="806" 
d="M106 573q-26 0 -26 27v74q0 26 26 26h594q27 0 27 -26v-74q0 -12 -7.5 -19.5t-19.5 -7.5h-594z" />
    <glyph glyph-name="period" unicode="." horiz-adv-x="561" 
d="M276 6q-55 0 -90.5 34.5t-35.5 86.5q0 51 37.5 86t88.5 35q50 0 88.5 -35.5t38.5 -85.5q0 -51 -37 -86t-90 -35z" />
    <glyph glyph-name="slash" unicode="/" horiz-adv-x="731" 
d="M92 0q-14 0 -20 9t-2 22l450 1380q6 23 29 23h90q14 0 20.5 -9t2.5 -22l-451 -1380q-6 -23 -29 -23h-90z" />
    <glyph glyph-name="zero" unicode="0" horiz-adv-x="1157" 
d="M575 -20q-197 0 -313.5 112t-116.5 301v647q0 188 117 300t313 112q198 0 317.5 -112.5t119.5 -299.5v-647q0 -189 -119.5 -301t-317.5 -112zM575 106q132 0 211.5 76.5t79.5 202.5v662q0 126 -79.5 201t-211.5 75q-129 0 -206.5 -75t-77.5 -201v-662q0 -126 77.5 -202.5
t206.5 -76.5z" />
    <glyph glyph-name="one" unicode="1" horiz-adv-x="704" 
d="M352 1425q15 9 35 9h100q12 0 19.5 -7.5t7.5 -19.5v-1380q0 -12 -7.5 -19.5t-19.5 -7.5h-92q-26 0 -26 27v1247q0 5 -3.5 8t-9.5 0l-215 -90q-13 -6 -21.5 0t-8.5 20v64q0 21 18 31z" />
    <glyph glyph-name="two" unicode="2" horiz-adv-x="1097" 
d="M147 0q-26 0 -26 27v75q0 18 12 33q158 188 463 570q192 244 192 378q0 107 -73 173.5t-193 66.5q-117 0 -188 -66.5t-70 -175.5v-57q0 -27 -26 -27h-95q-26 0 -26 27v76q4 157 117 253.5t288 96.5q187 0 300.5 -102.5t113.5 -262.5q0 -172 -193 -419q-88 -116 -424 -527
q-4 -5 -1.5 -8.5t8.5 -3.5h626q12 0 19.5 -7.5t7.5 -19.5v-73q0 -12 -7.5 -19.5t-19.5 -7.5h-805z" />
    <glyph glyph-name="three" unicode="3" horiz-adv-x="1056" 
d="M881 678q41 -100 41 -240q0 -101 -31 -196q-41 -125 -138 -191.5t-241 -66.5q-145 0 -247 75t-140 201q-19 68 -23 150q0 26 27 26h94q27 0 27 -26q4 -69 12 -105q22 -89 87.5 -141.5t162.5 -52.5q89 0 149.5 41.5t86.5 119.5q28 76 28 170q0 123 -37 201
q-59 148 -229 148q-29 0 -66 -13q-20 -9 -34 8l-45 54q-15 18 0 37l356 417q4 6 2 9.5t-8 3.5h-574q-26 0 -26 26v74q0 27 26 27h746q26 0 26 -27v-82q0 -18 -12 -33l-330 -395q-3 -5 -0.5 -8.5t9.5 -3.5q223 -15 301 -207z" />
    <glyph glyph-name="four" unicode="4" horiz-adv-x="1128" 
d="M979 526q27 0 27 -26v-78q0 -12 -7.5 -19.5t-19.5 -7.5h-80q-10 0 -10 -10v-358q0 -12 -7.5 -19.5t-19.5 -7.5h-92q-12 0 -19.5 7.5t-7.5 19.5v358q0 10 -10 10h-606q-12 0 -19.5 7.5t-7.5 19.5v65q0 11 9 33l413 893q10 21 33 21h94q15 0 21 -9t0 -22l-402 -864
q-4 -13 6 -13h459q10 0 10 11v321q0 12 7.5 19.5t19.5 7.5h92q12 0 19.5 -7.5t7.5 -19.5v-321q0 -11 10 -11h80z" />
    <glyph glyph-name="five" unicode="5" horiz-adv-x="1052" 
d="M932 627q18 -90 18 -185q0 -101 -18 -172q-35 -131 -139.5 -207.5t-251.5 -76.5q-145 0 -247.5 73t-139.5 197q-14 51 -19 82q-1 13 7 21t20 8h94q26 0 29 -27q0 -11 8 -35q21 -88 86 -140t162 -52q98 0 164 55t86 151q12 47 12 121q0 69 -10 135q-15 94 -82 143.5
t-170 49.5q-88 0 -155 -36.5t-93 -102.5q-9 -23 -31 -23h-100q-12 0 -19.5 7.5t-7.5 19.5v774q0 12 7.5 19.5t19.5 7.5h704q12 0 19.5 -7.5t7.5 -19.5v-74q0 -26 -27 -26h-575q-10 0 -10 -11l-2 -489q0 -7 3.5 -9t8.5 3q107 96 266 96q144 0 245 -70.5t130 -199.5z" />
    <glyph glyph-name="six" unicode="6" horiz-adv-x="1054" 
d="M909 674q43 -91 43 -234q0 -130 -32 -204q-42 -120 -136.5 -185t-236.5 -65q-148 0 -248.5 70t-140.5 196q-25 85 -25 192v639q0 167 111 267t288 100q173 0 280.5 -96.5t107.5 -253.5v-23q0 -26 -27 -26h-92q-27 0 -27 18v18q0 104 -67.5 170t-174.5 66q-111 0 -182 -68
t-71 -182v-297q0 -6 3.5 -7t8.5 5q90 119 270 119q256 0 348 -219zM782 285q25 66 25 155q0 104 -29 164q-26 75 -86 118.5t-151 43.5q-90 0 -151.5 -44.5t-86.5 -121.5q-24 -64 -24 -166q0 -90 20 -149q24 -78 87 -125t157 -47q88 0 151.5 44.5t87.5 127.5z" />
    <glyph glyph-name="seven" unicode="7" horiz-adv-x="968" 
d="M317 0q-13 0 -19 8.5t-1 22.5l469 1263q3 13 -8 13h-549q-10 0 -10 -11v-86q0 -26 -27 -26h-72q-26 0 -26 26l2 197q0 27 26 27h795q12 0 19.5 -7.5t7.5 -19.5v-84q0 -18 -6 -33l-467 -1270q-6 -20 -31 -20h-103z" />
    <glyph glyph-name="eight" unicode="8" horiz-adv-x="1062" 
d="M899 602q39 -79 39 -201q0 -140 -57 -239q-50 -85 -141 -131.5t-212 -46.5t-212.5 48.5t-141.5 139.5q-55 98 -55 231q0 115 41 205q50 102 137 154q10 7 0 12q-72 47 -115 107q-61 86 -61 200q0 116 57 201q51 82 142 127t208 45q263 0 363 -190q45 -78 45 -183
q0 -114 -59 -194q-47 -70 -117 -113q-11 -8 0 -14q94 -54 139 -158zM264 1069q0 -85 45 -149q71 -104 209 -107h12q147 0 224 115q39 59 39 143q0 74 -31 131q-72 127 -236 127q-78 0 -137 -33.5t-92 -93.5q-33 -64 -33 -133zM743 213q50 82 50 201q0 68 -25 141
q-28 73 -90 113.5t-150 40.5q-169 0 -233 -148q-29 -62 -29 -151q0 -111 43 -189q68 -112 219 -112q146 0 215 104z" />
    <glyph glyph-name="nine" unicode="9" horiz-adv-x="1067" 
d="M909 1182q25 -85 25 -193v-639q0 -167 -111 -266.5t-288 -99.5q-173 0 -280.5 96.5t-107.5 253.5v22q0 12 7.5 19.5t19.5 7.5h92q27 0 27 -18v-19q0 -104 67.5 -169.5t174.5 -65.5q111 0 182 67.5t71 181.5v297q0 6 -4 7t-8 -5q-89 -118 -270 -118q-256 0 -348 219
q-43 91 -43 233q0 131 32 205q42 120 136.5 185t236.5 65q148 0 248.5 -70t140.5 -196zM526 668q90 0 151.5 44.5t86.5 121.5q24 64 24 165q0 91 -20 150q-24 78 -87 125t-157 47q-88 0 -151.5 -44.5t-87.5 -127.5q-25 -66 -25 -156q0 -104 29 -164q26 -75 86 -118t151 -43z
" />
    <glyph glyph-name="colon" unicode=":" horiz-adv-x="694" 
d="M346 719q-54 0 -89.5 35t-35.5 86q0 50 37.5 85.5t87.5 35.5q52 0 90.5 -35.5t38.5 -85.5q0 -51 -37.5 -86t-91.5 -35zM346 29q-54 0 -89.5 35.5t-35.5 87.5q0 50 37.5 85t87.5 35q52 0 90.5 -35t38.5 -85q0 -51 -37.5 -87t-91.5 -36z" />
    <glyph glyph-name="semicolon" unicode=";" horiz-adv-x="636" 
d="M324 711q-55 0 -91 35t-36 88q0 49 38.5 83.5t88.5 34.5q51 0 90 -34.5t39 -83.5q0 -52 -37.5 -87.5t-91.5 -35.5zM231 -154q-12 0 -19 8.5t-5 20.5l53 410q3 24 29 24h82q28 0 22 -28l-82 -410q-4 -25 -28 -25h-52z" />
    <glyph glyph-name="less" unicode="&#x3c;" horiz-adv-x="1024" 
d="M944 121q0 -15 -9 -21t-22 0l-813 377q-20 10 -20 33v86q0 23 20 33l813 377q13 6 22 0t9 -21v-86q0 -21 -20 -31l-684 -309q-12 -6 0 -12l684 -309q20 -10 20 -31v-86z" />
    <glyph glyph-name="equal" unicode="=" horiz-adv-x="1024" 
d="M106 799q-26 0 -26 26v74q0 27 26 27h812q26 0 26 -27v-74q0 -26 -26 -26h-812zM106 371q-26 0 -26 26v74q0 27 26 27h812q26 0 26 -27v-74q0 -26 -26 -26h-812z" />
    <glyph glyph-name="greater" unicode="&#x3e;" horiz-adv-x="1024" 
d="M111 100q-13 -6 -22 0t-9 21v86q0 21 20 31l684 309q12 6 0 12l-684 309q-20 10 -20 31v86q0 15 9 21t22 0l813 -377q20 -10 20 -33v-86q0 -23 -20 -33z" />
    <glyph glyph-name="question" unicode="?" horiz-adv-x="944" 
d="M387 410q-27 0 -27 26v115q0 54 19.5 99.5t50.5 78t68 62.5t74.5 60t68.5 62.5t50.5 78.5t19.5 100q0 102 -66 164.5t-174 62.5q-110 0 -177 -63t-67 -166v-58q0 -24 -26 -24l-92 4q-27 0 -27 26v52q0 162 109 262t284 100q172 0 276.5 -98t104.5 -262q0 -69 -19 -127
t-50 -97t-68 -72.5t-74 -61t-68 -55t-50 -62t-19 -74.5v-107q0 -26 -27 -26h-94zM442 4q-51 0 -85.5 33.5t-34.5 83.5q0 47 35.5 82t84.5 35q50 0 86.5 -35t36.5 -82q0 -49 -36.5 -83t-86.5 -34z" />
    <glyph glyph-name="at" unicode="@" horiz-adv-x="1693" 
d="M930 1264q155 0 281.5 -53t209 -146.5t119 -225.5t16.5 -284q-26 -188 -118.5 -292.5t-231.5 -104.5q-144 0 -207 104q-6 8 -14 0q-76 -102 -213 -102q-110 0 -179.5 54t-80.5 142q-8 62 8 176q16 117 37 179q32 91 109.5 143.5t171.5 52.5q114 0 174 -76q4 -4 8 -2.5
t4 7.5l4 36q3 25 29 25h51q12 0 19.5 -8.5t5.5 -20.5l-54 -422q-11 -83 28 -137.5t112 -54.5q85 0 146 78t81 217q19 140 -11 256.5t-101 195t-177 121.5t-235 43q-99 0 -194.5 -25.5t-182.5 -79.5t-153.5 -131t-107.5 -187.5t-46 -241.5q-7 -171 51 -303.5t179.5 -209.5
t289.5 -77q98 0 192 23t146 57q23 16 37 -4l26 -33q16 -23 -4 -37q-69 -49 -182.5 -77.5t-229.5 -28.5q-195 0 -337.5 90t-212.5 250.5t-60 367.5q6 141 54 262.5t125.5 209t178 150.5t212.5 93.5t227 30.5zM954 387q17 46 29 148q10 83 10 145q-3 59 -43 97t-106 38
q-65 0 -115.5 -37.5t-73.5 -95.5q-15 -34 -30 -152q-14 -108 -9 -143q3 -60 46 -96.5t112 -36.5q66 0 113 37t67 96z" />
    <glyph glyph-name="A" unicode="A" horiz-adv-x="1243" 
d="M1047 0q-23 0 -29 23l-82 249q-4 9 -10 9h-611q-5 0 -10 -9l-80 -249q-6 -23 -28 -23h-99q-14 0 -20 9t-2 22l450 1380q6 23 29 23h131q23 0 29 -23l452 -1380q4 -13 -2 -22t-20 -9h-98zM350 412q-3 -13 8 -13h527q11 0 8 13l-266 837q-1 5 -4 7t-5.5 0t-3.5 -7z" />
    <glyph glyph-name="B" unicode="B" horiz-adv-x="1284" 
d="M915 748q-13 -6 0 -13q109 -46 165.5 -134t56.5 -212q0 -183 -118 -286t-310 -103h-490q-26 0 -26 27v1380q0 27 26 27h475q198 0 312 -98t114 -277q0 -225 -205 -311zM348 1307q-10 0 -10 -11v-487q0 -10 10 -10h346q129 0 206 67t77 181q0 119 -77 189.5t-206 70.5
h-346zM709 129q129 0 205.5 74t76.5 198q0 125 -79 200t-212 75h-352q-10 0 -10 -10v-527q0 -10 10 -10h361z" />
    <glyph glyph-name="C" unicode="C" horiz-adv-x="1243" 
d="M629 -18q-217 0 -349.5 125t-132.5 329v563q0 203 132.5 327t349.5 124t349 -121.5t132 -320.5q0 -20 -27 -23l-92 -6q-26 -3 -26 12v13q0 145 -92 232t-244 87q-151 0 -243.5 -87.5t-92.5 -231.5v-574q0 -144 92.5 -231.5t243.5 -87.5q152 0 244 87t92 232q0 26 26 23
l92 -4q27 0 27 -11v-10q0 -201 -132 -323.5t-349 -122.5z" />
    <glyph glyph-name="D" unicode="D" horiz-adv-x="1265" 
d="M219 0q-26 0 -26 27v1380q0 27 26 27h477q203 0 323 -106.5t120 -289.5v-643q0 -182 -120 -288.5t-323 -106.5h-477zM338 137q0 -10 10 -10h354q134 0 212.5 77.5t78.5 209.5v604q0 134 -78 211.5t-213 77.5h-354q-10 0 -10 -11v-1159z" />
    <glyph glyph-name="E" unicode="E" horiz-adv-x="1239" 
d="M1120 1333q0 -26 -26 -26h-746q-10 0 -10 -11v-501q0 -11 10 -11h520q27 0 27 -26v-74q0 -12 -7.5 -19.5t-19.5 -7.5h-520q-10 0 -10 -10v-510q0 -10 10 -10h746q26 0 26 -27v-73q0 -27 -26 -27h-875q-26 0 -26 27v1380q0 27 26 27h875q26 0 26 -27v-74z" />
    <glyph glyph-name="F" unicode="F" horiz-adv-x="1163" 
d="M1118 1333q0 -26 -26 -26h-744q-10 0 -10 -11v-501q0 -11 10 -11h518q27 0 27 -26v-74q0 -12 -7.5 -19.5t-19.5 -7.5h-518q-10 0 -10 -10v-620q0 -12 -7.5 -19.5t-19.5 -7.5h-92q-26 0 -26 27v1380q0 27 26 27h873q26 0 26 -27v-74z" />
    <glyph glyph-name="G" unicode="G" horiz-adv-x="1241" 
d="M629 -16q-216 0 -349 124.5t-133 325.5v565q0 203 132.5 327t349.5 124q215 0 347 -121.5t132 -312.5v-21q0 -26 -27 -26h-92q-26 0 -26 22v23q0 138 -91.5 223.5t-242.5 85.5t-243.5 -87.5t-92.5 -231.5v-574q0 -144 94.5 -231.5t247.5 -87.5q150 0 239 81.5t89 219.5
v184q0 10 -11 10h-293q-26 0 -26 27v74q0 26 26 26h422q27 0 27 -26v-258q0 -220 -129.5 -342.5t-349.5 -122.5z" />
    <glyph glyph-name="H" unicode="H" horiz-adv-x="1339" 
d="M1008 1407q0 27 26 27h92q12 0 19.5 -7.5t7.5 -19.5v-1380q0 -12 -7.5 -19.5t-19.5 -7.5h-92q-26 0 -26 27v620q0 10 -11 10h-649q-10 0 -10 -10v-620q0 -12 -7.5 -19.5t-19.5 -7.5h-92q-26 0 -26 27v1380q0 27 26 27h92q12 0 19.5 -7.5t7.5 -19.5v-612q0 -11 10 -11h649
q11 0 11 11v612z" />
    <glyph glyph-name="I" unicode="I" horiz-adv-x="530" 
d="M219 0q-26 0 -26 27v1380q0 27 26 27h92q12 0 19.5 -7.5t7.5 -19.5v-1380q0 -12 -7.5 -19.5t-19.5 -7.5h-92z" />
    <glyph glyph-name="J" unicode="J" horiz-adv-x="1187" 
d="M526 -16q-211 0 -339 117.5t-128 310.5v94q0 26 27 26h92q27 0 27 -26v-94q0 -135 88 -218t233 -83q146 0 235 83t89 218v995q0 12 7.5 19.5t19.5 7.5h92q26 0 26 -27v-995q0 -193 -129 -310.5t-340 -117.5z" />
    <glyph glyph-name="K" unicode="K" horiz-adv-x="1251" 
d="M219 0q-26 0 -26 27v1380q0 27 26 27h92q12 0 19.5 -7.5t7.5 -19.5v-684q0 -6 4 -8t8 4l643 700q12 15 33 15h102q17 0 21.5 -10.5t-6.5 -22.5l-494 -559q-5 -8 -2 -15l539 -794q9 -13 3.5 -23t-20.5 -10h-106q-20 0 -33 16l-481 707q-8 11 -14 2l-193 -203q-4 -8 -4 -14
v-481q0 -12 -7.5 -19.5t-19.5 -7.5h-92z" />
    <glyph glyph-name="L" unicode="L" horiz-adv-x="1163" 
d="M219 0q-26 0 -26 27v1380q0 27 26 27h92q12 0 19.5 -7.5t7.5 -19.5v-1270q0 -10 10 -10h715q12 0 19.5 -7.5t7.5 -19.5v-73q0 -12 -7.5 -19.5t-19.5 -7.5h-844z" />
    <glyph glyph-name="M" unicode="M" horiz-adv-x="1456" 
d="M219 0q-26 0 -26 27v1380q0 27 26 27h96q18 0 31 -19l375 -592q6 -12 12 0l377 592q13 19 31 19h96q12 0 19.5 -7.5t7.5 -19.5v-1380q0 -12 -7.5 -19.5t-19.5 -7.5h-92q-12 0 -19.5 7.5t-7.5 19.5v1130q0 5 -2 7t-5 0.5t-5 -5.5l-324 -512q-12 -18 -30 -18h-47
q-19 0 -31 18l-324 512q-2 4 -5 5.5t-5 -0.5t-2 -7v-1130q0 -12 -7.5 -19.5t-19.5 -7.5h-92z" />
    <glyph glyph-name="N" unicode="N" horiz-adv-x="1378" 
d="M219 0q-26 0 -26 27v1380q0 27 26 27h92q18 0 31 -19l688 -1114q2 -4 5 -5t5 1.5t2 7.5v1102q0 12 7.5 19.5t19.5 7.5h92q12 0 19.5 -7.5t7.5 -19.5v-1380q0 -12 -7.5 -19.5t-19.5 -7.5h-92q-19 0 -31 18l-690 1119q-2 4 -5 5t-5 -1.5t-2 -7.5l2 -1106q0 -27 -27 -27h-92
z" />
    <glyph glyph-name="O" unicode="O" horiz-adv-x="1273" 
d="M635 -16q-220 0 -354 130t-134 345v516q0 214 134 344.5t354 130.5q221 0 355 -130.5t134 -344.5v-516q0 -215 -134 -345t-355 -130zM635 109q155 0 249.5 94.5t94.5 249.5v524q0 155 -94.5 250.5t-249.5 95.5q-154 0 -248 -95.5t-94 -250.5v-524q0 -155 94 -249.5
t248 -94.5z" />
    <glyph glyph-name="P" unicode="P" horiz-adv-x="1212" 
d="M737 1436q180 0 290 -110.5t110 -291.5q0 -178 -111.5 -286.5t-294.5 -108.5h-397q-10 0 -10 -10v-602q0 -12 -7.5 -19.5t-19.5 -7.5h-92q-12 0 -19.5 7.5t-7.5 19.5v1382q0 12 7.5 19.5t19.5 7.5h532zM721 760q122 0 197 74.5t75 197.5q0 124 -75 200.5t-197 76.5h-387
q-10 0 -10 -11v-528q0 -10 10 -10h387z" />
    <glyph glyph-name="Q" unicode="Q" horiz-adv-x="1179" 
d="M590 1450q212 0 341.5 -128t129.5 -335v-549q0 -183 -105 -304t-282 -144q-10 -3 -10 -13v-186q0 -12 -7.5 -19.5t-19.5 -7.5h-92q-12 0 -19.5 7.5t-7.5 19.5v186q0 10 -10 13q-178 23 -283.5 144.5t-105.5 303.5v549q0 207 129.5 335t341.5 128zM915 440v553
q0 148 -89.5 239t-235.5 91t-236 -91t-90 -239v-553q0 -148 90 -238.5t236 -90.5t235.5 90.5t89.5 238.5z" />
    <glyph glyph-name="R" unicode="R" horiz-adv-x="1253" 
d="M1034 0q-23 0 -33 20l-299 631q-4 8 -12 8h-342q-10 0 -10 -10v-622q0 -12 -7.5 -19.5t-19.5 -7.5h-92q-26 0 -26 27v1382q0 27 26 27h524q177 0 285.5 -108.5t108.5 -285.5q0 -144 -77.5 -242.5t-209.5 -129.5q-10 -2 -6 -13l305 -626q6 -13 0 -22t-21 -9h-94zM348 1309
q-10 0 -10 -11v-512q0 -10 10 -10h379q119 0 192.5 73t73.5 191q0 120 -73.5 194.5t-192.5 74.5h-379z" />
    <glyph glyph-name="S" unicode="S" horiz-adv-x="1200" 
d="M610 -16q-226 0 -359.5 104.5t-133.5 278.5v57q0 27 26 27h88q12 0 19.5 -7.5t7.5 -19.5v-49q0 -117 98.5 -190.5t264.5 -73.5q157 0 239 66t82 177q0 54 -20 95.5t-70 80t-114.5 71t-172.5 77.5q-52 21 -80 32.5t-72.5 31t-68.5 33.5t-58 36t-52.5 41t-39.5 45.5t-32 54
t-18 62t-7 73.5q0 172 120 267.5t331 95.5q225 0 356 -106.5t131 -282.5v-39q0 -27 -26 -27h-91q-26 0 -26 27v31q0 120 -92.5 195t-259.5 75q-145 0 -222 -59.5t-77 -171.5q0 -38 8.5 -68.5t31.5 -57t46.5 -45.5t72.5 -42.5t89 -40t114 -45.5q61 -25 104.5 -44t93 -45.5
t83.5 -51t67 -56.5t52.5 -66.5t31.5 -77.5t12 -92q0 -170 -126 -273t-351 -103z" />
    <glyph glyph-name="T" unicode="T" horiz-adv-x="1165" 
d="M1051 1434q26 0 26 -27v-76q0 -26 -26 -26h-394q-10 0 -10 -11v-1267q0 -27 -26 -27h-93q-26 0 -26 27v1267q0 11 -10 11h-377q-27 0 -27 26v76q0 12 7.5 19.5t19.5 7.5h936z" />
    <glyph glyph-name="U" unicode="U" horiz-adv-x="1327" 
d="M664 -16q-219 0 -353.5 126t-134.5 332v965q0 12 7.5 19.5t19.5 7.5h92q12 0 19.5 -7.5t7.5 -19.5v-969q0 -146 94 -236.5t248 -90.5t248 90.5t94 236.5v969q0 27 26 27h92q12 0 19.5 -7.5t7.5 -19.5v-965q0 -207 -133.5 -332.5t-353.5 -125.5z" />
    <glyph glyph-name="V" unicode="V" horiz-adv-x="1206" 
d="M549 0q-23 0 -29 23l-444 1380q-4 13 2 22t20 9h99q22 0 28 -23l373 -1190q1 -5 3.5 -7t5 0t3.5 7l373 1190q6 23 29 23h96q14 0 20 -9t2 -22l-448 -1380q-6 -23 -29 -23h-104z" />
    <glyph glyph-name="W" unicode="W" horiz-adv-x="1785" 
d="M471 0q-23 0 -29 23l-389 1380q-3 14 3.5 22.5t19.5 8.5h100q23 0 29 -23l307 -1110q2 -6 6 -6t6 6l287 1110q7 23 31 23h98q23 0 29 -23l299 -1112q2 -6 6 -6t6 6l307 1112q6 23 29 23h94q13 0 19.5 -8.5t3.5 -22.5l-383 -1380q-6 -23 -29 -23h-98q-24 0 -31 23
l-295 1138q-1 6 -6 6t-6 -6l-291 -1138q-7 -23 -31 -23h-92z" />
    <glyph glyph-name="X" unicode="X" horiz-adv-x="1206" 
d="M104 0q-15 0 -20.5 10t2.5 23l426 678q3 6 0 12l-426 678q-8 13 -2.5 23t20.5 10h101q18 0 31 -19l362 -575q6 -12 12 0l361 575q13 19 30 19h101q15 0 19.5 -10t-3.5 -23l-424 -680q-3 -6 0 -12l424 -676q8 -13 2.5 -23t-20.5 -10h-99q-18 0 -30 18l-361 574
q-6 12 -12 0l-362 -574q-12 -18 -31 -18h-101z" />
    <glyph glyph-name="Y" unicode="Y" horiz-adv-x="1161" 
d="M535 2q-12 0 -19.5 7.5t-7.5 19.5v600q0 4 -4 12l-420 760q-8 13 -2.5 23t20.5 10h99q21 0 30 -19l342 -618q7 -10 13 0l344 618q10 19 31 19h98q15 0 20.5 -10t-2.5 -23l-420 -760q-4 -8 -4 -12v-600q0 -27 -26 -27h-92z" />
    <glyph glyph-name="Z" unicode="Z" horiz-adv-x="1124" 
d="M119 0q-12 0 -19.5 7.5t-7.5 19.5v88q0 15 10 32l746 1147q6 13 -6 13h-723q-27 0 -27 26v74q0 12 7.5 19.5t19.5 7.5h870q12 0 19.5 -7.5t7.5 -19.5v-88q0 -16 -10 -33l-744 -1147q-6 -12 6 -12h721q12 0 19.5 -7.5t7.5 -19.5v-73q0 -12 -7.5 -19.5t-19.5 -7.5h-870z
" />
    <glyph glyph-name="bracketleft" unicode="[" horiz-adv-x="778" 
d="M92 -248q-26 0 -26 27v1780q0 26 26 26h383q27 0 27 -26v-74q0 -12 -7.5 -19.5t-19.5 -7.5h-254q-10 0 -10 -10v-1559q0 -10 10 -10h256q27 0 27 -26v-74q0 -12 -7.5 -19.5t-19.5 -7.5h-385z" />
    <glyph glyph-name="backslash" unicode="\" horiz-adv-x="731" 
d="M662 31q4 -13 -2.5 -22t-20.5 -9h-90q-23 0 -29 23l-450 1380q-4 13 2 22t20 9h90q23 0 29 -23z" />
    <glyph glyph-name="bracketright" unicode="]" horiz-adv-x="778" 
d="M713 -221q0 -12 -7.5 -19.5t-19.5 -7.5h-385q-12 0 -19.5 7.5t-7.5 19.5v74q0 26 27 26h256q10 0 10 10v1559q0 10 -10 10h-254q-12 0 -19.5 7.5t-7.5 19.5v74q0 26 27 26h383q27 0 27 -26v-1780z" />
    <glyph glyph-name="asciicircum" unicode="^" horiz-adv-x="921" 
d="M113 629q-14 0 -19.5 8.5t-1.5 21.5l295 754q9 21 31 21h84q21 0 30 -21l297 -754q5 -13 -1 -21.5t-19 -8.5h-72q-21 0 -30 20l-240 623q-6 15 -12 0l-240 -623q-9 -20 -31 -20h-71z" />
    <glyph glyph-name="underscore" unicode="_" horiz-adv-x="991" 
d="M86 0q-12 0 -19.5 7.5t-7.5 19.5v63q0 12 7.5 19.5t19.5 7.5h819q12 0 19.5 -7.5t7.5 -19.5v-63q0 -12 -7.5 -19.5t-19.5 -7.5h-819z" />
    <glyph glyph-name="grave" unicode="`" horiz-adv-x="409" 
d="M332 1214q7 -14 1.5 -23t-20.5 -9h-71q-19 0 -31 18l-131 211q-8 13 -3.5 23t19.5 10h88q22 0 31 -19z" />
    <glyph glyph-name="a" unicode="a" horiz-adv-x="1046" 
d="M522 1053q184 0 285.5 -94t101.5 -250v-682q0 -27 -26 -27h-92q-12 0 -19.5 7.5t-7.5 19.5v73q0 6 -4 8t-8 -4q-114 -120 -320 -120q-68 0 -127 17t-107 51.5t-76 93.5t-28 137q0 154 111.5 242.5t310.5 88.5h238q10 0 10 11v75q0 105 -59 165.5t-181 60.5
q-95 0 -156 -37t-79 -103q-6 -23 -31 -20l-100 12q-13 2 -19.5 7.5t-5.5 15.5q20 113 126 182.5t263 69.5zM465 109q121 0 210 60.5t89 162.5v157q0 11 -10 11h-215q-136 0 -217.5 -55.5t-81.5 -153.5q0 -90 63 -136t162 -46z" />
    <glyph glyph-name="b" unicode="b" horiz-adv-x="1110" 
d="M961 772q24 -84 24 -254q0 -169 -29 -260q-38 -128 -134.5 -201t-239.5 -73q-168 0 -260 125q-4 4 -8.5 2.5t-4.5 -7.5v-77q0 -27 -26 -27h-93q-26 0 -26 27v1380q0 27 26 27h93q26 0 26 -27v-473q0 -6 4.5 -8t8.5 4q93 123 260 123q146 0 243.5 -75t135.5 -206zM803 270
q37 81 37 248q0 101 -11 157.5t-36 100.5q-27 68 -87 109t-141 41q-79 0 -134 -41.5t-81 -112.5q-37 -81 -37 -254q0 -176 35 -250q26 -72 81.5 -114.5t137.5 -42.5q86 0 148.5 42.5t87.5 116.5z" />
    <glyph glyph-name="c" unicode="c" horiz-adv-x="1064" 
d="M555 -16q-149 0 -253.5 76.5t-143.5 207.5q-27 94 -27 254q0 144 27 250q37 128 143.5 204.5t253.5 76.5q150 0 259.5 -76t141.5 -189q10 -33 13 -55q3 -27 -25 -31l-90 -10q-25 -3 -31 23q0 8 -4 24q-18 79 -90 133t-174 54t-170.5 -54.5t-89.5 -144.5q-19 -82 -19 -207
q0 -131 19 -209q21 -91 89.5 -145.5t170.5 -54.5q101 0 172.5 52t89.5 132q2 4 2 10l2 2q3 27 31 23l88 -15q28 -3 25 -30q-7 -28 -9 -35q-31 -119 -141 -192.5t-260 -73.5z" />
    <glyph glyph-name="d" unicode="d" horiz-adv-x="1110" 
d="M801 1407q0 27 26 27h93q26 0 26 -27v-1380q0 -27 -26 -27h-93q-26 0 -26 27v77q0 6 -4.5 7.5t-8.5 -2.5q-92 -125 -260 -125q-143 0 -239.5 73t-134.5 201q-29 91 -29 260q0 166 25 254q38 131 135 206t243 75q167 0 260 -123q4 -6 8.5 -4t4.5 8v473zM762 268
q35 74 35 250q0 173 -37 254q-26 71 -81 112.5t-134 41.5q-81 0 -141 -41t-87 -109q-25 -44 -36 -100.5t-11 -157.5q0 -167 37 -248q25 -74 87.5 -116.5t148.5 -42.5q82 0 137.5 42.5t81.5 114.5z" />
    <glyph glyph-name="e" unicode="e" horiz-adv-x="1093" 
d="M567 109q185 3 262 153q5 11 14.5 14.5t20.5 -2.5l60 -32q24 -14 12 -35q-49 -103 -148 -163t-233 -60q-144 0 -242.5 67.5t-140.5 188.5q-39 102 -39 282q0 163 19 238q34 134 139.5 213.5t255.5 79.5q177 0 278.5 -93t130.5 -260q13 -72 13 -204q0 -12 -7.5 -19.5
t-19.5 -7.5h-655q-11 0 -11 -10q0 -100 13 -150q22 -91 95 -145.5t183 -54.5zM547 926q-101 0 -167 -52.5t-87 -140.5q-14 -46 -17 -139q0 -10 11 -10h526q10 0 10 10q-3 89 -12 131q-22 92 -91.5 146.5t-172.5 54.5z" />
    <glyph glyph-name="f" unicode="f" horiz-adv-x="729" 
d="M573 1307q-113 0 -153.5 -50t-40.5 -172v-38q0 -11 10 -11h221q27 0 27 -26v-80q0 -12 -7.5 -19.5t-19.5 -7.5h-221q-10 0 -10 -10v-866q0 -12 -7.5 -19.5t-19.5 -7.5h-90q-26 0 -26 27v866q0 10 -11 10h-129q-26 0 -26 27v80q0 26 26 26h129q11 0 11 11v47q0 95 15 157
t52.5 104t99.5 60.5t158 18.5h53q12 0 19.5 -7.5t7.5 -19.5v-74q0 -26 -27 -26h-41z" />
    <glyph glyph-name="g" unicode="g" horiz-adv-x="1095" 
d="M803 1010q0 26 26 26h93q26 0 26 -26v-975q0 -126 -41.5 -216.5t-118.5 -141t-176.5 -70.5t-224.5 -13q-27 3 -27 29l5 82q0 28 26 25q217 -9 314.5 64t97.5 245v72q0 6 -3.5 8t-8.5 -4q-92 -121 -267 -121q-132 0 -235 71.5t-139 202.5q-25 87 -25 250q0 180 27 262
q36 123 132.5 198t231.5 75q179 0 275 -117q5 -6 8.5 -4t3.5 8v70zM793 313q10 49 10 207t-12 207q-16 87 -81 143t-163 56q-97 0 -163.5 -55.5t-92.5 -143.5q-21 -68 -21 -205q0 -146 21 -207q21 -87 89.5 -142.5t166.5 -55.5q101 0 165.5 56t80.5 140z" />
    <glyph glyph-name="h" unicode="h" horiz-adv-x="1103" 
d="M594 1051q161 0 258.5 -97t97.5 -258v-669q0 -27 -26 -27h-93q-26 0 -26 27v641q0 114 -67.5 185t-176.5 71q-104 0 -172.5 -59t-79.5 -156v-682q0 -27 -26 -27h-93q-26 0 -26 27v1380q0 27 26 27h93q26 0 26 -27v-473q0 -8 5 -10q3 -1 5 4q88 123 275 123z" />
    <glyph glyph-name="i" unicode="i" horiz-adv-x="501" 
d="M252 1223q-49 0 -80 29.5t-31 76.5q0 46 31 75.5t80 29.5t79.5 -29.5t30.5 -75.5q0 -47 -30.5 -76.5t-79.5 -29.5zM207 0q-12 0 -19.5 7.5t-7.5 19.5v983q0 26 27 26h92q27 0 27 -26v-983q0 -12 -7.5 -19.5t-19.5 -7.5h-92z" />
    <glyph glyph-name="j" unicode="j" horiz-adv-x="477" 
d="M242 1219q-49 0 -80 30t-31 76t33 76.5t78 30.5q48 0 80 -30t32 -77q0 -46 -31 -76t-81 -30zM-45 -426q-12 0 -19.5 7.5t-7.5 19.5v71q0 12 7.5 19.5t19.5 7.5q213 6 213 211v1100q0 26 27 26h92q26 0 26 -26v-1100q0 -173 -84.5 -254t-273.5 -82z" />
    <glyph glyph-name="k" unicode="k" horiz-adv-x="1026" 
d="M190 0q-26 0 -26 27v1380q0 27 26 27h93q26 0 26 -27v-827q0 -7 4.5 -9.5t8.5 2.5l428 449q11 14 32 14h109q17 0 22 -10t-6 -22l-254 -281q-6 -6 -2 -14l307 -678q6 -13 0.5 -22t-20.5 -9h-96q-21 0 -31 20l-260 592q-1 4 -6 4.5t-8 -2.5l-224 -233q-4 -8 -4 -14v-340
q0 -27 -26 -27h-93z" />
    <glyph glyph-name="l" unicode="l" horiz-adv-x="475" 
d="M190 0q-26 0 -26 27v1380q0 27 26 27h93q26 0 26 -27v-1380q0 -27 -26 -27h-93z" />
    <glyph glyph-name="m" unicode="m" horiz-adv-x="1693" 
d="M1212 1051q153 0 242.5 -92t89.5 -252v-680q0 -27 -26 -27h-91q-26 0 -26 27v651q0 113 -64.5 179.5t-169.5 66.5q-108 0 -174.5 -65.5t-66.5 -176.5v-655q0 -12 -7.5 -19.5t-19.5 -7.5h-92q-12 0 -19.5 7.5t-7.5 19.5v651q0 113 -63.5 179.5t-169.5 66.5
q-108 0 -173 -65t-65 -177v-655q0 -27 -26 -27h-93q-26 0 -26 27v983q0 26 26 26h93q26 0 26 -26v-72q0 -6 4.5 -8t8.5 4q89 117 270 117q104 0 180.5 -43t114.5 -121q6 -11 12 -2q44 83 126.5 124.5t186.5 41.5z" />
    <glyph glyph-name="n" unicode="n" horiz-adv-x="1103" 
d="M594 1051q161 0 258.5 -97t97.5 -258v-669q0 -27 -26 -27h-93q-26 0 -26 27v641q0 114 -67.5 185t-176.5 71q-104 0 -172.5 -59t-79.5 -156v-682q0 -27 -26 -27h-93q-26 0 -26 27v983q0 26 26 26h93q26 0 26 -26v-76q0 -8 5 -10q3 -1 5 4q88 123 275 123z" />
    <glyph glyph-name="o" unicode="o" horiz-adv-x="1118" 
d="M561 -16q-150 0 -255.5 75.5t-145.5 208.5q-29 99 -29 252q0 151 27 250q40 132 146 207.5t257 75.5q147 0 253 -75.5t144 -205.5q29 -102 29 -252q0 -153 -29 -252q-40 -132 -145.5 -208t-251.5 -76zM561 111q98 0 167.5 53.5t94.5 146.5q17 69 17 207q0 143 -17 207
q-24 92 -94.5 146.5t-171.5 54.5q-98 0 -167.5 -54.5t-94.5 -146.5q-16 -60 -16 -207t16 -207q23 -93 93.5 -146.5t172.5 -53.5z" />
    <glyph glyph-name="p" unicode="p" horiz-adv-x="1122" 
d="M969 778q28 -88 28 -260q0 -170 -24 -254q-38 -131 -135.5 -205.5t-243.5 -74.5q-168 0 -260 122q-4 6 -8 4t-4 -8v-473q0 -26 -27 -26h-92q-27 0 -27 26v1381q0 26 27 26h92q27 0 27 -26v-78q0 -4 1.5 -6t4.5 -1.5t6 3.5q92 125 260 125q143 0 240 -73.5t135 -201.5z
M805 260q25 44 36 100.5t11 157.5q0 167 -37 248q-25 74 -87 117t-148 43q-82 0 -138 -43t-82 -115q-34 -72 -34 -250q0 -175 36 -254q26 -70 81.5 -111.5t134.5 -41.5q81 0 140.5 40.5t86.5 108.5z" />
    <glyph glyph-name="q" unicode="q" horiz-adv-x="1122" 
d="M801 1010q0 26 26 26h93q26 0 26 -26v-1381q0 -26 -26 -26h-93q-26 0 -26 26v473q0 6 -4.5 8t-8.5 -4q-92 -122 -260 -122q-146 0 -243 74.5t-135 205.5q-25 88 -25 254q0 169 29 260q38 128 134.5 201.5t239.5 73.5q168 0 260 -125q4 -5 8.5 -3.5t4.5 7.5v78zM760 264
q37 81 37 254q0 176 -35 250q-26 72 -82 115t-137 43q-86 0 -148.5 -43t-87.5 -117q-37 -81 -37 -248q0 -101 11 -157.5t36 -100.5q27 -68 87 -108.5t141 -40.5q79 0 134 41.5t81 111.5z" />
    <glyph glyph-name="r" unicode="r" horiz-adv-x="745" 
d="M582 1047q64 0 112 -25q22 -9 15 -33l-21 -90q-6 -25 -33 -16q-40 13 -100 10q-106 -3 -176 -78t-70 -190v-598q0 -27 -26 -27h-93q-26 0 -26 27v983q0 26 26 26h93q26 0 26 -26v-115q0 -7 3.5 -8.5t6.5 4.5q43 73 110 114.5t153 41.5z" />
    <glyph glyph-name="s" unicode="s" horiz-adv-x="987" 
d="M504 -10q-173 0 -281 78.5t-108 193.5v19q0 26 26 26h88q27 0 27 -18v-19q0 -67 69.5 -117.5t176.5 -50.5q106 0 171.5 48.5t65.5 121.5q0 81 -94 127q-39 19 -160 56q-47 14 -76 23t-72 25.5t-70 31.5t-57.5 39t-48 49.5t-29 60.5t-11.5 76q0 131 104 209t271 78
q170 0 275.5 -80t105.5 -203q0 -12 -7.5 -19.5t-19.5 -7.5h-84q-27 0 -27 15v12q0 70 -66.5 117t-178.5 47q-104 0 -168 -42.5t-64 -115.5q0 -30 13.5 -54.5t33 -41t56.5 -33t66.5 -26.5t80.5 -25q40 -11 59.5 -17t57.5 -18t58 -21t51.5 -25t49 -30.5t39 -36t32.5 -44.5
t18.5 -52.5t7.5 -62.5q0 -132 -104 -212.5t-277 -80.5z" />
    <glyph glyph-name="t" unicode="t" horiz-adv-x="745" 
d="M629 942q0 -12 -7.5 -19.5t-19.5 -7.5h-223q-10 0 -10 -10v-598q0 -97 43.5 -137.5t138.5 -40.5h45q12 0 19.5 -7.5t7.5 -19.5v-71q0 -26 -27 -29h-70q-72 0 -123 11t-92.5 38.5t-62.5 80t-21 130.5v643q0 10 -10 10h-117q-26 0 -26 27v68q0 26 26 26h117q10 0 10 11v229
q0 12 7.5 19.5t19.5 7.5h88q12 0 19.5 -7.5t7.5 -19.5v-229q0 -11 10 -11h223q27 0 27 -26v-68z" />
    <glyph glyph-name="u" unicode="u" horiz-adv-x="1097" 
d="M791 1010q0 26 26 26h92q27 0 27 -26v-983q0 -12 -7.5 -19.5t-19.5 -7.5h-92q-26 0 -26 27v77q0 6 -4.5 8.5t-8.5 -3.5q-87 -123 -270 -123q-153 0 -257 90t-104 248v686q0 26 27 26h92q27 0 27 -26v-643q0 -116 65.5 -185t178.5 -69q116 0 185 69.5t69 184.5v643z" />
    <glyph glyph-name="v" unicode="v" horiz-adv-x="972" 
d="M432 0q-24 0 -31 23l-331 983q-4 13 2 21.5t20 8.5h105q23 0 28 -22l256 -797q1 -5 3.5 -7t5.5 0t4 7l256 797q6 22 28 22l105 -2q13 0 19 -8.5t1 -21.5l-330 -981q-7 -23 -30 -23h-111z" />
    <glyph glyph-name="w" unicode="w" horiz-adv-x="1476" 
d="M383 0q-23 0 -29 23l-286 983q-4 13 2 21.5t20 8.5h96q24 0 29 -22l213 -799q2 -6 6 -6t6 6l219 799q5 22 29 22h90q24 0 29 -22l223 -799q2 -6 6 -6t6 6l220 799q6 22 30 22l94 -2q14 0 20.5 -8.5t2.5 -21.5l-291 -981q-6 -23 -28 -23h-101q-22 0 -28 23l-222 755
q-1 6 -6 6t-6 -6l-213 -755q-6 -23 -29 -23h-102z" />
    <glyph glyph-name="x" unicode="x" horiz-adv-x="976" 
d="M84 0q-15 0 -20 10.5t4 22.5l335 479q3 6 0 12l-335 480q-9 12 -4 22t20 10h98q20 0 33 -16l262 -381q7 -11 15 0l262 381q13 16 32 16h109q15 0 20 -10t-4 -22l-338 -480q-3 -6 0 -12l338 -479q9 -12 4 -22.5t-20 -10.5h-100q-20 0 -33 16l-262 381q-8 11 -15 0
l-264 -381q-13 -16 -33 -16h-104z" />
    <glyph glyph-name="y" unicode="y" horiz-adv-x="944" 
d="M117 -410q-15 0 -15 27v72q0 26 15 26h14q115 0 165 53t103 226q2 5 0 12l-344 1000q-4 13 2.5 21.5t20.5 8.5h96q25 0 31 -22l264 -803q1 -5 3.5 -7t5 0t3.5 7l258 803q5 22 29 22h98q14 0 20.5 -8.5t2.5 -21.5l-377 -1096q-29 -83 -53.5 -134.5t-54 -90.5t-68.5 -58.5
t-86.5 -28t-118.5 -8.5h-14z" />
    <glyph glyph-name="z" unicode="z" horiz-adv-x="911" 
d="M96 0q-26 0 -26 27v88q0 17 12 32l575 744q3 5 1.5 8.5t-7.5 3.5h-547q-26 0 -26 27v80q0 26 26 26h707q27 0 27 -26v-88q0 -17 -13 -33l-581 -744q-3 -5 -1.5 -8.5t7.5 -3.5h561q12 0 19.5 -7.5t7.5 -19.5v-79q0 -12 -7.5 -19.5t-19.5 -7.5h-715z" />
    <glyph glyph-name="braceleft" unicode="{" horiz-adv-x="618" 
d="M403 -248q-109 0 -159.5 56.5t-50.5 177.5v444q0 86 -24.5 128.5t-78.5 53.5q-24 6 -24 29v70q0 22 24 28q54 9 78.5 52.5t24.5 128.5v434q0 120 50.5 175.5t159.5 55.5h123q27 0 27 -26v-74q0 -12 -7.5 -19.5t-19.5 -7.5h-71q-117 0 -117 -151v-398q0 -93 -23.5 -147
t-74.5 -80q-9 -6 0 -12q51 -28 74.5 -83t23.5 -147v-407q0 -154 117 -154h71q27 0 27 -26v-74q0 -12 -7.5 -19.5t-19.5 -7.5h-123z" />
    <glyph glyph-name="bar" unicode="|" horiz-adv-x="339" 
d="M123 -164q-12 0 -19.5 7.5t-7.5 19.5v1667q0 26 27 26h92q27 0 27 -26v-1667q0 -12 -7.5 -19.5t-19.5 -7.5h-92z" />
    <glyph glyph-name="braceright" unicode="}" horiz-adv-x="618" 
d="M215 -248h-123q-26 0 -26 27v74q0 26 26 26h72q117 0 117 154v407q0 92 23.5 147t74.5 83q9 6 0 12q-51 26 -74.5 80t-23.5 147v398q0 151 -117 151h-72q-26 0 -26 27v74q0 26 26 26h123q109 0 160 -55.5t51 -175.5v-434q0 -85 24 -128.5t78 -52.5q25 -6 25 -28v-70
q0 -23 -25 -29q-54 -11 -78 -53.5t-24 -128.5v-444q0 -121 -51 -177.5t-160 -56.5z" />
    <glyph glyph-name="asciitilde" unicode="~" horiz-adv-x="1026" 
d="M707 473q-43 0 -85 12.5t-62 23t-62 34.5q-95 53 -162 53q-100 0 -152 -80q-15 -21 -37 -6l-47 31q-22 16 -10 37q33 67 97.5 107t144.5 40t176 -53q4 -2 23.5 -14t25.5 -15t23.5 -12t28 -12t27 -8.5t32 -7t32.5 -1.5q42 0 71 19.5t60 58.5q15 21 37 6l56 -35
q22 -16 10 -37q-37 -65 -95 -103t-132 -38z" />
    <glyph glyph-name="uni00A0" unicode="&#xa0;" horiz-adv-x="409" 
 />
    <glyph glyph-name="exclamdown" unicode="&#xa1;" horiz-adv-x="661" 
d="M326 1450q53 0 90 -35t37 -86q0 -50 -38.5 -85.5t-88.5 -35.5t-88.5 35.5t-38.5 85.5q0 51 36 86t91 35zM268 965q0 26 27 26h70q26 0 26 -26l12 -914q0 -26 -26 -26h-92q-27 0 -27 26z" />
    <glyph glyph-name="cent" unicode="&#xa2;" horiz-adv-x="1064" 
d="M817 479q2 4 2 10l2 3q3 26 31 22l88 -14q28 -4 25 -31q-7 -28 -9 -35q-29 -109 -124.5 -180.5t-229.5 -83.5q-10 0 -10 -10l4 -131q0 -12 -7.5 -19.5t-19.5 -7.5h-73q-12 0 -19.5 7.5t-7.5 19.5l4 135q0 9 -10 12q-113 22 -193 94.5t-112 182.5q-27 95 -27 254
q0 143 27 249q33 107 112.5 179t192.5 94q10 3 10 12l-4 135q0 12 7.5 19.5t19.5 7.5h73q12 0 19.5 -7.5t7.5 -19.5l-4 -131q0 -10 10 -10q133 -12 228.5 -85t125.5 -177q10 -33 13 -55q3 -27 -25 -31l-90 -10q-25 -3 -31 22q0 9 -4 25q-18 78 -90 132t-174 54t-170.5 -54.5
t-89.5 -144.5q-19 -82 -19 -206q0 -131 19 -209q21 -91 89.5 -146t170.5 -55q101 0 172.5 52t89.5 132z" />
    <glyph glyph-name="sterling" unicode="&#xa3;" horiz-adv-x="1241" 
d="M432 139q-4 -5 -2 -8.5t8 -3.5h707q26 0 26 -27v-73q0 -27 -26 -27h-864q-12 0 -19.5 7.5t-7.5 19.5v79q0 19 18 31q50 32 77.5 96.5t27.5 149.5v238q0 10 -10 10h-148q-26 0 -26 26v68q0 27 26 27h148q10 0 10 10v287q0 184 104.5 289.5t288.5 111.5q143 6 240.5 -63
t142.5 -203q4 -12 -2 -21t-18 -12l-86 -16q-23 -6 -33 20q-61 174 -238 168q-122 -3 -188 -72.5t-66 -199.5v-289q0 -10 10 -10h386q26 0 26 -27v-68q0 -26 -26 -26h-386q-10 0 -10 -10v-234q0 -161 -90 -248z" />
    <glyph glyph-name="currency" unicode="&#xa4;" horiz-adv-x="1067" 
d="M934 616q0 -126 -72 -227q-6 -8 0 -14l127 -127q9 -9 9 -20.5t-9 -18.5l-57 -49q-19 -16 -37 2l-123 123q-6 6 -14 0q-106 -72 -232 -72q-122 0 -223 66q-8 6 -14 0l-117 -117q-18 -18 -37 -2l-57 49q-9 7 -9 18.5t9 20.5l119 117q6 6 0 14q-78 105 -78 237q0 133 71 232
q6 8 0 14l-127 127q-17 17 3 37l55 49q19 16 37 -2l121 -121q6 -6 14 0q106 72 233 72q132 0 240 -80q8 -6 14 0l129 129q18 18 37 2l58 -49q9 -8 9 -19t-9 -20l-136 -133q-5 -5 -2 -14q68 -100 68 -224zM246 616q0 -114 82 -195t198 -81t198 80.5t83 195.5q-1 117 -84 199
t-197 82q-116 0 -198 -82t-82 -199z" />
    <glyph glyph-name="yen" unicode="&#xa5;" horiz-adv-x="1409" 
d="M1186 1434q15 0 20.5 -10t-2.5 -23l-385 -694q-7 -13 8 -13h230q26 0 26 -26v-35q0 -27 -26 -27h-266q-11 0 -11 -10v-164q0 -10 11 -10h266q26 0 26 -27v-37q0 -26 -26 -26h-266q-11 0 -11 -10v-293q0 -27 -26 -27h-92q-12 0 -19.5 7.5t-7.5 19.5v293q0 10 -10 10h-277
q-26 0 -26 26v37q0 27 26 27h277q10 0 10 10v164q0 10 -10 10h-277q-26 0 -26 27v35q0 26 26 26h240q14 0 8 13l-385 694q-8 13 -2.5 23t20.5 10h99q20 0 30 -19l342 -618q6 -10 13 0l344 618q9 19 30 19h99z" />
    <glyph glyph-name="brokenbar" unicode="&#xa6;" horiz-adv-x="339" 
d="M123 815q-12 0 -19.5 7.5t-7.5 19.5v688q0 26 27 26h92q27 0 27 -26v-688q0 -12 -7.5 -19.5t-19.5 -7.5h-92zM123 -164q-12 0 -19.5 7.5t-7.5 19.5v688q0 12 7.5 19.5t19.5 7.5h92q12 0 19.5 -7.5t7.5 -19.5v-688q0 -12 -7.5 -19.5t-19.5 -7.5h-92z" />
    <glyph glyph-name="section" unicode="&#xa7;" horiz-adv-x="935" 
d="M469 -424q-152 0 -240 90t-90 244l-2 41q0 26 27 26h92q12 0 19.5 -6.5t7.5 -17.5v-23q0 -105 52.5 -167t139.5 -62q85 0 140 61t55 150q0 33 -9 61.5t-20.5 48.5t-36 39t-40.5 30t-51 25t-50.5 19.5t-54.5 18.5q-93 32 -151.5 67t-94.5 96q-45 78 -45 181q0 118 55 198
q60 93 160 119q13 3 0 10q-87 37 -144 117t-57 182q0 133 96.5 228.5t247.5 95.5q146 0 239 -91.5t95 -234.5v-28q0 -12 -7.5 -19.5t-19.5 -7.5h-92q-12 0 -19 7t-7 16v20q0 94 -54 153.5t-137 59.5q-87 0 -142 -63t-55 -152q0 -90 65.5 -145t186.5 -95q158 -48 228 -131
q69 -82 69 -215q0 -117 -53 -200q-58 -100 -151 -121q-13 -3 -3 -8q93 -41 145 -115t52 -178q0 -141 -97.5 -232.5t-248.5 -91.5zM469 283q123 0 178 90q33 53 33 135q0 94 -43 149q-65 78 -164 78q-57 0 -104 -29t-74 -77q-33 -53 -33 -127q0 -81 33 -127q61 -92 174 -92z
" />
    <glyph glyph-name="dieresis" unicode="&#xa8;" horiz-adv-x="657" 
d="M158 1229q-43 0 -71 26.5t-28 67.5t28 68.5t71 27.5q41 0 67.5 -27.5t26.5 -68.5t-26.5 -67.5t-67.5 -26.5zM502 1229q-43 0 -69.5 26.5t-26.5 67.5q0 42 27 69t69 27t69 -27t27 -69q0 -41 -26.5 -67.5t-69.5 -26.5z" />
    <glyph glyph-name="copyright" unicode="&#xa9;" horiz-adv-x="1779" 
d="M889 -16q-158 0 -296 56t-236 153t-154 233t-56 291t56 291t154 233t236 153t296 56q159 0 297 -56t235.5 -153t153 -233t55.5 -291t-55.5 -291t-153 -233t-235.5 -153t-297 -56zM889 74q185 0 333.5 84t231 230.5t82.5 328.5t-82.5 329t-230.5 230.5t-334 83.5
t-334 -83.5t-230.5 -230.5t-82.5 -329t82.5 -328.5t231 -230.5t333.5 -84zM891 350q-102 0 -163.5 57.5t-61.5 153.5v313q0 95 61 152t164 57q102 0 163.5 -55t61.5 -147q0 -23 -26 -23l-37 2q-27 0 -27 12v11q0 55 -37.5 89t-97.5 34q-61 0 -98 -33.5t-37 -89.5v-332
q0 -56 37 -89.5t98 -33.5q60 0 97.5 34t37.5 89q0 22 27 22l37 2q26 0 26 -10v-10q0 -93 -62 -149t-163 -56z" />
    <glyph glyph-name="ordfeminine" unicode="&#xaa;" horiz-adv-x="663" 
d="M328 1155h149q10 0 10 10v47q0 71 -42 114.5t-123 43.5q-58 0 -100 -24t-56 -64q-6 -25 -29 -22l-39 4q-12 2 -18.5 10t-3.5 20q15 70 83 113t165 43q119 0 187.5 -62.5t68.5 -164.5v-441q0 -26 -27 -26h-39q-27 0 -27 26v33q0 6 -3.5 8t-8.5 -4q-67 -76 -201 -76
q-100 0 -163.5 48.5t-63.5 142.5q0 102 76 161.5t205 59.5zM289 819q82 0 140 41.5t58 112.5v96q0 10 -10 10h-141q-90 0 -143.5 -35t-53.5 -102q0 -62 41 -92.5t109 -30.5zM47 590q0 26 27 26h495q27 0 27 -26v-55q0 -12 -7.5 -19.5t-19.5 -7.5h-495q-12 0 -19.5 7.5
t-7.5 19.5v55z" />
    <glyph glyph-name="guillemotleft" unicode="&#xab;" horiz-adv-x="1105" 
d="M571 252q11 -12 6 -22.5t-22 -10.5h-86q-22 0 -33 17l-252 321q-15 19 0 37l252 321q11 17 33 17h86q17 0 22 -10.5t-6 -22.5l-247 -315q-6 -8 0 -17zM895 252q11 -12 6 -22.5t-22 -10.5h-86q-22 0 -33 17l-252 321q-15 19 0 37l252 321q11 17 33 17h86q17 0 22 -10.5
t-6 -22.5l-248 -315q-6 -8 0 -17z" />
    <glyph glyph-name="logicalnot" unicode="&#xac;" horiz-adv-x="1024" 
d="M80 678q0 27 26 27h812q26 0 26 -27v-320q0 -26 -26 -26h-76q-27 0 -27 26v209q0 11 -10 11h-699q-26 0 -26 26v74z" />
    <glyph glyph-name="uni00AD" unicode="&#xad;" horiz-adv-x="806" 
d="M106 573q-26 0 -26 27v74q0 26 26 26h594q27 0 27 -26v-74q0 -12 -7.5 -19.5t-19.5 -7.5h-594z" />
    <glyph glyph-name="registered" unicode="&#xae;" horiz-adv-x="923" 
d="M463 1462q168 0 284.5 -115.5t116.5 -281.5q0 -169 -116 -285t-285 -116t-286.5 116.5t-117.5 284.5q0 166 117.5 281.5t286.5 115.5zM463 735q138 0 233 96t95 234q0 135 -95.5 230.5t-232.5 95.5q-138 0 -234 -95.5t-96 -230.5q0 -138 96 -234t234 -96zM592 1137
q0 -67 -53 -93q-7 -4 -4 -14l49 -121q6 -13 -0.5 -21.5t-20.5 -8.5h-14q-22 0 -31 20l-47 125q-4 8 -12 8h-29q-10 0 -10 -10v-117q0 -26 -27 -26h-10q-27 0 -27 26v314q0 26 27 26h102q47 0 77 -31t30 -77zM430 1190q-10 0 -10 -10v-88q0 -11 10 -11h45q24 0 38.5 15
t14.5 39q0 26 -14 40.5t-39 14.5h-45z" />
    <glyph glyph-name="macron" unicode="&#xaf;" horiz-adv-x="550" 
d="M27 1217q-27 0 -27 26v51q0 12 7.5 19.5t19.5 7.5h497q12 0 19.5 -7.5t7.5 -19.5v-51q0 -26 -27 -26h-497z" />
    <glyph glyph-name="degree" unicode="&#xb0;" horiz-adv-x="780" 
d="M389 997q-138 0 -234 95.5t-96 234.5q0 138 96 233t234 95q140 0 236 -95t96 -233q0 -139 -96 -234.5t-236 -95.5zM389 1100q95 0 161 66t66 161t-66 160t-161 65q-94 0 -159.5 -65t-65.5 -160t65.5 -161t159.5 -66z" />
    <glyph glyph-name="plusminus" unicode="&#xb1;" horiz-adv-x="1024" 
d="M575 795q0 -11 11 -11h332q26 0 26 -26v-74q0 -27 -26 -27h-332q-11 0 -11 -10v-323q0 -27 -26 -27h-74q-26 0 -26 27v323q0 10 -11 10h-332q-26 0 -26 27v74q0 26 26 26h332q11 0 11 11v340q0 26 26 26h74q26 0 26 -26v-340zM106 0q-26 0 -26 27v73q0 27 26 27h812
q26 0 26 -27v-73q0 -27 -26 -27h-812z" />
    <glyph glyph-name="uni00B2" unicode="&#xb2;" horiz-adv-x="667" 
d="M100 905q-26 0 -26 27v45q0 18 12 33q162 188 270 321q117 139 117 219q0 60 -41.5 96.5t-109.5 36.5q-66 0 -106.5 -37t-39.5 -98v-22q0 -27 -26 -27h-52q-26 0 -26 27v37q1 95 72 154t178 59q115 0 184 -63.5t69 -160.5q0 -103 -110 -247q-86 -111 -246 -297
q-4 -4 -2 -8.5t8 -4.5h350q27 0 27 -26v-37q0 -12 -7.5 -19.5t-19.5 -7.5h-475z" />
    <glyph glyph-name="uni00B3" unicode="&#xb3;" horiz-adv-x="659" 
d="M551 1323q31 -64 31 -156q0 -82 -29 -145t-87.5 -97t-137.5 -34q-87 0 -149 45.5t-89 122.5q-10 35 -14 80q0 26 26 26h52q26 0 26 -26q5 -37 8 -49q11 -48 49 -77.5t91 -29.5q87 0 125 72q24 47 24 114q0 79 -26 127q-38 72 -123 72q-18 0 -33 -6q-23 -9 -37 8l-22 29
q-14 20 0 37l198 223q9 12 -4 12h-319q-12 0 -19.5 7.5t-7.5 19.5v37q0 26 27 26h438q26 0 26 -26v-45q0 -18 -12 -33l-180 -207q-7 -11 6 -14q114 -15 162 -113z" />
    <glyph glyph-name="acute" unicode="&#xb4;" horiz-adv-x="409" 
d="M96 1182q-15 0 -20 9t2 23l117 211q9 19 30 19h88q15 0 20 -10t-3 -23l-131 -211q-12 -18 -31 -18h-72z" />
    <glyph glyph-name="uni00B5" unicode="&#xb5;" horiz-adv-x="1118" 
d="M805 1010q0 26 26 26h93q26 0 26 -26v-983q0 -27 -26 -27h-93q-26 0 -26 27v77q0 6 -3.5 8.5t-8.5 -3.5q-87 -123 -271 -123q-115 0 -200 49q-4 3 -8.5 1.5t-4.5 -7.5v-412q0 -27 -26 -27h-93q-26 0 -26 27v659v13q-2 10 -2 35v686q0 26 26 26h95q26 0 26 -26v-682
q11 -99 75 -157t167 -58q116 0 185 69.5t69 184.5v643z" />
    <glyph glyph-name="paragraph" unicode="&#xb6;" horiz-adv-x="1181" 
d="M520 1434h447q26 0 26 -27v-1790q0 -27 -26 -27h-58q-26 0 -26 27v1698q0 10 -11 10h-258q-10 0 -10 -10v-1698q0 -27 -26 -27h-60q-26 0 -26 27v885q0 10 -11 10q-175 12 -291 142.5t-116 318.5q0 129 56.5 234t159 166t230.5 61z" />
    <glyph glyph-name="periodcentered" unicode="&#xb7;" horiz-adv-x="253" 
d="M92 6q-55 0 -91 35t-36 86q0 50 37.5 85.5t89.5 35.5q50 0 88.5 -35.5t38.5 -85.5q0 -51 -37 -86t-90 -35z" />
    <glyph glyph-name="cedilla" unicode="&#xb8;" horiz-adv-x="286" 
d="M25 -371q-24 6 -21 31l6 33q3 27 31 20q33 -5 61 -2t49 21.5t27 50.5q19 85 -94 184q-14 13 -10.5 23t22.5 10h39q21 0 33 -12q146 -117 113 -246q-11 -46 -40 -75t-66.5 -38.5t-75 -9t-74.5 9.5z" />
    <glyph glyph-name="uni00B9" unicode="&#xb9;" horiz-adv-x="376" 
d="M164 1759q12 6 33 6h61q27 0 27 -26v-807q0 -12 -7.5 -19.5t-19.5 -7.5h-51q-12 0 -19.5 7.5t-7.5 19.5v723q0 5 -4 8t-8 2l-62 -16q-28 -6 -28 24v25q0 21 20 31z" />
    <glyph glyph-name="ordmasculine" unicode="&#xba;" horiz-adv-x="714" 
d="M358 752q-94 0 -160 49t-96 137q-20 64 -20 164t18 164q26 87 94 135.5t164 48.5q92 0 159 -49t93 -135q19 -61 19 -162q0 -105 -19 -166q-26 -87 -93 -136.5t-159 -49.5zM358 840q59 0 102 34.5t56 92.5q12 40 12 135q0 94 -10 133q-18 60 -59.5 93.5t-102.5 33.5
t-102.5 -34t-56.5 -93q-13 -50 -13 -133q0 -85 13 -135q14 -59 56.5 -93t104.5 -34zM92 508q-26 0 -26 27v57q0 26 26 26h531q26 0 26 -26v-57q0 -27 -26 -27h-531z" />
    <glyph glyph-name="guillemotright" unicode="&#xbb;" horiz-adv-x="1105" 
d="M233 219q-17 0 -22 10.5t6 22.5l248 315q6 9 0 17l-248 315q-11 12 -6 22.5t22 10.5h86q22 0 33 -17l252 -321q15 -18 0 -37l-252 -321q-11 -17 -33 -17h-86zM557 219q-17 0 -22 10.5t6 22.5l247 315q6 9 0 17l-247 315q-11 12 -6 22.5t22 10.5h86q22 0 33 -17l252 -321
q15 -18 0 -37l-252 -321q-11 -17 -33 -17h-86z" />
    <glyph glyph-name="onequarter" unicode="&#xbc;" horiz-adv-x="1626" 
d="M285 600q0 -12 -7.5 -19.5t-19.5 -7.5h-51q-12 0 -19.5 7.5t-7.5 19.5v723q0 5 -4 8t-8 2l-62 -16q-28 -6 -28 24v25q0 21 20 31l66 30q17 7 33 7h61q12 0 19.5 -7.5t7.5 -19.5v-807zM1087 1415q13 19 31 19h56q15 0 19.5 -10t-3.5 -23l-864 -1383q-12 -18 -31 -18h-57
q-15 0 -20 10t3 23zM1528 326q26 0 26 -27v-41q0 -27 -26 -27h-33q-10 0 -10 -10v-194q0 -12 -7.5 -19.5t-19.5 -7.5h-51q-12 0 -19.5 7.5t-7.5 19.5v194q0 10 -10 10h-350q-12 0 -19.5 7.5t-7.5 19.5v37q0 13 8 33l236 512q10 20 31 20h51q15 0 20.5 -9t-0.5 -22l-223 -491
q-4 -12 6 -12h248q10 0 10 10v172q0 12 7.5 19.5t19.5 7.5h51q12 0 19.5 -7.5t7.5 -19.5v-172q0 -10 10 -10h33z" />
    <glyph glyph-name="onehalf" unicode="&#xbd;" horiz-adv-x="1603" 
d="M285 600q0 -12 -7.5 -19.5t-19.5 -7.5h-51q-12 0 -19.5 7.5t-7.5 19.5v723q0 5 -4 8t-8 2l-62 -16q-28 -6 -28 24v25q0 21 20 31l66 30q17 7 33 7h61q12 0 19.5 -7.5t7.5 -19.5v-807zM1087 1415q13 19 31 19h56q15 0 19.5 -10t-3.5 -23l-864 -1383q-12 -18 -31 -18h-57
q-15 0 -20 10t3 23zM1155 102q-4 -4 -2 -8t8 -4h350q12 0 19.5 -7.5t7.5 -19.5v-36q0 -12 -7.5 -19.5t-19.5 -7.5h-475q-26 0 -26 27v45q0 17 12 32q150 174 270 322q117 139 117 219q0 60 -42 96.5t-110 36.5q-66 0 -106 -37t-39 -98v-22q0 -12 -7.5 -19.5t-19.5 -7.5h-51
q-26 0 -26 27v36q1 96 71.5 154.5t177.5 58.5q115 0 184.5 -63t69.5 -160q0 -104 -110 -248q-86 -111 -246 -297z" />
    <glyph glyph-name="threequarters" unicode="&#xbe;" horiz-adv-x="1830" 
d="M553 707q-29 -63 -87.5 -97.5t-137.5 -34.5q-87 0 -149 45.5t-89 122.5q-10 35 -14 80q0 27 26 27h52q26 0 26 -27q5 -37 8 -49q11 -48 48.5 -77t91.5 -29q87 0 125 71q24 47 24 115q0 79 -26 127q-38 72 -123 72q-18 0 -33 -6q-23 -9 -37 8l-22 28q-14 20 0 37l198 223
q10 13 -4 13h-319q-27 0 -27 26v37q0 12 7.5 19.5t19.5 7.5h438q26 0 26 -27v-45q0 -18 -12 -33l-180 -206q-8 -12 4 -15q115 -12 164 -112q31 -64 31 -156q0 -82 -29 -145zM1292 1415q13 19 31 19h55q15 0 20 -10t-3 -23l-865 -1383q-12 -18 -30 -18h-58q-15 0 -19.5 10
t3.5 23zM1733 326q26 0 26 -27v-41q0 -27 -26 -27h-33q-10 0 -10 -10v-194q0 -12 -7.5 -19.5t-19.5 -7.5h-51q-12 0 -19.5 7.5t-7.5 19.5v194q0 10 -10 10h-350q-12 0 -19.5 7.5t-7.5 19.5v37q0 13 8 33l236 512q10 20 31 20h51q15 0 20.5 -9t-0.5 -22l-223 -491
q-4 -12 6 -12h248q10 0 10 10v172q0 12 7.5 19.5t19.5 7.5h51q12 0 19.5 -7.5t7.5 -19.5v-172q0 -10 10 -10h33z" />
    <glyph glyph-name="questiondown" unicode="&#xbf;" horiz-adv-x="944" 
d="M502 1020q51 0 86 -34t35 -83q0 -47 -36 -82t-85 -35q-50 0 -86.5 35t-36.5 82q0 49 36.5 83t86.5 34zM557 614q27 0 27 -26v-115q0 -54 -19.5 -99.5t-50.5 -78t-68.5 -62.5t-74.5 -60t-68 -62.5t-50.5 -78.5t-19.5 -100q0 -102 66 -164.5t174 -62.5q110 0 177 63t67 166
v58q0 24 26 24l93 -4q26 0 26 -26v-52q0 -162 -109 -262t-284 -100q-172 0 -276.5 98t-104.5 262q0 69 19 127t50 97t68 72.5t74 61t68 55t50 62t19 74.5v107q0 26 27 26h94z" />
    <glyph glyph-name="Agrave" unicode="&#xc0;" horiz-adv-x="1243" 
d="M662 1612q7 -14 1.5 -23.5t-20.5 -9.5h-72q-18 0 -30 18l-131 211q-8 14 -3.5 23.5t19.5 9.5h88q22 0 31 -18zM1047 0q-23 0 -29 23l-82 249q-4 9 -10 9h-611q-5 0 -10 -9l-80 -249q-6 -23 -28 -23h-99q-14 0 -20 9t-2 22l450 1380q6 23 29 23h131q23 0 29 -23l452 -1380
q4 -13 -2 -22t-20 -9h-98zM350 412q-3 -13 8 -13h527q11 0 8 13l-266 837q-1 5 -4 7t-5.5 0t-3.5 -7z" />
    <glyph glyph-name="Aacute" unicode="&#xc1;" horiz-adv-x="1243" 
d="M776 1841q15 0 20 -9.5t-3 -23.5l-131 -211q-12 -18 -31 -18h-72q-15 0 -20.5 9.5t2.5 23.5l116 211q9 18 31 18h88zM1047 0q-23 0 -29 23l-82 249q-4 9 -10 9h-611q-5 0 -10 -9l-80 -249q-6 -23 -28 -23h-99q-14 0 -20 9t-2 22l450 1380q6 23 29 23h131q23 0 29 -23
l452 -1380q4 -13 -2 -22t-20 -9h-98zM350 412q-3 -13 8 -13h527q11 0 8 13l-266 837q-1 5 -4 7t-5.5 0t-3.5 -7z" />
    <glyph glyph-name="Acircumflex" unicode="&#xc2;" horiz-adv-x="1243" 
d="M625 1745q-7 11 -15 0l-121 -164q-13 -16 -32 -16h-66q-17 0 -21 10t5 22l160 209q11 17 32 17h97q21 0 32 -17l162 -209q10 -12 5.5 -22t-21.5 -10h-66q-20 0 -33 16zM1047 0q-23 0 -29 23l-82 249q-4 9 -10 9h-611q-5 0 -10 -9l-80 -249q-6 -23 -28 -23h-99
q-14 0 -20 9t-2 22l450 1380q6 23 29 23h131q23 0 29 -23l452 -1380q4 -13 -2 -22t-20 -9h-98zM350 412q-3 -13 8 -13h527q11 0 8 13l-266 837q-1 5 -4 7t-5.5 0t-3.5 -7z" />
    <glyph glyph-name="Atilde" unicode="&#xc3;" horiz-adv-x="1243" 
d="M532 1700q-31 0 -52.5 -10.5t-43.5 -38.5q-20 -23 -39 -9l-28 21q-22 15 -9 37q61 102 164 102q24 0 48.5 -8t37.5 -15.5t39 -23.5q71 -43 101 -43q58 0 96 55q15 21 37 9l30 -19q21 -15 9 -37q-31 -57 -78 -83.5t-92 -26.5q-57 0 -127 49q-22 15 -33 22t-27 13t-33 6z
M1047 0q-23 0 -29 23l-82 249q-4 9 -10 9h-611q-5 0 -10 -9l-80 -249q-6 -23 -28 -23h-99q-14 0 -20 9t-2 22l450 1380q6 23 29 23h131q23 0 29 -23l452 -1380q4 -13 -2 -22t-20 -9h-98zM350 412q-3 -13 8 -13h527q11 0 8 13l-266 837q-1 5 -4 7t-5.5 0t-3.5 -7z" />
    <glyph glyph-name="Adieresis" unicode="&#xc4;" horiz-adv-x="1243" 
d="M446 1626q-43 0 -70.5 26.5t-27.5 67.5q0 42 28 69.5t70 27.5q41 0 68 -28t27 -69t-27 -67.5t-68 -26.5zM791 1626q-43 0 -70 26.5t-27 67.5q0 42 27.5 69.5t69.5 27.5t69 -27.5t27 -69.5q0 -41 -26.5 -67.5t-69.5 -26.5zM1047 0q-23 0 -29 23l-82 249q-4 9 -10 9h-611
q-5 0 -10 -9l-80 -249q-6 -23 -28 -23h-99q-14 0 -20 9t-2 22l450 1380q6 23 29 23h131q23 0 29 -23l452 -1380q4 -13 -2 -22t-20 -9h-98zM350 412q-3 -13 8 -13h527q11 0 8 13l-266 837q-1 5 -4 7t-5.5 0t-3.5 -7z" />
    <glyph glyph-name="Aring" unicode="&#xc5;" horiz-adv-x="1243" 
d="M618 1563q-91 0 -153 61t-62 150q0 88 62 148t153 60q89 0 151 -60t62 -148q0 -89 -62 -150t-151 -61zM618 1905q-56 0 -94.5 -38t-38.5 -93q0 -57 38.5 -94.5t94.5 -37.5q55 0 93.5 38t38.5 94q0 55 -39 93t-93 38zM1047 0q-23 0 -29 23l-82 249q-4 9 -10 9h-611
q-5 0 -10 -9l-80 -249q-6 -23 -28 -23h-99q-14 0 -20 9t-2 22l450 1380q6 23 29 23h131q23 0 29 -23l452 -1380q4 -13 -2 -22t-20 -9h-98zM350 412q-3 -13 8 -13h527q11 0 8 13l-266 837q-1 5 -4 7t-5.5 0t-3.5 -7z" />
    <glyph glyph-name="AE" unicode="&#xc6;" horiz-adv-x="1886" 
d="M1767 1333q0 -26 -26 -26h-690q-11 0 -11 -11v-501q0 -11 11 -11h465q26 0 26 -26v-74q0 -27 -26 -27h-465q-11 0 -11 -10v-510q0 -10 11 -10h690q26 0 26 -27v-73q0 -27 -26 -27h-819q-12 0 -19.5 7.5t-7.5 19.5v243q0 11 -10 11h-504q-9 0 -12 -9l-131 -254
q-9 -18 -33 -18h-105q-15 0 -20 9t2 22l729 1384q9 19 31 19h899q26 0 26 -27v-74zM442 412q-6 -13 9 -13h434q10 0 10 11v843q0 7 -4.5 8.5t-7.5 -4.5z" />
    <glyph glyph-name="Ccedilla" unicode="&#xc7;" horiz-adv-x="1243" 
d="M1110 997q0 -9 -27 -12l-92 -6q-26 -3 -26 12v13q0 145 -92 232t-244 87q-151 0 -243.5 -87.5t-92.5 -231.5v-574q0 -144 92.5 -231.5t243.5 -87.5q152 0 244 87t92 232q0 26 26 23l92 -4q27 0 27 -11v-10q0 -201 -132 -323.5t-349 -122.5q-7 0 6 -13q122 -110 92 -229
q-11 -46 -40 -75t-66.5 -38.5t-75 -9t-74.5 9.5q-23 6 -20 31l6 33q3 27 30 20q33 -5 61.5 -2t49.5 21.5t27 50.5q21 99 -125 211q-2 2 -8 4l-5 2q-157 39 -248.5 155t-91.5 283v563q0 203 132.5 327t349.5 124t349 -121.5t132 -320.5v-11z" />
    <glyph glyph-name="Egrave" unicode="&#xc8;" horiz-adv-x="1239" 
d="M690 1634q7 -14 2 -23t-20 -9h-72q-19 0 -31 18l-131 211q-8 13 -3 23t20 10h88q21 0 30 -19zM1120 1333q0 -26 -26 -26h-746q-10 0 -10 -11v-501q0 -11 10 -11h520q27 0 27 -26v-74q0 -12 -7.5 -19.5t-19.5 -7.5h-520q-10 0 -10 -10v-510q0 -10 10 -10h746q26 0 26 -27
v-73q0 -27 -26 -27h-875q-26 0 -26 27v1380q0 27 26 27h875q26 0 26 -27v-74z" />
    <glyph glyph-name="Eacute" unicode="&#xc9;" horiz-adv-x="1239" 
d="M805 1864q15 0 19.5 -10t-3.5 -23l-131 -211q-12 -18 -31 -18h-71q-15 0 -20.5 9t1.5 23l117 211q10 19 31 19h88zM1120 1333q0 -26 -26 -26h-746q-10 0 -10 -11v-501q0 -11 10 -11h520q27 0 27 -26v-74q0 -12 -7.5 -19.5t-19.5 -7.5h-520q-10 0 -10 -10v-510
q0 -10 10 -10h746q26 0 26 -27v-73q0 -27 -26 -27h-875q-26 0 -26 27v1380q0 27 26 27h875q26 0 26 -27v-74z" />
    <glyph glyph-name="Ecircumflex" unicode="&#xca;" horiz-adv-x="1239" 
d="M653 1767q-7 11 -14 0l-121 -163q-14 -17 -33 -17h-65q-17 0 -21.5 10.5t4.5 22.5l160 209q11 16 33 16h96q22 0 33 -16l162 -209q9 -12 4.5 -22.5t-21.5 -10.5h-65q-19 0 -33 17zM1120 1333q0 -26 -26 -26h-746q-10 0 -10 -11v-501q0 -11 10 -11h520q27 0 27 -26v-74
q0 -12 -7.5 -19.5t-19.5 -7.5h-520q-10 0 -10 -10v-510q0 -10 10 -10h746q26 0 26 -27v-73q0 -27 -26 -27h-875q-26 0 -26 27v1380q0 27 26 27h875q26 0 26 -27v-74z" />
    <glyph glyph-name="Edieresis" unicode="&#xcb;" horiz-adv-x="1239" 
d="M475 1649q-43 0 -70.5 26.5t-27.5 67.5t27.5 68.5t70.5 27.5q41 0 67.5 -27.5t26.5 -68.5t-26.5 -67.5t-67.5 -26.5zM819 1649q-43 0 -69.5 26.5t-26.5 67.5q0 42 27 69t69 27t69 -27t27 -69q0 -41 -26.5 -67.5t-69.5 -26.5zM1120 1333q0 -26 -26 -26h-746q-10 0 -10 -11
v-501q0 -11 10 -11h520q27 0 27 -26v-74q0 -12 -7.5 -19.5t-19.5 -7.5h-520q-10 0 -10 -10v-510q0 -10 10 -10h746q26 0 26 -27v-73q0 -27 -26 -27h-875q-26 0 -26 27v1380q0 27 26 27h875q26 0 26 -27v-74z" />
    <glyph glyph-name="Igrave" unicode="&#xcc;" horiz-adv-x="530" 
d="M307 1634q7 -14 2 -23t-20 -9h-72q-19 0 -31 18l-131 211q-8 13 -3 23t20 10h88q20 0 30 -19zM219 0q-26 0 -26 27v1380q0 27 26 27h92q12 0 19.5 -7.5t7.5 -19.5v-1380q0 -12 -7.5 -19.5t-19.5 -7.5h-92z" />
    <glyph glyph-name="Iacute" unicode="&#xcd;" horiz-adv-x="530" 
d="M205 1602q-15 0 -20.5 9t1.5 23l117 211q9 19 31 19h88q15 0 19.5 -10t-3.5 -23l-131 -211q-12 -18 -31 -18h-71zM219 0q-26 0 -26 27v1380q0 27 26 27h92q12 0 19.5 -7.5t7.5 -19.5v-1380q0 -12 -7.5 -19.5t-19.5 -7.5h-92z" />
    <glyph glyph-name="Icircumflex" unicode="&#xce;" horiz-adv-x="530" 
d="M37 1587q-17 0 -21.5 10.5t4.5 22.5l160 209q11 16 33 16h96q22 0 33 -16l162 -209q9 -12 4.5 -22.5t-21.5 -10.5h-65q-19 0 -33 17l-119 163q-7 11 -14 0l-121 -163q-14 -17 -33 -17h-65zM219 0q-26 0 -26 27v1380q0 27 26 27h92q12 0 19.5 -7.5t7.5 -19.5v-1380
q0 -12 -7.5 -19.5t-19.5 -7.5h-92z" />
    <glyph glyph-name="Idieresis" unicode="&#xcf;" horiz-adv-x="530" 
d="M92 1649q-43 0 -70.5 26.5t-27.5 67.5t27.5 68.5t70.5 27.5q41 0 67.5 -27.5t26.5 -68.5t-26.5 -67.5t-67.5 -26.5zM436 1649q-43 0 -69.5 26.5t-26.5 67.5q0 42 27 69t69 27t69 -27t27 -69q0 -41 -26.5 -67.5t-69.5 -26.5zM219 0q-26 0 -26 27v1380q0 27 26 27h92
q12 0 19.5 -7.5t7.5 -19.5v-1380q0 -12 -7.5 -19.5t-19.5 -7.5h-92z" />
    <glyph glyph-name="Eth" unicode="&#xd0;" horiz-adv-x="1398" 
d="M829 1434q203 0 323 -106.5t120 -289.5v-643q0 -182 -120 -288.5t-323 -106.5h-477q-26 0 -26 27v655q0 10 -11 10h-96q-26 0 -26 27v53q0 27 26 27h96q11 0 11 10v598q0 27 26 27h477zM1126 414v604q0 134 -77.5 211.5t-212.5 77.5h-355q-10 0 -10 -11v-487
q0 -10 10 -10h236q26 0 26 -27v-53q0 -27 -26 -27h-236q-10 0 -10 -10v-545q0 -10 10 -10h355q133 0 211.5 77.5t78.5 209.5z" />
    <glyph glyph-name="Ntilde" unicode="&#xd1;" horiz-adv-x="1378" 
d="M819 1632q-57 0 -127 49q-22 16 -32.5 22.5t-26.5 12.5t-33 6q-31 0 -52.5 -10.5t-43.5 -38.5q-19 -22 -39 -8l-29 21q-21 14 -8 36q62 103 164 103q24 0 48.5 -8t37.5 -15.5t39 -23.5q2 -1 12 -7t13 -8t12 -7t13.5 -7t12 -5.5t13 -5t12 -2.5t12.5 -1q58 0 96 55
q15 21 37 8l31 -18q22 -16 0 -51q-33 -49 -77 -73t-85 -24zM219 0q-26 0 -26 27v1380q0 27 26 27h92q18 0 31 -19l688 -1114q2 -4 5 -5t5 1.5t2 7.5v1102q0 12 7.5 19.5t19.5 7.5h92q12 0 19.5 -7.5t7.5 -19.5v-1380q0 -12 -7.5 -19.5t-19.5 -7.5h-92q-19 0 -31 18
l-690 1119q-2 4 -5 5t-5 -1.5t-2 -7.5l2 -1106q0 -27 -27 -27h-92z" />
    <glyph glyph-name="Ograve" unicode="&#xd2;" horiz-adv-x="1273" 
d="M678 1628q7 -14 1.5 -23.5t-20.5 -9.5h-71q-18 0 -31 19l-131 211q-8 13 -3.5 23t19.5 10h88q22 0 31 -19zM635 -16q-220 0 -354 130t-134 345v516q0 214 134 344.5t354 130.5q221 0 355 -130.5t134 -344.5v-516q0 -215 -134 -345t-355 -130zM635 109q155 0 249.5 94.5
t94.5 249.5v524q0 155 -94.5 250.5t-249.5 95.5q-154 0 -248 -95.5t-94 -250.5v-524q0 -155 94 -249.5t248 -94.5z" />
    <glyph glyph-name="Oacute" unicode="&#xd3;" horiz-adv-x="1273" 
d="M575 1595q-15 0 -20.5 9.5t2.5 23.5l117 211q10 19 31 19h88q15 0 19.5 -10t-3.5 -23l-131 -211q-13 -19 -31 -19h-72zM635 -16q-220 0 -354 130t-134 345v516q0 214 134 344.5t354 130.5q221 0 355 -130.5t134 -344.5v-516q0 -215 -134 -345t-355 -130zM635 109
q155 0 249.5 94.5t94.5 249.5v524q0 155 -94.5 250.5t-249.5 95.5q-154 0 -248 -95.5t-94 -250.5v-524q0 -155 94 -249.5t248 -94.5z" />
    <glyph glyph-name="Ocircumflex" unicode="&#xd4;" horiz-adv-x="1273" 
d="M408 1581q-17 0 -21.5 10.5t4.5 22.5l160 209q11 16 33 16h96q22 0 33 -16l161 -209q10 -12 5.5 -22.5t-21.5 -10.5h-65q-20 0 -33 16l-119 164q-7 11 -14 0l-121 -164q-13 -16 -33 -16h-65zM635 -16q-220 0 -354 130t-134 345v516q0 214 134 344.5t354 130.5
q221 0 355 -130.5t134 -344.5v-516q0 -215 -134 -345t-355 -130zM635 109q155 0 249.5 94.5t94.5 249.5v524q0 155 -94.5 250.5t-249.5 95.5q-154 0 -248 -95.5t-94 -250.5v-524q0 -155 94 -249.5t248 -94.5z" />
    <glyph glyph-name="Otilde" unicode="&#xd5;" horiz-adv-x="1273" 
d="M768 1626q-57 0 -127 49q-22 16 -32.5 22.5t-26.5 12.5t-33 6q-31 0 -52.5 -10.5t-43.5 -38.5q-19 -22 -39 -8l-29 20q-21 14 -8 37q62 103 164 103q24 0 48.5 -8t37.5 -15.5t39 -23.5q2 -1 12 -7t13 -8t12 -7t13.5 -7t12 -5.5t13 -5t12 -2.5t12.5 -1q58 0 96 55
q15 21 37 8l31 -18q23 -16 0 -52q-33 -49 -77 -72.5t-85 -23.5zM635 -16q-220 0 -354 130t-134 345v516q0 214 134 344.5t354 130.5q221 0 355 -130.5t134 -344.5v-516q0 -215 -134 -345t-355 -130zM635 109q155 0 249.5 94.5t94.5 249.5v524q0 155 -94.5 250.5t-249.5 95.5
q-154 0 -248 -95.5t-94 -250.5v-524q0 -155 94 -249.5t248 -94.5z" />
    <glyph glyph-name="Odieresis" unicode="&#xd6;" horiz-adv-x="1273" 
d="M463 1642q-43 0 -70.5 27t-27.5 68t27.5 68.5t70.5 27.5q41 0 67.5 -27.5t26.5 -68.5t-26.5 -68t-67.5 -27zM807 1642q-43 0 -69.5 27t-26.5 68q0 42 27 69t69 27t69 -27t27 -69q0 -41 -26.5 -68t-69.5 -27zM635 -16q-220 0 -354 130t-134 345v516q0 214 134 344.5
t354 130.5q221 0 355 -130.5t134 -344.5v-516q0 -215 -134 -345t-355 -130zM635 109q155 0 249.5 94.5t94.5 249.5v524q0 155 -94.5 250.5t-249.5 95.5q-154 0 -248 -95.5t-94 -250.5v-524q0 -155 94 -249.5t248 -94.5z" />
    <glyph glyph-name="multiply" unicode="&#xd7;" horiz-adv-x="864" 
d="M768 930q18 -18 0 -37l-233 -234q-8 -8 0 -16l227 -227q18 -18 0 -37l-53 -53q-19 -18 -37 0l-228 227q-8 8 -16 0l-235 -234q-19 -19 -37 0l-54 54q-18 19 0 37l236 233q8 8 0 16l-240 240q-18 19 0 37l52 53q18 18 36 0l242 -239q8 -8 16 0l234 233q18 19 37 0z" />
    <glyph glyph-name="Oslash" unicode="&#xd8;" horiz-adv-x="1284" 
d="M967 1360q-4 -8 4 -14q78 -64 121 -159.5t43 -211.5v-516q0 -215 -134.5 -345t-355.5 -130q-166 0 -285 75q-8 8 -12 -4l-55 -114q-11 -21 -33 -21h-59q-15 0 -21 9t0 22l84 178q4 8 -2 14q-104 129 -104 316v516q0 214 133.5 344.5t353.5 130.5q121 0 217 -41q9 -5 12 4
l44 92q10 21 32 21h62q15 0 20.5 -9t-0.5 -22zM303 453q0 -84 31 -154q2 -6 5.5 -6t6.5 6l463 979q3 9 -4 12q-67 33 -160 33q-154 0 -248 -95.5t-94 -250.5v-524zM989 453v524q0 144 -80 233q-3 4 -7.5 3.5t-6.5 -5.5l-479 -1009q-4 -9 2 -15q87 -75 227 -75
q155 0 249.5 94.5t94.5 249.5z" />
    <glyph glyph-name="Ugrave" unicode="&#xd9;" horiz-adv-x="1327" 
d="M707 1636q7 -14 1.5 -23t-20.5 -9h-72q-18 0 -30 18l-131 211q-8 13 -3.5 23t19.5 10h88q21 0 31 -19zM664 -16q-219 0 -353.5 126t-134.5 332v965q0 12 7.5 19.5t19.5 7.5h92q12 0 19.5 -7.5t7.5 -19.5v-969q0 -146 94 -236.5t248 -90.5t248 90.5t94 236.5v969
q0 27 26 27h92q12 0 19.5 -7.5t7.5 -19.5v-965q0 -207 -133.5 -332.5t-353.5 -125.5z" />
    <glyph glyph-name="Uacute" unicode="&#xda;" horiz-adv-x="1327" 
d="M604 1604q-15 0 -20 9t2 23l116 211q10 19 31 19h88q15 0 20 -10t-3 -23l-131 -211q-12 -18 -31 -18h-72zM664 -16q-219 0 -353.5 126t-134.5 332v965q0 12 7.5 19.5t19.5 7.5h92q12 0 19.5 -7.5t7.5 -19.5v-969q0 -146 94 -236.5t248 -90.5t248 90.5t94 236.5v969
q0 27 26 27h92q12 0 19.5 -7.5t7.5 -19.5v-965q0 -207 -133.5 -332.5t-353.5 -125.5z" />
    <glyph glyph-name="Ucircumflex" unicode="&#xdb;" horiz-adv-x="1327" 
d="M436 1589q-17 0 -21.5 10.5t5.5 22.5l160 209q11 16 32 16h97q21 0 32 -16l162 -209q10 -12 5.5 -22.5t-21.5 -10.5h-66q-19 0 -33 17l-118 163q-8 11 -15 0l-120 -163q-14 -17 -33 -17h-66zM664 -16q-219 0 -353.5 126t-134.5 332v965q0 12 7.5 19.5t19.5 7.5h92
q12 0 19.5 -7.5t7.5 -19.5v-969q0 -146 94 -236.5t248 -90.5t248 90.5t94 236.5v969q0 27 26 27h92q12 0 19.5 -7.5t7.5 -19.5v-965q0 -207 -133.5 -332.5t-353.5 -125.5z" />
    <glyph glyph-name="Udieresis" unicode="&#xdc;" horiz-adv-x="1327" 
d="M492 1651q-43 0 -71 26.5t-28 67.5t28 68.5t71 27.5q41 0 67.5 -27.5t26.5 -68.5t-26.5 -67.5t-67.5 -26.5zM836 1651q-43 0 -70 26.5t-27 67.5t27.5 68.5t69.5 27.5t69 -27t27 -69q0 -41 -26.5 -67.5t-69.5 -26.5zM664 -16q-219 0 -353.5 126t-134.5 332v965
q0 12 7.5 19.5t19.5 7.5h92q12 0 19.5 -7.5t7.5 -19.5v-969q0 -146 94 -236.5t248 -90.5t248 90.5t94 236.5v969q0 27 26 27h92q12 0 19.5 -7.5t7.5 -19.5v-965q0 -207 -133.5 -332.5t-353.5 -125.5z" />
    <glyph glyph-name="Yacute" unicode="&#xdd;" horiz-adv-x="1161" 
d="M520 1577q-15 0 -20.5 9.5t2.5 23.5l116 211q9 18 31 18h88q15 0 20 -9.5t-3 -23.5l-131 -211q-12 -18 -31 -18h-72zM535 2q-12 0 -19.5 7.5t-7.5 19.5v600q0 4 -4 12l-420 760q-8 13 -2.5 23t20.5 10h99q21 0 30 -19l342 -618q7 -10 13 0l344 618q10 19 31 19h98
q15 0 20.5 -10t-2.5 -23l-420 -760q-4 -8 -4 -12v-600q0 -27 -26 -27h-92z" />
    <glyph glyph-name="Thorn" unicode="&#xde;" horiz-adv-x="1161" 
d="M686 1112q181 0 291 -109t110 -288q0 -177 -113 -285t-292 -108h-348q-10 0 -10 -11v-284q0 -12 -7.5 -19.5t-19.5 -7.5h-92q-12 0 -19.5 7.5t-7.5 19.5v1380q0 12 7.5 19.5t19.5 7.5h92q12 0 19.5 -7.5t7.5 -19.5v-285q0 -10 10 -10h352zM672 442q122 0 196 73.5
t74 197.5t-74 198t-196 74h-338q-10 0 -10 -10v-522q0 -11 10 -11h338z" />
    <glyph glyph-name="germandbls" unicode="&#xdf;" horiz-adv-x="1206" 
d="M190 0q-26 0 -26 27v1017q1 189 121 298.5t315 109.5q215 0 335.5 -99.5t123.5 -277.5q2 -110 -44 -189.5t-134 -115.5q-12 -6 0 -12q89 -39 140.5 -133.5t51.5 -225.5q0 -190 -124.5 -294.5t-370.5 -104.5h-136q-26 0 -26 27v71q0 27 26 27h152q166 0 250 74.5t84 212.5
q0 141 -73.5 215.5t-219.5 77.5h-143q-27 0 -27 26v64q0 26 27 26h147q137 0 207 65.5t67 184.5q-3 121 -78.5 187.5t-226.5 66.5q-81 0 -148 -30.5t-108.5 -93t-42.5 -146.5v-1028q0 -27 -26 -27h-93z" />
    <glyph glyph-name="agrave" unicode="&#xe0;" horiz-adv-x="1046" 
d="M567 1231q8 -13 2.5 -23t-20.5 -10h-72q-18 0 -31 19l-131 210q-8 13 -3 23t20 10h88q22 0 31 -18zM522 1053q184 0 285.5 -94t101.5 -250v-682q0 -27 -26 -27h-92q-12 0 -19.5 7.5t-7.5 19.5v73q0 6 -4 8t-8 -4q-114 -120 -320 -120q-68 0 -127 17t-107 51.5t-76 93.5
t-28 137q0 154 111.5 242.5t310.5 88.5h238q10 0 10 11v75q0 105 -59 165.5t-181 60.5q-95 0 -156 -37t-79 -103q-6 -23 -31 -20l-100 12q-13 2 -19.5 7.5t-5.5 15.5q20 113 126 182.5t263 69.5zM465 109q121 0 210 60.5t89 162.5v157q0 11 -10 11h-215q-136 0 -217.5 -55.5
t-81.5 -153.5q0 -90 63 -136t162 -46z" />
    <glyph glyph-name="aacute" unicode="&#xe1;" horiz-adv-x="1046" 
d="M682 1460q15 0 19.5 -10t-3.5 -23l-131 -210q-13 -19 -30 -19h-72q-15 0 -20.5 10t1.5 23l117 211q9 18 31 18h88zM522 1053q184 0 285.5 -94t101.5 -250v-682q0 -27 -26 -27h-92q-12 0 -19.5 7.5t-7.5 19.5v73q0 6 -4 8t-8 -4q-114 -120 -320 -120q-68 0 -127 17
t-107 51.5t-76 93.5t-28 137q0 154 111.5 242.5t310.5 88.5h238q10 0 10 11v75q0 105 -59 165.5t-181 60.5q-95 0 -156 -37t-79 -103q-6 -23 -31 -20l-100 12q-13 2 -19.5 7.5t-5.5 15.5q20 113 126 182.5t263 69.5zM465 109q121 0 210 60.5t89 162.5v157q0 11 -10 11h-215
q-136 0 -217.5 -55.5t-81.5 -153.5q0 -90 63 -136t162 -46z" />
    <glyph glyph-name="acircumflex" unicode="&#xe2;" horiz-adv-x="1046" 
d="M530 1364q-7 10 -14 0l-121 -164q-13 -16 -33 -16h-65q-17 0 -21.5 10.5t5.5 22.5l159 208q11 17 33 17h96q22 0 33 -17l162 -208q10 -12 5.5 -22.5t-21.5 -10.5h-66q-20 0 -33 16zM522 1053q184 0 285.5 -94t101.5 -250v-682q0 -27 -26 -27h-92q-12 0 -19.5 7.5
t-7.5 19.5v73q0 6 -4 8t-8 -4q-114 -120 -320 -120q-68 0 -127 17t-107 51.5t-76 93.5t-28 137q0 154 111.5 242.5t310.5 88.5h238q10 0 10 11v75q0 105 -59 165.5t-181 60.5q-95 0 -156 -37t-79 -103q-6 -23 -31 -20l-100 12q-13 2 -19.5 7.5t-5.5 15.5q20 113 126 182.5
t263 69.5zM465 109q121 0 210 60.5t89 162.5v157q0 11 -10 11h-215q-136 0 -217.5 -55.5t-81.5 -153.5q0 -90 63 -136t162 -46z" />
    <glyph glyph-name="atilde" unicode="&#xe3;" horiz-adv-x="1046" 
d="M438 1319q-31 0 -52.5 -10.5t-43.5 -38.5q-19 -22 -39 -8l-29 20q-21 14 -8 37q61 102 164 102q24 0 48.5 -8t37.5 -15.5t39 -23.5q2 -1 12 -7t13 -8t12 -7t13.5 -7t12 -5.5t13 -5t12 -2.5t12.5 -1q59 0 97 55q15 21 36 9l31 -19q21 -15 8 -37q-31 -57 -78 -83.5
t-92 -26.5q-57 0 -127 49q-22 16 -32.5 22.5t-26.5 12.5t-33 6zM522 1053q184 0 285.5 -94t101.5 -250v-682q0 -27 -26 -27h-92q-12 0 -19.5 7.5t-7.5 19.5v73q0 6 -4 8t-8 -4q-114 -120 -320 -120q-68 0 -127 17t-107 51.5t-76 93.5t-28 137q0 154 111.5 242.5t310.5 88.5
h238q10 0 10 11v75q0 105 -59 165.5t-181 60.5q-95 0 -156 -37t-79 -103q-6 -23 -31 -20l-100 12q-13 2 -19.5 7.5t-5.5 15.5q20 113 126 182.5t263 69.5zM465 109q121 0 210 60.5t89 162.5v157q0 11 -10 11h-215q-136 0 -217.5 -55.5t-81.5 -153.5q0 -90 63 -136t162 -46z
" />
    <glyph glyph-name="adieresis" unicode="&#xe4;" horiz-adv-x="1046" 
d="M352 1245q-43 0 -70.5 26.5t-27.5 67.5t28 69t70 28q41 0 67.5 -27.5t26.5 -69.5q0 -41 -26.5 -67.5t-67.5 -26.5zM696 1245q-43 0 -69.5 26.5t-26.5 67.5q0 42 27 69.5t69 27.5t69.5 -27.5t27.5 -69.5q0 -41 -27 -67.5t-70 -26.5zM522 1053q184 0 285.5 -94t101.5 -250
v-682q0 -27 -26 -27h-92q-12 0 -19.5 7.5t-7.5 19.5v73q0 6 -4 8t-8 -4q-114 -120 -320 -120q-68 0 -127 17t-107 51.5t-76 93.5t-28 137q0 154 111.5 242.5t310.5 88.5h238q10 0 10 11v75q0 105 -59 165.5t-181 60.5q-95 0 -156 -37t-79 -103q-6 -23 -31 -20l-100 12
q-13 2 -19.5 7.5t-5.5 15.5q20 113 126 182.5t263 69.5zM465 109q121 0 210 60.5t89 162.5v157q0 11 -10 11h-215q-136 0 -217.5 -55.5t-81.5 -153.5q0 -90 63 -136t162 -46z" />
    <glyph glyph-name="aring" unicode="&#xe5;" horiz-adv-x="1046" 
d="M524 1182q-91 0 -153 61t-62 150q0 88 62 148.5t153 60.5q89 0 151 -60.5t62 -148.5q0 -89 -62 -150t-151 -61zM524 1524q-56 0 -94.5 -38t-38.5 -93q0 -56 38.5 -93.5t94.5 -37.5q55 0 93 37.5t38 93.5q0 55 -38.5 93t-92.5 38zM522 1053q184 0 285.5 -94t101.5 -250
v-682q0 -27 -26 -27h-92q-12 0 -19.5 7.5t-7.5 19.5v73q0 6 -4 8t-8 -4q-114 -120 -320 -120q-68 0 -127 17t-107 51.5t-76 93.5t-28 137q0 154 111.5 242.5t310.5 88.5h238q10 0 10 11v75q0 105 -59 165.5t-181 60.5q-95 0 -156 -37t-79 -103q-6 -23 -31 -20l-100 12
q-13 2 -19.5 7.5t-5.5 15.5q20 113 126 182.5t263 69.5zM465 109q121 0 210 60.5t89 162.5v157q0 11 -10 11h-215q-136 0 -217.5 -55.5t-81.5 -153.5q0 -90 63 -136t162 -46z" />
    <glyph glyph-name="ae" unicode="&#xe6;" horiz-adv-x="1705" 
d="M457 -16q-74 0 -137 15.5t-115 48t-81.5 89.5t-29.5 133q0 151 111.5 237.5t310.5 86.5h238q10 0 10 10v86q0 106 -61 171t-185 65q-93 0 -156.5 -37.5t-80.5 -102.5q-6 -23 -31 -20l-92 10q-12 2 -19 10.5t-4 20.5q22 109 127 177.5t254 68.5q120 0 206 -50t120 -129
q6 -12 12 0q41 76 127.5 127.5t194.5 51.5q139 0 246.5 -77.5t140.5 -205.5q18 -68 18 -270q0 -29 -27 -29h-632q-11 0 -11 -10q0 -29 4 -127q4 -103 83 -158t198 -55q182 0 254 145q4 12 14.5 15.5t20.5 -2.5l59 -33q24 -14 15 -35q-43 -99 -144.5 -163t-236.5 -64
q-115 0 -203.5 46t-128.5 126q-7 11 -10 2q-43 -82 -146.5 -128t-232.5 -46zM911 604q0 -10 11 -10h505q11 0 11 10q-4 88 -11 121q-18 89 -86 145t-167 56t-167 -55.5t-87 -145.5q-9 -43 -9 -121zM471 100q75 0 139.5 23t109 76.5t44.5 128.5v133q0 10 -10 10h-215
q-138 0 -218.5 -47.5t-80.5 -140.5q0 -87 64 -135t167 -48z" />
    <glyph glyph-name="ccedilla" unicode="&#xe7;" horiz-adv-x="1064" 
d="M817 295q2 4 2 10l2 2q3 27 31 23l88 -15q28 -3 25 -30q-7 -28 -9 -35q-28 -108 -123.5 -180t-226.5 -82q-6 -1 -7.5 -5.5t3.5 -7.5q126 -112 96 -233q-11 -46 -40 -75t-66.5 -38.5t-75 -9t-74.5 9.5q-23 6 -20 31l6 33q3 27 31 20q33 -5 61 -2t49 21.5t27 50.5
q21 93 -113 203l-12 6q-117 18 -198 91t-115 185q-27 94 -27 254q0 144 27 250q37 128 143.5 204.5t253.5 76.5q150 0 259.5 -76t141.5 -189q10 -33 13 -55q3 -27 -25 -31l-90 -10q-25 -3 -31 23q0 8 -4 24q-18 79 -90 133t-174 54t-170.5 -54.5t-89.5 -144.5
q-19 -82 -19 -207q0 -131 19 -209q21 -91 89.5 -145.5t170.5 -54.5q101 0 172.5 52t89.5 132z" />
    <glyph glyph-name="egrave" unicode="&#xe8;" horiz-adv-x="1093" 
d="M588 1231q7 -13 1.5 -23t-20.5 -10h-71q-18 0 -31 19l-131 210q-8 13 -3.5 23t19.5 10h88q22 0 31 -18zM567 109q185 3 262 153q5 11 14.5 14.5t20.5 -2.5l60 -32q24 -14 12 -35q-49 -103 -148 -163t-233 -60q-144 0 -242.5 67.5t-140.5 188.5q-39 102 -39 282
q0 163 19 238q34 134 139.5 213.5t255.5 79.5q177 0 278.5 -93t130.5 -260q13 -72 13 -204q0 -12 -7.5 -19.5t-19.5 -7.5h-655q-11 0 -11 -10q0 -100 13 -150q22 -91 95 -145.5t183 -54.5zM547 926q-101 0 -167 -52.5t-87 -140.5q-14 -46 -17 -139q0 -10 11 -10h526
q10 0 10 10q-3 89 -12 131q-22 92 -91.5 146.5t-172.5 54.5z" />
    <glyph glyph-name="eacute" unicode="&#xe9;" horiz-adv-x="1093" 
d="M702 1460q15 0 20 -10t-3 -23l-131 -210q-13 -19 -31 -19h-72q-15 0 -20.5 10t2.5 23l117 211q9 18 30 18h88zM567 109q185 3 262 153q5 11 14.5 14.5t20.5 -2.5l60 -32q24 -14 12 -35q-49 -103 -148 -163t-233 -60q-144 0 -242.5 67.5t-140.5 188.5q-39 102 -39 282
q0 163 19 238q34 134 139.5 213.5t255.5 79.5q177 0 278.5 -93t130.5 -260q13 -72 13 -204q0 -12 -7.5 -19.5t-19.5 -7.5h-655q-11 0 -11 -10q0 -100 13 -150q22 -91 95 -145.5t183 -54.5zM547 926q-101 0 -167 -52.5t-87 -140.5q-14 -46 -17 -139q0 -10 11 -10h526
q10 0 10 10q-3 89 -12 131q-22 92 -91.5 146.5t-172.5 54.5z" />
    <glyph glyph-name="ecircumflex" unicode="&#xea;" horiz-adv-x="1093" 
d="M551 1364q-7 10 -14 0l-121 -164q-13 -16 -33 -16h-66q-17 0 -21.5 10.5t5.5 22.5l160 208q11 17 33 17h96q22 0 33 -17l161 -208q10 -12 5.5 -22.5t-21.5 -10.5h-66q-19 0 -32 16zM567 109q185 3 262 153q5 11 14.5 14.5t20.5 -2.5l60 -32q24 -14 12 -35
q-49 -103 -148 -163t-233 -60q-144 0 -242.5 67.5t-140.5 188.5q-39 102 -39 282q0 163 19 238q34 134 139.5 213.5t255.5 79.5q177 0 278.5 -93t130.5 -260q13 -72 13 -204q0 -12 -7.5 -19.5t-19.5 -7.5h-655q-11 0 -11 -10q0 -100 13 -150q22 -91 95 -145.5t183 -54.5z
M547 926q-101 0 -167 -52.5t-87 -140.5q-14 -46 -17 -139q0 -10 11 -10h526q10 0 10 10q-3 89 -12 131q-22 92 -91.5 146.5t-172.5 54.5z" />
    <glyph glyph-name="edieresis" unicode="&#xeb;" horiz-adv-x="1093" 
d="M373 1245q-43 0 -71 26.5t-28 67.5t28 69t71 28q41 0 67.5 -27.5t26.5 -69.5q0 -41 -26.5 -67.5t-67.5 -26.5zM717 1245q-43 0 -69.5 26.5t-26.5 67.5q0 42 27 69.5t69 27.5t69 -27.5t27 -69.5q0 -41 -26.5 -67.5t-69.5 -26.5zM567 109q185 3 262 153q5 11 14.5 14.5
t20.5 -2.5l60 -32q24 -14 12 -35q-49 -103 -148 -163t-233 -60q-144 0 -242.5 67.5t-140.5 188.5q-39 102 -39 282q0 163 19 238q34 134 139.5 213.5t255.5 79.5q177 0 278.5 -93t130.5 -260q13 -72 13 -204q0 -12 -7.5 -19.5t-19.5 -7.5h-655q-11 0 -11 -10q0 -100 13 -150
q22 -91 95 -145.5t183 -54.5zM547 926q-101 0 -167 -52.5t-87 -140.5q-14 -46 -17 -139q0 -10 11 -10h526q10 0 10 10q-3 89 -12 131q-22 92 -91.5 146.5t-172.5 54.5z" />
    <glyph glyph-name="igrave" unicode="&#xec;" horiz-adv-x="452" 
d="M264 1235q8 -13 2.5 -23t-20.5 -10h-72q-18 0 -31 19l-131 211q-8 14 -3 23t20 9h88q21 0 30 -18zM178 0q-26 0 -26 27v983q0 26 26 26h92q27 0 27 -26v-983q0 -12 -7.5 -19.5t-19.5 -7.5h-92z" />
    <glyph glyph-name="iacute" unicode="&#xed;" horiz-adv-x="452" 
d="M162 1202q-15 0 -20.5 10t1.5 23l117 211q9 18 31 18h88q15 0 19.5 -9t-3.5 -23l-131 -211q-13 -19 -31 -19h-71zM178 0q-26 0 -26 27v983q0 26 26 26h92q27 0 27 -26v-983q0 -12 -7.5 -19.5t-19.5 -7.5h-92z" />
    <glyph glyph-name="icircumflex" unicode="&#xee;" horiz-adv-x="452" 
d="M-6 1188q-17 0 -21.5 10.5t4.5 22.5l160 209q11 16 33 16h96q22 0 33 -16l162 -209q9 -12 4.5 -22.5t-21.5 -10.5h-65q-20 0 -33 16l-119 164q-7 10 -14 0l-121 -164q-13 -16 -33 -16h-65zM178 0q-26 0 -26 27v983q0 26 26 26h92q27 0 27 -26v-983q0 -12 -7.5 -19.5
t-19.5 -7.5h-92z" />
    <glyph glyph-name="idieresis" unicode="&#xef;" horiz-adv-x="587" 
d="M119 1249q-43 0 -71 26.5t-28 67.5t28 69t71 28q41 0 67.5 -27.5t26.5 -69.5q0 -41 -26.5 -67.5t-67.5 -26.5zM463 1249q-43 0 -69.5 26.5t-26.5 67.5q0 42 27 69.5t69 27.5t69 -27.5t27 -69.5q0 -41 -26.5 -67.5t-69.5 -26.5zM252 0q-12 0 -19.5 7.5t-7.5 19.5v983
q0 26 27 26h92q27 0 27 -26v-983q0 -12 -7.5 -19.5t-19.5 -7.5h-92z" />
    <glyph glyph-name="eth" unicode="&#xf0;" horiz-adv-x="1077" 
d="M928 727q14 -92 14 -227q0 -176 -20 -244q-36 -122 -141.5 -197t-250.5 -75q-144 0 -247 74t-140 198q-22 73 -22 244q0 164 22 241q27 101 104.5 167.5t188.5 76.5q79 12 165 -3.5t138 -55.5q5 -5 7 -3.5t-1 7.5q-39 118 -133 237q-7 7 -14 4l-180 -53q-27 -9 -33 19
l-10 34q-7 27 18 33l137 39q12 4 5 14q-49 53 -152 144q-14 12 -10.5 22.5t22.5 10.5h101q17 0 32 -15q86 -82 129 -129q8 -8 15 -4l151 45q27 9 33 -18l10 -35q6 -24 -18 -33l-107 -31q-11 -4 -6 -12q81 -99 130.5 -212.5t62.5 -262.5zM782 295q13 53 13 201q0 145 -13 196
q-21 89 -88 143t-164 54q-96 0 -162 -53.5t-87 -143.5q-13 -53 -13 -196q0 -150 15 -201q19 -89 84.5 -143t162.5 -54q96 0 163.5 54.5t88.5 142.5z" />
    <glyph glyph-name="ntilde" unicode="&#xf1;" horiz-adv-x="1103" 
d="M469 1303q-30 0 -51.5 -11t-44.5 -39q-19 -22 -39 -8l-29 21q-21 14 -8 37q61 102 164 102q24 0 48.5 -8t37.5 -15.5t39 -23.5q2 -1 12 -7t13 -8t12 -7t13.5 -7t12 -5.5t13 -5t12 -2.5t12.5 -1q58 0 96 55q15 21 37 8l31 -18q21 -15 8 -37q-31 -57 -78 -84t-92 -27
q-55 0 -127 50q-22 16 -32.5 22.5t-26.5 12.5t-33 6zM594 1051q161 0 258.5 -97t97.5 -258v-669q0 -27 -26 -27h-93q-26 0 -26 27v641q0 114 -67.5 185t-176.5 71q-104 0 -172.5 -59t-79.5 -156v-682q0 -27 -26 -27h-93q-26 0 -26 27v983q0 26 26 26h93q26 0 26 -26v-76
q0 -8 5 -10q3 -1 5 4q88 123 275 123z" />
    <glyph glyph-name="ograve" unicode="&#xf2;" horiz-adv-x="1118" 
d="M600 1231q8 -13 2.5 -23t-20.5 -10h-72q-18 0 -31 19l-131 210q-8 13 -3 23t20 10h88q21 0 30 -18zM561 -16q-150 0 -255.5 75.5t-145.5 208.5q-29 99 -29 252q0 151 27 250q40 132 146 207.5t257 75.5q147 0 253 -75.5t144 -205.5q29 -102 29 -252q0 -153 -29 -252
q-40 -132 -145.5 -208t-251.5 -76zM561 111q98 0 167.5 53.5t94.5 146.5q17 69 17 207q0 143 -17 207q-24 92 -94.5 146.5t-171.5 54.5q-98 0 -167.5 -54.5t-94.5 -146.5q-16 -60 -16 -207t16 -207q23 -93 93.5 -146.5t172.5 -53.5z" />
    <glyph glyph-name="oacute" unicode="&#xf3;" horiz-adv-x="1118" 
d="M498 1198q-15 0 -20.5 10t1.5 23l117 211q9 18 31 18h88q15 0 19.5 -10t-3.5 -23l-131 -210q-13 -19 -31 -19h-71zM561 -16q-150 0 -255.5 75.5t-145.5 208.5q-29 99 -29 252q0 151 27 250q40 132 146 207.5t257 75.5q147 0 253 -75.5t144 -205.5q29 -102 29 -252
q0 -153 -29 -252q-40 -132 -145.5 -208t-251.5 -76zM561 111q98 0 167.5 53.5t94.5 146.5q17 69 17 207q0 143 -17 207q-24 92 -94.5 146.5t-171.5 54.5q-98 0 -167.5 -54.5t-94.5 -146.5q-16 -60 -16 -207t16 -207q23 -93 93.5 -146.5t172.5 -53.5z" />
    <glyph glyph-name="ocircumflex" unicode="&#xf4;" horiz-adv-x="1118" 
d="M330 1184q-17 0 -21.5 10.5t4.5 22.5l160 208q11 17 33 17h96q22 0 33 -17l162 -208q9 -12 4.5 -22.5t-21.5 -10.5h-65q-20 0 -33 16l-119 164q-7 10 -14 0l-121 -164q-13 -16 -33 -16h-65zM561 -16q-150 0 -255.5 75.5t-145.5 208.5q-29 99 -29 252q0 151 27 250
q40 132 146 207.5t257 75.5q147 0 253 -75.5t144 -205.5q29 -102 29 -252q0 -153 -29 -252q-40 -132 -145.5 -208t-251.5 -76zM561 111q98 0 167.5 53.5t94.5 146.5q17 69 17 207q0 143 -17 207q-24 92 -94.5 146.5t-171.5 54.5q-98 0 -167.5 -54.5t-94.5 -146.5
q-16 -60 -16 -207t16 -207q23 -93 93.5 -146.5t172.5 -53.5z" />
    <glyph glyph-name="otilde" unicode="&#xf5;" horiz-adv-x="1118" 
d="M690 1229q-57 0 -127 49q-22 16 -32.5 22.5t-26.5 12.5t-33 6q-31 0 -52.5 -10.5t-43.5 -38.5q-19 -22 -39 -8l-29 20q-21 14 -8 37q61 102 164 102q24 0 48.5 -8t37.5 -15.5t39 -23.5q2 -1 12 -7t13 -8t12 -7t13.5 -7t12 -5.5t13 -5t12 -2.5t12.5 -1q58 0 96 55
q15 21 37 9l31 -19q22 -16 0 -51q-33 -49 -77 -72.5t-85 -23.5zM561 -16q-150 0 -255.5 75.5t-145.5 208.5q-29 99 -29 252q0 151 27 250q40 132 146 207.5t257 75.5q147 0 253 -75.5t144 -205.5q29 -102 29 -252q0 -153 -29 -252q-40 -132 -145.5 -208t-251.5 -76zM561 111
q98 0 167.5 53.5t94.5 146.5q17 69 17 207q0 143 -17 207q-24 92 -94.5 146.5t-171.5 54.5q-98 0 -167.5 -54.5t-94.5 -146.5q-16 -60 -16 -207t16 -207q23 -93 93.5 -146.5t172.5 -53.5z" />
    <glyph glyph-name="odieresis" unicode="&#xf6;" horiz-adv-x="1118" 
d="M385 1245q-43 0 -70.5 26.5t-27.5 67.5t27.5 69t70.5 28q41 0 67.5 -27.5t26.5 -69.5q0 -41 -26.5 -67.5t-67.5 -26.5zM729 1245q-43 0 -69.5 26.5t-26.5 67.5q0 42 27 69.5t69 27.5t69 -27.5t27 -69.5q0 -41 -26.5 -67.5t-69.5 -26.5zM561 -16q-150 0 -255.5 75.5
t-145.5 208.5q-29 99 -29 252q0 151 27 250q40 132 146 207.5t257 75.5q147 0 253 -75.5t144 -205.5q29 -102 29 -252q0 -153 -29 -252q-40 -132 -145.5 -208t-251.5 -76zM561 111q98 0 167.5 53.5t94.5 146.5q17 69 17 207q0 143 -17 207q-24 92 -94.5 146.5t-171.5 54.5
q-98 0 -167.5 -54.5t-94.5 -146.5q-16 -60 -16 -207t16 -207q23 -93 93.5 -146.5t172.5 -53.5z" />
    <glyph glyph-name="divide" unicode="&#xf7;" horiz-adv-x="1024" 
d="M510 901q-44 0 -75.5 31.5t-31.5 77.5q0 42 32 73t75 31t75.5 -31t32.5 -73q0 -45 -32.5 -77t-75.5 -32zM106 602q-26 0 -26 27v73q0 27 26 27h812q26 0 26 -27v-73q0 -27 -26 -27h-812zM510 252q-44 0 -75.5 31t-31.5 75q0 43 32 75t75 32t75.5 -32t32.5 -75
q0 -44 -32.5 -75t-75.5 -31z" />
    <glyph glyph-name="oslash" unicode="&#xf8;" horiz-adv-x="1130" 
d="M971 772q28 -98 28 -252q0 -157 -28 -252q-40 -132 -146 -208t-252 -76q-143 0 -247 69q-8 5 -15 -2l-67 -102q-13 -23 -37 -6l-55 39q-20 14 -7 36l82 121q4 9 -2 15q-31 48 -53 114q-29 99 -29 252q0 151 27 250q40 132 146 207.5t257 75.5q117 0 213 -52q8 -3 15 5
l57 88q13 23 37 6l55 -39q19 -14 6 -37l-63 -94q-4 -9 2 -15q54 -67 76 -143zM307 311q1 -3 2 -9t2 -9q7 -14 15 -2l389 588q8 8 -4 12q-62 35 -142 35q-98 0 -167.5 -54.5t-94.5 -146.5q-16 -60 -16 -207t16 -207zM836 311q16 65 16 207q0 147 -16 207q-5 29 -23 61
q-8 12 -14 0l-402 -606q-8 -8 2 -14q71 -55 174 -55q98 0 168 53.5t95 146.5z" />
    <glyph glyph-name="ugrave" unicode="&#xf9;" horiz-adv-x="1097" 
d="M588 1214q7 -14 1.5 -23t-20.5 -9h-71q-19 0 -31 18l-131 211q-8 13 -3.5 23t19.5 10h88q22 0 31 -19zM791 1010q0 26 26 26h92q27 0 27 -26v-983q0 -12 -7.5 -19.5t-19.5 -7.5h-92q-26 0 -26 27v77q0 6 -4.5 8.5t-8.5 -3.5q-87 -123 -270 -123q-153 0 -257 90t-104 248
v686q0 26 27 26h92q27 0 27 -26v-643q0 -116 65.5 -185t178.5 -69q116 0 185 69.5t69 184.5v643z" />
    <glyph glyph-name="uacute" unicode="&#xfa;" horiz-adv-x="1097" 
d="M702 1444q15 0 20 -10t-3 -23l-131 -211q-12 -18 -31 -18h-72q-15 0 -20 9t2 23l117 211q10 19 30 19h88zM791 1010q0 26 26 26h92q27 0 27 -26v-983q0 -12 -7.5 -19.5t-19.5 -7.5h-92q-26 0 -26 27v77q0 6 -4.5 8.5t-8.5 -3.5q-87 -123 -270 -123q-153 0 -257 90
t-104 248v686q0 26 27 26h92q27 0 27 -26v-643q0 -116 65.5 -185t178.5 -69q116 0 185 69.5t69 184.5v643z" />
    <glyph glyph-name="ucircumflex" unicode="&#xfb;" horiz-adv-x="1097" 
d="M551 1348q-7 10 -14 0l-121 -164q-14 -17 -33 -17h-66q-17 0 -21.5 10.5t5.5 22.5l160 209q11 16 33 16h96q22 0 33 -16l161 -209q10 -12 5.5 -22.5t-21.5 -10.5h-66q-18 0 -32 17zM791 1010q0 26 26 26h92q27 0 27 -26v-983q0 -12 -7.5 -19.5t-19.5 -7.5h-92
q-26 0 -26 27v77q0 6 -4.5 8.5t-8.5 -3.5q-87 -123 -270 -123q-153 0 -257 90t-104 248v686q0 26 27 26h92q27 0 27 -26v-643q0 -116 65.5 -185t178.5 -69q116 0 185 69.5t69 184.5v643z" />
    <glyph glyph-name="udieresis" unicode="&#xfc;" horiz-adv-x="1097" 
d="M373 1229q-43 0 -71 26.5t-28 67.5t28 68.5t71 27.5q41 0 67.5 -27.5t26.5 -68.5t-26.5 -67.5t-67.5 -26.5zM717 1229q-43 0 -69.5 26.5t-26.5 67.5q0 42 27 69t69 27t69 -27t27 -69q0 -41 -26.5 -67.5t-69.5 -26.5zM791 1010q0 26 26 26h92q27 0 27 -26v-983
q0 -12 -7.5 -19.5t-19.5 -7.5h-92q-26 0 -26 27v77q0 6 -4.5 8.5t-8.5 -3.5q-87 -123 -270 -123q-153 0 -257 90t-104 248v686q0 26 27 26h92q27 0 27 -26v-643q0 -116 65.5 -185t178.5 -69q116 0 185 69.5t69 184.5v643z" />
    <glyph glyph-name="yacute" unicode="&#xfd;" horiz-adv-x="944" 
d="M412 1190q-15 0 -20.5 10t1.5 23l117 211q9 18 31 18h88q15 0 19.5 -10t-3.5 -23l-131 -211q-12 -18 -31 -18h-71zM117 -410q-15 0 -15 27v72q0 26 15 26h14q115 0 165 53t103 226q2 5 0 12l-344 1000q-4 13 2.5 21.5t20.5 8.5h96q25 0 31 -22l264 -803q1 -5 3.5 -7t5 0
t3.5 7l258 803q5 22 29 22h98q14 0 20.5 -8.5t2.5 -21.5l-377 -1096q-29 -83 -53.5 -134.5t-54 -90.5t-68.5 -58.5t-86.5 -28t-118.5 -8.5h-14z" />
    <glyph glyph-name="thorn" unicode="&#xfe;" horiz-adv-x="1097" 
d="M950 772q25 -88 25 -254q0 -169 -29 -260q-38 -127 -135 -200.5t-240 -73.5q-154 0 -249 112q-4 4 -8.5 2t-4.5 -8v-473q0 -27 -26 -27h-93q-26 0 -26 27v1790q0 27 26 27h93q26 0 26 -27v-459q0 -6 4.5 -8t8.5 2q94 111 249 111q146 0 243.5 -75t135.5 -206zM793 270
q36 79 36 248q0 101 -11 157.5t-36 100.5q-27 68 -86.5 109t-140.5 41q-79 0 -134 -41.5t-81 -112.5q-24 -55 -31 -119v-274q8 -65 29 -111q26 -72 81.5 -114.5t137.5 -42.5q86 0 148.5 42.5t87.5 116.5z" />
    <glyph glyph-name="ydieresis" unicode="&#xff;" horiz-adv-x="944" 
d="M299 1237q-43 0 -70.5 26.5t-27.5 67.5t27.5 68.5t70.5 27.5q41 0 67.5 -27.5t26.5 -68.5t-26.5 -67.5t-67.5 -26.5zM643 1237q-43 0 -69.5 26.5t-26.5 67.5q0 42 27 69t69 27t69 -27t27 -69q0 -41 -26.5 -67.5t-69.5 -26.5zM117 -410q-15 0 -15 27v72q0 26 15 26h14
q115 0 165 53t103 226q2 5 0 12l-344 1000q-4 13 2.5 21.5t20.5 8.5h96q25 0 31 -22l264 -803q1 -5 3.5 -7t5 0t3.5 7l258 803q5 22 29 22h98q14 0 20.5 -8.5t2.5 -21.5l-377 -1096q-29 -83 -53.5 -134.5t-54 -90.5t-68.5 -58.5t-86.5 -28t-118.5 -8.5h-14z" />
    <glyph glyph-name="Amacron" unicode="&#x100;" horiz-adv-x="1243" 
d="M868 1718q27 0 27 -26v-52q0 -26 -27 -26h-497q-27 0 -27 26v52q0 26 27 26h497zM1047 0q-23 0 -29 23l-82 249q-4 9 -10 9h-611q-5 0 -10 -9l-80 -249q-6 -23 -28 -23h-99q-14 0 -20 9t-2 22l450 1380q6 23 29 23h131q23 0 29 -23l452 -1380q4 -13 -2 -22t-20 -9h-98z
M350 412q-3 -13 8 -13h527q11 0 8 13l-266 837q-1 5 -4 7t-5.5 0t-3.5 -7z" />
    <glyph glyph-name="amacron" unicode="&#x101;" horiz-adv-x="1046" 
d="M774 1337q27 0 27 -26v-51q0 -12 -7.5 -19.5t-19.5 -7.5h-498q-26 0 -26 27v51q0 26 26 26h498zM522 1053q184 0 285.5 -94t101.5 -250v-682q0 -27 -26 -27h-92q-12 0 -19.5 7.5t-7.5 19.5v73q0 6 -4 8t-8 -4q-114 -120 -320 -120q-68 0 -127 17t-107 51.5t-76 93.5
t-28 137q0 154 111.5 242.5t310.5 88.5h238q10 0 10 11v75q0 105 -59 165.5t-181 60.5q-95 0 -156 -37t-79 -103q-6 -23 -31 -20l-100 12q-13 2 -19.5 7.5t-5.5 15.5q20 113 126 182.5t263 69.5zM465 109q121 0 210 60.5t89 162.5v157q0 11 -10 11h-215q-136 0 -217.5 -55.5
t-81.5 -153.5q0 -90 63 -136t162 -46z" />
    <glyph glyph-name="Abreve" unicode="&#x102;" horiz-adv-x="1243" 
d="M618 1540q-86 0 -149 54.5t-74 136.5q-1 12 6 19t19 7h37q23 0 26 -24q9 -50 46.5 -82.5t88.5 -32.5q49 0 87 32.5t47 82.5q3 24 26 24h39q12 0 19 -7t6 -19q-9 -82 -73.5 -136.5t-150.5 -54.5zM1047 0q-23 0 -29 23l-82 249q-4 9 -10 9h-611q-5 0 -10 -9l-80 -249
q-6 -23 -28 -23h-99q-14 0 -20 9t-2 22l450 1380q6 23 29 23h131q23 0 29 -23l452 -1380q4 -13 -2 -22t-20 -9h-98zM350 412q-3 -13 8 -13h527q11 0 8 13l-266 837q-1 5 -4 7t-5.5 0t-3.5 -7z" />
    <glyph glyph-name="abreve" unicode="&#x103;" horiz-adv-x="1046" 
d="M524 1159q-86 0 -149 54.5t-74 136.5q-1 12 6 19t19 7h36q24 0 27 -24q9 -50 46.5 -82.5t88.5 -32.5q49 0 86.5 32.5t46.5 82.5q3 24 27 24h39q12 0 19 -7t6 -19q-9 -82 -73.5 -136.5t-150.5 -54.5zM522 1053q184 0 285.5 -94t101.5 -250v-682q0 -27 -26 -27h-92
q-12 0 -19.5 7.5t-7.5 19.5v73q0 6 -4 8t-8 -4q-114 -120 -320 -120q-68 0 -127 17t-107 51.5t-76 93.5t-28 137q0 154 111.5 242.5t310.5 88.5h238q10 0 10 11v75q0 105 -59 165.5t-181 60.5q-95 0 -156 -37t-79 -103q-6 -23 -31 -20l-100 12q-13 2 -19.5 7.5t-5.5 15.5
q20 113 126 182.5t263 69.5zM465 109q121 0 210 60.5t89 162.5v157q0 11 -10 11h-215q-136 0 -217.5 -55.5t-81.5 -153.5q0 -90 63 -136t162 -46z" />
    <glyph glyph-name="Aogonek" unicode="&#x104;" horiz-adv-x="1296" 
d="M1159 -287q28 7 31 -20l6 -33q3 -25 -20 -31q-37 -9 -74.5 -9.5t-75 9t-66.5 38.5t-40 75q-33 132 116 250q8 8 -2 10q-12 3 -16 21l-82 249q-4 9 -10 9h-611q-5 0 -10 -9l-80 -249q-6 -23 -28 -23h-99q-14 0 -20 9t-2 22l450 1380q6 23 29 23h131q23 0 29 -23l452 -1380
q10 -31 0 -31h-6q-4 0 -12 -4q-66 -50 -102 -105.5t-25 -107.5q6 -32 27 -50.5t49 -21.5t61 2zM350 412q-3 -13 8 -13h527q11 0 8 13l-266 837q-1 5 -4 7t-5.5 0t-3.5 -7z" />
    <glyph glyph-name="aogonek" unicode="&#x105;" horiz-adv-x="1228" 
d="M920 -287q27 7 30 -20l6 -33q3 -25 -20 -31q-37 -9 -74.5 -9.5t-75 9t-66.5 38.5t-40 75q-33 130 111 246q13 10 8 12h-8q-12 0 -19.5 7.5t-7.5 19.5v73q0 6 -4 8t-8 -4q-114 -120 -320 -120q-68 0 -127 17t-107 51.5t-76 93.5t-28 137q0 154 111.5 242.5t310.5 88.5h238
q10 0 10 11v75q0 105 -59 165.5t-181 60.5q-95 0 -156 -37t-79 -103q-6 -23 -31 -20l-100 12q-29 4 -23 29q24 110 128 178t259 68q184 0 285.5 -94t101.5 -250v-703q0 -8 -4 -12q-3 -2 -28 -27q-114 -99 -95 -184q6 -32 27 -50.5t49.5 -21.5t61.5 2zM465 109
q121 0 210 60.5t89 162.5v157q0 11 -10 11h-215q-136 0 -217.5 -55.5t-81.5 -153.5q0 -90 63 -136t162 -46z" />
    <glyph glyph-name="Cacute" unicode="&#x106;" horiz-adv-x="1243" 
d="M569 1595q-15 0 -20.5 9.5t2.5 23.5l117 211q10 19 30 19h88q15 0 20 -10t-3 -23l-131 -211q-13 -19 -31 -19h-72zM629 -18q-217 0 -349.5 125t-132.5 329v563q0 203 132.5 327t349.5 124t349 -121.5t132 -320.5q0 -20 -27 -23l-92 -6q-26 -3 -26 12v13q0 145 -92 232
t-244 87q-151 0 -243.5 -87.5t-92.5 -231.5v-574q0 -144 92.5 -231.5t243.5 -87.5q152 0 244 87t92 232q0 26 26 23l92 -4q27 0 27 -11v-10q0 -201 -132 -323.5t-349 -122.5z" />
    <glyph glyph-name="cacute" unicode="&#x107;" horiz-adv-x="1064" 
d="M494 1198q-15 0 -20.5 10t1.5 23l117 211q9 18 31 18h88q15 0 19.5 -10t-3.5 -23l-131 -210q-13 -19 -31 -19h-71zM555 -16q-149 0 -253.5 76.5t-143.5 207.5q-27 94 -27 254q0 144 27 250q37 128 143.5 204.5t253.5 76.5q150 0 259.5 -76t141.5 -189q10 -33 13 -55
q3 -27 -25 -31l-90 -10q-25 -3 -31 23q0 8 -4 24q-18 79 -90 133t-174 54t-170.5 -54.5t-89.5 -144.5q-19 -82 -19 -207q0 -131 19 -209q21 -91 89.5 -145.5t170.5 -54.5q101 0 172.5 52t89.5 132q2 4 2 10l2 2q3 27 31 23l88 -15q28 -3 25 -30q-7 -28 -9 -35
q-31 -119 -141 -192.5t-260 -73.5z" />
    <glyph glyph-name="Cdotaccent" unicode="&#x10a;" horiz-adv-x="1243" 
d="M629 1614q-41 0 -67.5 25t-26.5 65q0 39 26.5 64.5t67.5 25.5q38 0 63 -26t25 -64q0 -40 -25 -65t-63 -25zM629 -18q-217 0 -349.5 125t-132.5 329v563q0 203 132.5 327t349.5 124t349 -121.5t132 -320.5q0 -20 -27 -23l-92 -6q-26 -3 -26 12v13q0 145 -92 232t-244 87
q-151 0 -243.5 -87.5t-92.5 -231.5v-574q0 -144 92.5 -231.5t243.5 -87.5q152 0 244 87t92 232q0 26 26 23l92 -4q27 0 27 -11v-10q0 -201 -132 -323.5t-349 -122.5z" />
    <glyph glyph-name="cdotaccent" unicode="&#x10b;" horiz-adv-x="1064" 
d="M553 1217q-41 0 -67.5 25t-26.5 65q0 39 26.5 64.5t67.5 25.5q38 0 63 -26t25 -64q0 -40 -25 -65t-63 -25zM555 -16q-149 0 -253.5 76.5t-143.5 207.5q-27 94 -27 254q0 144 27 250q37 128 143.5 204.5t253.5 76.5q150 0 259.5 -76t141.5 -189q10 -33 13 -55
q3 -27 -25 -31l-90 -10q-25 -3 -31 23q0 8 -4 24q-18 79 -90 133t-174 54t-170.5 -54.5t-89.5 -144.5q-19 -82 -19 -207q0 -131 19 -209q21 -91 89.5 -145.5t170.5 -54.5q101 0 172.5 52t89.5 132q2 4 2 10l2 2q3 27 31 23l88 -15q28 -3 25 -30q-7 -28 -9 -35
q-31 -119 -141 -192.5t-260 -73.5z" />
    <glyph glyph-name="Ccaron" unicode="&#x10c;" horiz-adv-x="1243" 
d="M573 1575q-19 0 -32 16l-152 209q-9 14 -3.5 23.5t20.5 9.5h61q20 0 33 -16l121 -164q7 -11 14 0l121 164q13 16 32 16h62q15 0 20 -9.5t-4 -23.5l-153 -209q-13 -16 -33 -16h-107zM629 -18q-217 0 -349.5 125t-132.5 329v563q0 203 132.5 327t349.5 124t349 -121.5
t132 -320.5q0 -20 -27 -23l-92 -6q-26 -3 -26 12v13q0 145 -92 232t-244 87q-151 0 -243.5 -87.5t-92.5 -231.5v-574q0 -144 92.5 -231.5t243.5 -87.5q152 0 244 87t92 232q0 26 26 23l92 -4q27 0 27 -11v-10q0 -201 -132 -323.5t-349 -122.5z" />
    <glyph glyph-name="ccaron" unicode="&#x10d;" horiz-adv-x="1064" 
d="M498 1178q-20 0 -33 16l-152 209q-9 13 -3.5 23t20.5 10h61q19 0 33 -17l121 -164q7 -11 14 0l121 164q14 17 33 17h61q15 0 20.5 -10t-3.5 -23l-154 -209q-13 -16 -33 -16h-106zM555 -16q-149 0 -253.5 76.5t-143.5 207.5q-27 94 -27 254q0 144 27 250
q37 128 143.5 204.5t253.5 76.5q150 0 259.5 -76t141.5 -189q10 -33 13 -55q3 -27 -25 -31l-90 -10q-25 -3 -31 23q0 8 -4 24q-18 79 -90 133t-174 54t-170.5 -54.5t-89.5 -144.5q-19 -82 -19 -207q0 -131 19 -209q21 -91 89.5 -145.5t170.5 -54.5q101 0 172.5 52t89.5 132
q2 4 2 10l2 2q3 27 31 23l88 -15q28 -3 25 -30q-7 -28 -9 -35q-31 -119 -141 -192.5t-260 -73.5z" />
    <glyph glyph-name="Dcaron" unicode="&#x10e;" horiz-adv-x="1265" 
d="M582 1552q-19 0 -33 17l-154 211q-9 14 -2.5 23t21.5 9h61q20 0 33 -16l121 -164q7 -10 14 0l121 164q13 16 33 16h61q15 0 20 -9t-4 -23l-153 -211q-14 -17 -33 -17h-106zM219 0q-26 0 -26 27v1380q0 27 26 27h477q203 0 323 -106.5t120 -289.5v-643q0 -182 -120 -288.5
t-323 -106.5h-477zM338 137q0 -10 10 -10h354q134 0 212.5 77.5t78.5 209.5v604q0 134 -78 211.5t-213 77.5h-354q-10 0 -10 -11v-1159z" />
    <glyph glyph-name="dcaron" unicode="&#x10f;" horiz-adv-x="1306" 
d="M1163 1425q9 19 31 19h88q15 0 19.5 -10t-3.5 -23l-131 -211q-12 -18 -30 -18h-72q-15 0 -20 9t2 23zM788 930q4 -6 8.5 -4t4.5 8v473q0 27 26 27h93q26 0 26 -27v-1380q0 -27 -26 -27h-93q-26 0 -26 27v77q0 6 -4.5 7.5t-8.5 -2.5q-92 -125 -260 -125q-143 0 -239.5 73
t-134.5 201q-29 91 -29 260q0 166 25 254q38 131 135 206t243 75q167 0 260 -123zM762 268q35 74 35 250q0 173 -37 254q-26 71 -81 112.5t-134 41.5q-81 0 -141 -41t-87 -109q-25 -44 -36 -100.5t-11 -157.5q0 -167 37 -248q25 -74 87.5 -116.5t148.5 -42.5
q82 0 137.5 42.5t81.5 114.5z" />
    <glyph glyph-name="Dcroat" unicode="&#x110;" horiz-adv-x="1398" 
d="M829 1434q203 0 323 -106.5t120 -289.5v-643q0 -182 -120 -288.5t-323 -106.5h-477q-26 0 -26 27v655q0 10 -11 10h-96q-26 0 -26 27v53q0 27 26 27h96q11 0 11 10v598q0 27 26 27h477zM1126 414v604q0 134 -77.5 211.5t-212.5 77.5h-355q-10 0 -10 -11v-487
q0 -10 10 -10h236q26 0 26 -27v-53q0 -27 -26 -27h-236q-10 0 -10 -10v-545q0 -10 10 -10h355q133 0 211.5 77.5t78.5 209.5z" />
    <glyph glyph-name="dcroat" unicode="&#x111;" horiz-adv-x="1228" 
d="M1075 1270q12 0 19.5 -7.5t7.5 -19.5v-43q0 -26 -27 -26h-119q-10 0 -10 -11v-1136q0 -27 -26 -27h-93q-26 0 -26 27v77q0 6 -4.5 7.5t-8.5 -2.5q-92 -125 -260 -125q-143 0 -239.5 73t-134.5 201q-29 91 -29 260q0 166 25 254q38 131 135 206t243 75q167 0 260 -123
q4 -6 8.5 -4t4.5 8v229q0 11 -10 11h-312q-26 0 -26 26v43q0 27 26 27h312q10 0 10 10v127q0 27 26 27h93q26 0 26 -27v-127q0 -10 10 -10h119zM762 268q35 74 35 250q0 173 -37 254q-26 71 -81 112.5t-134 41.5q-81 0 -141 -41t-87 -109q-25 -44 -36 -100.5t-11 -157.5
q0 -167 37 -248q25 -74 87.5 -116.5t148.5 -42.5q82 0 137.5 42.5t81.5 114.5z" />
    <glyph glyph-name="Emacron" unicode="&#x112;" horiz-adv-x="1239" 
d="M897 1741q12 0 19.5 -7.5t7.5 -19.5v-51q0 -12 -7.5 -19.5t-19.5 -7.5h-498q-26 0 -26 27v51q0 27 26 27h498zM1120 1333q0 -26 -26 -26h-746q-10 0 -10 -11v-501q0 -11 10 -11h520q27 0 27 -26v-74q0 -12 -7.5 -19.5t-19.5 -7.5h-520q-10 0 -10 -10v-510q0 -10 10 -10
h746q26 0 26 -27v-73q0 -27 -26 -27h-875q-26 0 -26 27v1380q0 27 26 27h875q26 0 26 -27v-74z" />
    <glyph glyph-name="emacron" unicode="&#x113;" horiz-adv-x="1093" 
d="M795 1337q26 0 26 -26v-51q0 -27 -26 -27h-498q-12 0 -19.5 7.5t-7.5 19.5v51q0 26 27 26h498zM567 109q185 3 262 153q5 11 14.5 14.5t20.5 -2.5l60 -32q24 -14 12 -35q-49 -103 -148 -163t-233 -60q-144 0 -242.5 67.5t-140.5 188.5q-39 102 -39 282q0 163 19 238
q34 134 139.5 213.5t255.5 79.5q177 0 278.5 -93t130.5 -260q13 -72 13 -204q0 -12 -7.5 -19.5t-19.5 -7.5h-655q-11 0 -11 -10q0 -100 13 -150q22 -91 95 -145.5t183 -54.5zM547 926q-101 0 -167 -52.5t-87 -140.5q-14 -46 -17 -139q0 -10 11 -10h526q10 0 10 10
q-3 89 -12 131q-22 92 -91.5 146.5t-172.5 54.5z" />
    <glyph glyph-name="Edotaccent" unicode="&#x116;" horiz-adv-x="1239" 
d="M647 1620q-41 0 -67.5 25t-26.5 65q0 39 26.5 64.5t67.5 25.5q38 0 63 -26t25 -64q0 -40 -25 -65t-63 -25zM1120 1333q0 -26 -26 -26h-746q-10 0 -10 -11v-501q0 -11 10 -11h520q27 0 27 -26v-74q0 -12 -7.5 -19.5t-19.5 -7.5h-520q-10 0 -10 -10v-510q0 -10 10 -10h746
q26 0 26 -27v-73q0 -27 -26 -27h-875q-26 0 -26 27v1380q0 27 26 27h875q26 0 26 -27v-74z" />
    <glyph glyph-name="edotaccent" unicode="&#x117;" horiz-adv-x="1093" 
d="M545 1217q-41 0 -67.5 25t-26.5 65q0 39 26.5 64.5t67.5 25.5q38 0 63 -26t25 -64q0 -40 -25 -65t-63 -25zM567 109q185 3 262 153q5 11 14.5 14.5t20.5 -2.5l60 -32q24 -14 12 -35q-49 -103 -148 -163t-233 -60q-144 0 -242.5 67.5t-140.5 188.5q-39 102 -39 282
q0 163 19 238q34 134 139.5 213.5t255.5 79.5q177 0 278.5 -93t130.5 -260q13 -72 13 -204q0 -12 -7.5 -19.5t-19.5 -7.5h-655q-11 0 -11 -10q0 -100 13 -150q22 -91 95 -145.5t183 -54.5zM547 926q-101 0 -167 -52.5t-87 -140.5q-14 -46 -17 -139q0 -10 11 -10h526
q10 0 10 10q-3 89 -12 131q-22 92 -91.5 146.5t-172.5 54.5z" />
    <glyph glyph-name="Eogonek" unicode="&#x118;" horiz-adv-x="1239" 
d="M1120 1333q0 -26 -26 -26h-746q-10 0 -10 -11v-501q0 -11 10 -11h520q27 0 27 -26v-74q0 -12 -7.5 -19.5t-19.5 -7.5h-520q-10 0 -10 -10v-510q0 -10 10 -10h746q26 0 26 -27v-73q0 -27 -26 -27h-377q-4 0 -12 -4q-126 -106 -107 -197q8 -46 46.5 -62.5t90.5 -6.5
q28 7 31 -21l6 -33q3 -24 -20 -30q-37 -9 -74.5 -10t-75 8.5t-66.5 38.5t-40 75q-30 119 92 230q3 3 3.5 6t-1.5 4.5t-6 1.5h-365q-26 0 -26 27v1380q0 27 26 27h875q26 0 26 -27v-74z" />
    <glyph glyph-name="eogonek" unicode="&#x119;" horiz-adv-x="1093" 
d="M567 109q185 3 262 153q5 11 14.5 14.5t20.5 -2.5l60 -32q24 -14 12 -35q-44 -91 -125.5 -149.5t-192.5 -71.5q-4 0 -12 -4q-134 -107 -112 -201q6 -32 27 -50.5t49 -21.5t61 2q28 7 31 -20l6 -33q3 -25 -21 -31q-37 -9 -74.5 -9.5t-75 9t-66.5 38.5t-40 75
q-32 119 101 235q9 9 -5 13q-118 15 -197.5 80.5t-117.5 171.5q-39 102 -39 282q0 163 19 238q34 134 139.5 213.5t255.5 79.5q177 0 278.5 -93t130.5 -260q13 -72 13 -204q0 -12 -7.5 -19.5t-19.5 -7.5h-655q-11 0 -11 -10q0 -100 13 -150q22 -91 95 -145.5t183 -54.5z
M547 926q-101 0 -167 -52.5t-87 -140.5q-14 -46 -17 -139q0 -10 11 -10h526q10 0 10 10q-3 89 -12 131q-22 92 -91.5 146.5t-172.5 54.5z" />
    <glyph glyph-name="Ecaron" unicode="&#x11a;" horiz-adv-x="1239" 
d="M731 1597q-13 -16 -33 -16h-106q-20 0 -33 16l-151 209q-9 14 -4 23.5t20 9.5h61q20 0 33 -16l121 -164q7 -11 14 0l121 164q13 16 33 16h61q15 0 20.5 -9.5t-3.5 -23.5zM1120 1333q0 -26 -26 -26h-746q-10 0 -10 -11v-501q0 -11 10 -11h520q27 0 27 -26v-74
q0 -12 -7.5 -19.5t-19.5 -7.5h-520q-10 0 -10 -10v-510q0 -10 10 -10h746q26 0 26 -27v-73q0 -27 -26 -27h-875q-26 0 -26 27v1380q0 27 26 27h875q26 0 26 -27v-74z" />
    <glyph glyph-name="ecaron" unicode="&#x11b;" horiz-adv-x="1093" 
d="M629 1178q-14 -17 -33 -17h-107q-18 0 -32 17l-154 211q-9 13 -2.5 22.5t21.5 9.5h61q20 0 33 -16l121 -164q7 -11 14 0l121 164q13 16 33 16h61q15 0 20 -9.5t-4 -22.5zM567 109q185 3 262 153q5 11 14.5 14.5t20.5 -2.5l60 -32q24 -14 12 -35q-49 -103 -148 -163
t-233 -60q-144 0 -242.5 67.5t-140.5 188.5q-39 102 -39 282q0 163 19 238q34 134 139.5 213.5t255.5 79.5q177 0 278.5 -93t130.5 -260q13 -72 13 -204q0 -12 -7.5 -19.5t-19.5 -7.5h-655q-11 0 -11 -10q0 -100 13 -150q22 -91 95 -145.5t183 -54.5zM547 926
q-101 0 -167 -52.5t-87 -140.5q-14 -46 -17 -139q0 -10 11 -10h526q10 0 10 10q-3 89 -12 131q-22 92 -91.5 146.5t-172.5 54.5z" />
    <glyph glyph-name="Gbreve" unicode="&#x11e;" horiz-adv-x="1241" 
d="M627 1556q-86 0 -149.5 54.5t-74.5 136.5q-1 12 6 19.5t19 7.5h37q24 0 27 -25q9 -50 46.5 -82.5t88.5 -32.5q49 0 86.5 32.5t46.5 82.5q3 25 26 25h39q12 0 19 -7.5t6 -19.5q-9 -82 -73 -136.5t-150 -54.5zM629 -16q-216 0 -349 124.5t-133 325.5v565q0 203 132.5 327
t349.5 124q215 0 347 -121.5t132 -312.5v-21q0 -26 -27 -26h-92q-26 0 -26 22v23q0 138 -91.5 223.5t-242.5 85.5t-243.5 -87.5t-92.5 -231.5v-574q0 -144 94.5 -231.5t247.5 -87.5q150 0 239 81.5t89 219.5v184q0 10 -11 10h-293q-26 0 -26 27v74q0 26 26 26h422
q27 0 27 -26v-258q0 -220 -129.5 -342.5t-349.5 -122.5z" />
    <glyph glyph-name="gbreve" unicode="&#x11f;" horiz-adv-x="1095" 
d="M565 1161q-86 0 -149 54.5t-74 136.5q-1 12 6 19t19 7h36q24 0 27 -24q9 -50 46.5 -82.5t88.5 -32.5q49 0 86.5 32.5t46.5 82.5q3 24 27 24h39q27 0 24 -26q-9 -82 -73 -136.5t-150 -54.5zM803 1010q0 26 26 26h93q26 0 26 -26v-975q0 -126 -41.5 -216.5t-118.5 -141
t-176.5 -70.5t-224.5 -13q-27 3 -27 29l5 82q0 28 26 25q217 -9 314.5 64t97.5 245v72q0 6 -3.5 8t-8.5 -4q-92 -121 -267 -121q-132 0 -235 71.5t-139 202.5q-25 87 -25 250q0 180 27 262q36 123 132.5 198t231.5 75q179 0 275 -117q5 -6 8.5 -4t3.5 8v70zM793 313
q10 49 10 207t-12 207q-16 87 -81 143t-163 56q-97 0 -163.5 -55.5t-92.5 -143.5q-21 -68 -21 -205q0 -146 21 -207q21 -87 89.5 -142.5t166.5 -55.5q101 0 165.5 56t80.5 140z" />
    <glyph glyph-name="Gdotaccent" unicode="&#x120;" horiz-adv-x="1241" 
d="M627 1614q-41 0 -68 25t-27 65q0 38 27 64t68 26q38 0 63 -26t25 -64q0 -40 -25 -65t-63 -25zM629 -16q-216 0 -349 124.5t-133 325.5v565q0 203 132.5 327t349.5 124q215 0 347 -121.5t132 -312.5v-21q0 -26 -27 -26h-92q-26 0 -26 22v23q0 138 -91.5 223.5t-242.5 85.5
t-243.5 -87.5t-92.5 -231.5v-574q0 -144 94.5 -231.5t247.5 -87.5q150 0 239 81.5t89 219.5v184q0 10 -11 10h-293q-26 0 -26 27v74q0 26 26 26h422q27 0 27 -26v-258q0 -220 -129.5 -342.5t-349.5 -122.5z" />
    <glyph glyph-name="gdotaccent" unicode="&#x121;" horiz-adv-x="1095" 
d="M565 1219q-41 0 -67.5 25t-26.5 65q0 39 26.5 64.5t67.5 25.5q38 0 63 -26t25 -64q0 -40 -25 -65t-63 -25zM803 1010q0 26 26 26h93q26 0 26 -26v-975q0 -126 -41.5 -216.5t-118.5 -141t-176.5 -70.5t-224.5 -13q-27 3 -27 29l5 82q0 28 26 25q217 -9 314.5 64t97.5 245
v72q0 6 -3.5 8t-8.5 -4q-92 -121 -267 -121q-132 0 -235 71.5t-139 202.5q-25 87 -25 250q0 180 27 262q36 123 132.5 198t231.5 75q179 0 275 -117q5 -6 8.5 -4t3.5 8v70zM793 313q10 49 10 207t-12 207q-16 87 -81 143t-163 56q-97 0 -163.5 -55.5t-92.5 -143.5
q-21 -68 -21 -205q0 -146 21 -207q21 -87 89.5 -142.5t166.5 -55.5q101 0 165.5 56t80.5 140z" />
    <glyph glyph-name="uni0122" unicode="&#x122;" horiz-adv-x="1241" 
d="M629 -16q-216 0 -349 124.5t-133 325.5v565q0 203 132.5 327t349.5 124q215 0 347 -121.5t132 -312.5v-21q0 -26 -27 -26h-92q-26 0 -26 22v23q0 138 -91.5 223.5t-242.5 85.5t-243.5 -87.5t-92.5 -231.5v-574q0 -144 94.5 -231.5t247.5 -87.5q150 0 239 81.5t89 219.5
v184q0 10 -11 10h-293q-26 0 -26 27v74q0 26 26 26h422q27 0 27 -26v-258q0 -220 -129.5 -342.5t-349.5 -122.5zM508 -395q-15 0 -20.5 9.5t1.5 23.5l117 210q10 19 31 19h88q15 0 19.5 -9.5t-3.5 -23.5l-131 -211q-12 -18 -30 -18h-72z" />
    <glyph glyph-name="uni0123" unicode="&#x123;" horiz-adv-x="1095" 
d="M684 1434q15 0 20.5 -10t-2.5 -23l-116 -211q-10 -19 -31 -19h-88q-15 0 -19.5 9.5t3.5 23.5l131 211q13 19 30 19h72zM803 1010q0 26 26 26h93q26 0 26 -26v-975q0 -126 -41.5 -216.5t-118.5 -141t-176.5 -70.5t-224.5 -13q-27 3 -27 29l5 82q0 28 26 25
q217 -9 314.5 64t97.5 245v72q0 6 -3.5 8t-8.5 -4q-92 -121 -267 -121q-132 0 -235 71.5t-139 202.5q-25 87 -25 250q0 180 27 262q36 123 132.5 198t231.5 75q179 0 275 -117q5 -6 8.5 -4t3.5 8v70zM793 313q10 49 10 207t-12 207q-16 87 -81 143t-163 56
q-97 0 -163.5 -55.5t-92.5 -143.5q-21 -68 -21 -205q0 -146 21 -207q21 -87 89.5 -142.5t166.5 -55.5q101 0 165.5 56t80.5 140z" />
    <glyph glyph-name="Hbar" unicode="&#x126;" horiz-adv-x="1339" 
d="M1251 1145q12 0 19.5 -7.5t7.5 -19.5v-51q0 -12 -7.5 -19.5t-19.5 -7.5h-88q-10 0 -10 -10v-1003q0 -12 -7.5 -19.5t-19.5 -7.5h-92q-26 0 -26 27v620q0 10 -11 10h-649q-10 0 -10 -10v-620q0 -12 -7.5 -19.5t-19.5 -7.5h-92q-26 0 -26 27v1003q0 10 -11 10h-88
q-26 0 -26 27v51q0 27 26 27h88q11 0 11 10v252q0 27 26 27h92q12 0 19.5 -7.5t7.5 -19.5v-252q0 -10 10 -10h649q11 0 11 10v252q0 27 26 27h92q12 0 19.5 -7.5t7.5 -19.5v-252q0 -10 10 -10h88zM997 784q11 0 11 11v235q0 10 -11 10h-649q-10 0 -10 -10v-235q0 -11 10 -11
h649z" />
    <glyph glyph-name="hbar" unicode="&#x127;" horiz-adv-x="1103" 
d="M594 1051q161 0 258.5 -97t97.5 -258v-669q0 -27 -26 -27h-93q-26 0 -26 27v641q0 114 -67.5 185t-176.5 71q-104 0 -172.5 -59t-79.5 -156v-682q0 -27 -26 -27h-93q-26 0 -26 27v1106q0 10 -10 10h-111q-27 0 -27 26v43q0 12 7.5 19.5t19.5 7.5h111q10 0 10 10v158
q0 27 26 27h93q26 0 26 -27v-158q0 -10 10 -10h320q12 0 19.5 -7.5t7.5 -19.5v-43q0 -26 -27 -26h-320q-10 0 -10 -10v-199q0 -8 5 -10q3 -1 5 4q88 123 275 123z" />
    <glyph glyph-name="Imacron" unicode="&#x12a;" horiz-adv-x="530" 
d="M16 1636q-26 0 -26 27v51q0 27 26 27h498q12 0 19.5 -7.5t7.5 -19.5v-51q0 -12 -7.5 -19.5t-19.5 -7.5h-498zM219 0q-26 0 -26 27v1380q0 27 26 27h92q12 0 19.5 -7.5t7.5 -19.5v-1380q0 -12 -7.5 -19.5t-19.5 -7.5h-92z" />
    <glyph glyph-name="imacron" unicode="&#x12b;" horiz-adv-x="452" 
d="M-27 1237q-26 0 -26 27v51q0 26 26 26h498q27 0 27 -26v-51q0 -12 -7.5 -19.5t-19.5 -7.5h-498zM178 0q-26 0 -26 27v983q0 26 26 26h92q27 0 27 -26v-983q0 -12 -7.5 -19.5t-19.5 -7.5h-92z" />
    <glyph glyph-name="Iogonek" unicode="&#x12e;" horiz-adv-x="671" 
d="M438 -287q28 7 31 -20l6 -33q3 -25 -20 -31q-37 -9 -74.5 -9.5t-75 9t-66.5 38.5t-40 75q-33 131 110 246q14 11 13 12h-5q-26 0 -26 27v1380q0 27 26 27h93q26 0 26 -27v-1387v-20h-2q-69 -50 -106.5 -106.5t-26.5 -110.5q6 -32 27 -50.5t49 -21.5t61 2z" />
    <glyph glyph-name="iogonek" unicode="&#x12f;" horiz-adv-x="569" 
d="M309 1221q-41 0 -67.5 25t-26.5 65q0 39 26.5 64.5t67.5 25.5q38 0 63 -26t25 -64q0 -40 -25 -65t-63 -25zM387 -287q28 7 31 -20l6 -33q3 -25 -21 -31q-37 -9 -74.5 -9.5t-75 9t-66.5 38.5t-40 75q-33 130 111 246q16 12 12 12h-4q-26 0 -26 27v983q0 26 26 26h92
q27 0 27 -26v-990v-20h-2q-69 -50 -106.5 -106.5t-26.5 -110.5q6 -32 27 -50.5t49 -21.5t61 2z" />
    <glyph glyph-name="Idotaccent" unicode="&#x130;" horiz-adv-x="530" 
d="M264 1620q-41 0 -67.5 25t-26.5 65q0 39 26.5 64.5t67.5 25.5q38 0 63 -26t25 -64q0 -40 -25 -65t-63 -25zM219 0q-26 0 -26 27v1380q0 27 26 27h92q12 0 19.5 -7.5t7.5 -19.5v-1380q0 -12 -7.5 -19.5t-19.5 -7.5h-92z" />
    <glyph glyph-name="dotlessi" unicode="&#x131;" horiz-adv-x="452" 
d="M178 0q-26 0 -26 27v983q0 26 26 26h92q27 0 27 -26v-983q0 -12 -7.5 -19.5t-19.5 -7.5h-92z" />
    <glyph glyph-name="ij" unicode="&#x133;" horiz-adv-x="966" 
d="M252 1223q-49 0 -80 29.5t-31 76.5q0 46 31 75.5t80 29.5t79.5 -29.5t30.5 -75.5q0 -47 -30.5 -76.5t-79.5 -29.5zM731 1219q-49 0 -79.5 30t-30.5 76t32.5 76.5t77.5 30.5q48 0 80.5 -30t32.5 -77q0 -46 -31.5 -76t-81.5 -30zM207 0q-12 0 -19.5 7.5t-7.5 19.5v983
q0 26 27 26h92q27 0 27 -26v-983q0 -12 -7.5 -19.5t-19.5 -7.5h-92zM444 -426q-26 0 -26 27v71q0 27 26 27q213 6 213 211v1100q0 26 27 26h92q27 0 27 -26v-1100q0 -173 -85 -254t-274 -82z" />
    <glyph glyph-name="uni0136" unicode="&#x136;" horiz-adv-x="1251" 
d="M219 0q-26 0 -26 27v1380q0 27 26 27h92q12 0 19.5 -7.5t7.5 -19.5v-684q0 -6 4 -8t8 4l643 700q12 15 33 15h102q17 0 21.5 -10.5t-6.5 -22.5l-494 -559q-5 -8 -2 -15l539 -794q9 -13 3.5 -23t-20.5 -10h-106q-20 0 -33 16l-481 707q-8 11 -14 2l-193 -203q-4 -8 -4 -14
v-481q0 -12 -7.5 -19.5t-19.5 -7.5h-92zM537 -379q-15 0 -20.5 9.5t1.5 23.5l117 211q9 18 31 18h88q15 0 19.5 -9.5t-3.5 -23.5l-131 -210q-13 -19 -31 -19h-71z" />
    <glyph glyph-name="uni0137" unicode="&#x137;" horiz-adv-x="1026" 
d="M190 0q-26 0 -26 27v1380q0 27 26 27h93q26 0 26 -27v-827q0 -7 4.5 -9.5t8.5 2.5l428 449q11 14 32 14h109q17 0 22 -10t-6 -22l-254 -281q-6 -6 -2 -14l307 -678q6 -13 0.5 -22t-20.5 -9h-96q-21 0 -31 20l-260 592q-1 4 -6 4.5t-8 -2.5l-224 -233q-4 -8 -4 -14v-340
q0 -27 -26 -27h-93zM430 -379q-15 0 -20.5 9.5t2.5 23.5l116 211q9 18 31 18h88q15 0 20 -9.5t-3 -23.5l-132 -210q-13 -19 -30 -19h-72z" />
    <glyph glyph-name="Lacute" unicode="&#x139;" horiz-adv-x="1163" 
d="M205 1579q-15 0 -20.5 9.5t1.5 23.5l117 211q9 18 31 18h88q15 0 19.5 -9.5t-3.5 -23.5l-131 -211q-12 -18 -31 -18h-71zM219 0q-26 0 -26 27v1380q0 27 26 27h92q12 0 19.5 -7.5t7.5 -19.5v-1270q0 -10 10 -10h715q12 0 19.5 -7.5t7.5 -19.5v-73q0 -12 -7.5 -19.5
t-19.5 -7.5h-844z" />
    <glyph glyph-name="lacute" unicode="&#x13a;" horiz-adv-x="475" 
d="M180 1579q-15 0 -20.5 9.5t2.5 23.5l117 211q9 18 30 18h88q15 0 20 -9.5t-3 -23.5l-131 -211q-12 -18 -31 -18h-72zM190 0q-26 0 -26 27v1380q0 27 26 27h93q26 0 26 -27v-1380q0 -27 -26 -27h-93z" />
    <glyph glyph-name="uni013B" unicode="&#x13b;" horiz-adv-x="1163" 
d="M219 0q-26 0 -26 27v1380q0 27 26 27h92q12 0 19.5 -7.5t7.5 -19.5v-1270q0 -10 10 -10h715q12 0 19.5 -7.5t7.5 -19.5v-73q0 -12 -7.5 -19.5t-19.5 -7.5h-844zM469 -379q-15 0 -20.5 9.5t2.5 23.5l116 211q9 18 31 18h88q15 0 19.5 -9.5t-3.5 -23.5l-131 -210
q-13 -19 -30 -19h-72z" />
    <glyph glyph-name="uni013C" unicode="&#x13c;" horiz-adv-x="477" 
d="M190 0q-26 0 -26 27v1380q0 27 26 27h93q26 0 26 -27v-1380q0 -27 -26 -27h-93zM57 -379q-15 0 -20.5 9.5t2.5 23.5l117 211q9 18 30 18h88q15 0 20 -9.5t-3 -23.5l-131 -210q-13 -19 -31 -19h-72z" />
    <glyph glyph-name="Lcaron" unicode="&#x13d;" horiz-adv-x="1163" 
d="M209 1542q-19 0 -33 17l-153 210q-9 13 -3 23t21 10h61q20 0 33 -16l121 -164q7 -10 14 0l121 164q13 16 33 16h61q15 0 20.5 -10t-3.5 -23l-154 -210q-14 -17 -33 -17h-106zM219 0q-26 0 -26 27v1380q0 27 26 27h92q12 0 19.5 -7.5t7.5 -19.5v-1270q0 -10 10 -10h715
q12 0 19.5 -7.5t7.5 -19.5v-73q0 -12 -7.5 -19.5t-19.5 -7.5h-844z" />
    <glyph glyph-name="lcaron" unicode="&#x13e;" horiz-adv-x="475" 
d="M184 1542q-18 0 -32 17l-154 210q-9 13 -3 23t21 10h62q20 0 33 -16l120 -164q7 -11 15 0l121 164q13 16 32 16h62q15 0 20 -10t-4 -23l-153 -210q-14 -17 -33 -17h-107zM190 0q-26 0 -26 27v1380q0 27 26 27h93q26 0 26 -27v-1380q0 -27 -26 -27h-93z" />
    <glyph glyph-name="Lslash" unicode="&#x141;" horiz-adv-x="1163" 
d="M338 137q0 -10 10 -10h715q12 0 19.5 -7.5t7.5 -19.5v-73q0 -12 -7.5 -19.5t-19.5 -7.5h-844q-26 0 -26 27v471q0 6 -4.5 8t-8.5 -2l-200 -150q-20 -17 -37 4l-41 50q-15 21 6 36l278 211q7 3 7 13v739q0 27 26 27h92q12 0 19.5 -7.5t7.5 -19.5v-621q0 -6 4 -8t8 2
l455 340q20 17 37 -4l39 -49q14 -20 -7 -37l-530 -401q-6 -3 -6 -13v-479z" />
    <glyph glyph-name="lslash" unicode="&#x142;" horiz-adv-x="475" 
d="M561 856q12 -24 -8 -37l-238 -139q-6 -4 -6 -12v-641q0 -27 -26 -27h-93q-26 0 -26 27v546q0 6 -4 9t-8 0l-111 -66q-24 -15 -35 8l-31 54q-11 22 11 36l172 103q6 4 6 12v678q0 27 26 27h93q26 0 26 -27v-586q0 -6 4.5 -7.5t8.5 1.5l174 103q22 14 34 -9z" />
    <glyph glyph-name="Nacute" unicode="&#x143;" horiz-adv-x="1378" 
d="M627 1602q-15 0 -20.5 9t1.5 23l117 211q9 19 31 19h88q15 0 19.5 -10t-3.5 -23l-131 -211q-12 -18 -31 -18h-71zM219 0q-26 0 -26 27v1380q0 27 26 27h92q18 0 31 -19l688 -1114q2 -4 5 -5t5 1.5t2 7.5v1102q0 12 7.5 19.5t19.5 7.5h92q12 0 19.5 -7.5t7.5 -19.5v-1380
q0 -12 -7.5 -19.5t-19.5 -7.5h-92q-19 0 -31 18l-690 1119q-2 4 -5 5t-5 -1.5t-2 -7.5l2 -1106q0 -27 -27 -27h-92z" />
    <glyph glyph-name="nacute" unicode="&#x144;" horiz-adv-x="1103" 
d="M713 1444q15 0 19.5 -10t-3.5 -23l-131 -211q-12 -18 -31 -18h-71q-15 0 -20.5 9t1.5 23l117 211q10 19 31 19h88zM594 1051q161 0 258.5 -97t97.5 -258v-669q0 -27 -26 -27h-93q-26 0 -26 27v641q0 114 -67.5 185t-176.5 71q-104 0 -172.5 -59t-79.5 -156v-682
q0 -27 -26 -27h-93q-26 0 -26 27v983q0 26 26 26h93q26 0 26 -26v-76q0 -8 5 -10q3 -1 5 4q88 123 275 123z" />
    <glyph glyph-name="uni0145" unicode="&#x145;" horiz-adv-x="1378" 
d="M219 0q-26 0 -26 27v1380q0 27 26 27h92q18 0 31 -19l688 -1114q2 -4 5 -5t5 1.5t2 7.5v1102q0 12 7.5 19.5t19.5 7.5h92q12 0 19.5 -7.5t7.5 -19.5v-1380q0 -12 -7.5 -19.5t-19.5 -7.5h-92q-19 0 -31 18l-690 1119q-2 4 -5 5t-5 -1.5t-2 -7.5l2 -1106q0 -27 -27 -27h-92
zM592 -379q-15 0 -20.5 9.5t1.5 23.5l117 211q9 18 31 18h88q15 0 19.5 -9.5t-3.5 -23.5l-131 -210q-13 -19 -30 -19h-72z" />
    <glyph glyph-name="uni0146" unicode="&#x146;" horiz-adv-x="1103" 
d="M594 1051q161 0 258.5 -97t97.5 -258v-669q0 -27 -26 -27h-93q-26 0 -26 27v641q0 114 -67.5 185t-176.5 71q-104 0 -172.5 -59t-79.5 -156v-682q0 -27 -26 -27h-93q-26 0 -26 27v983q0 26 26 26h93q26 0 26 -26v-76q0 -8 5 -10q3 -1 5 4q88 123 275 123zM451 -379
q-15 0 -20.5 9.5t1.5 23.5l117 211q9 18 31 18h88q15 0 19.5 -9.5t-3.5 -23.5l-131 -210q-13 -19 -31 -19h-71z" />
    <glyph glyph-name="Ncaron" unicode="&#x147;" horiz-adv-x="1378" 
d="M631 1581q-20 0 -33 16l-152 209q-9 14 -3.5 23.5t20.5 9.5h61q20 0 33 -16l121 -164q7 -11 14 0l121 164q13 16 33 16h61q15 0 20.5 -9.5t-3.5 -23.5l-154 -209q-13 -16 -33 -16h-106zM219 0q-26 0 -26 27v1380q0 27 26 27h92q18 0 31 -19l688 -1114q2 -4 5 -5t5 1.5
t2 7.5v1102q0 12 7.5 19.5t19.5 7.5h92q12 0 19.5 -7.5t7.5 -19.5v-1380q0 -12 -7.5 -19.5t-19.5 -7.5h-92q-19 0 -31 18l-690 1119q-2 4 -5 5t-5 -1.5t-2 -7.5l2 -1106q0 -27 -27 -27h-92z" />
    <glyph glyph-name="ncaron" unicode="&#x148;" horiz-adv-x="1103" 
d="M639 1178q-14 -17 -33 -17h-106q-19 0 -33 17l-152 208q-9 14 -3.5 23.5t20.5 9.5h61q20 0 33 -16l121 -164q7 -11 14 0l121 164q13 16 33 16h61q15 0 20.5 -9.5t-3.5 -23.5zM594 1051q161 0 258.5 -97t97.5 -258v-669q0 -27 -26 -27h-93q-26 0 -26 27v641
q0 114 -67.5 185t-176.5 71q-104 0 -172.5 -59t-79.5 -156v-682q0 -27 -26 -27h-93q-26 0 -26 27v983q0 26 26 26h93q26 0 26 -26v-76q0 -8 5 -10q3 -1 5 4q88 123 275 123z" />
    <glyph glyph-name="Eng" unicode="&#x14a;" horiz-adv-x="1384" 
d="M1188 1151l2 -10h2v-1127q0 -177 -73 -256t-257 -80q-26 0 -26 27v72q0 26 26 26q98 1 140 49t45 146q0 2 -5 12l-694 1127q-2 4 -5 5t-5 -1.5t-2 -7.5l2 -1106q0 -27 -27 -27h-92q-26 0 -26 27v1380q0 27 26 27h92q18 0 31 -19l688 -1114q2 -4 5 -5t5 1.5t2 7.5v1102
q0 12 7.5 19.5t19.5 7.5h92q12 0 19.5 -7.5t7.5 -19.5v-256z" />
    <glyph glyph-name="eng" unicode="&#x14b;" horiz-adv-x="1105" 
d="M950 432q0 -10 4 -10h2v-438q0 -167 -70.5 -249.5t-242.5 -88.5q-27 0 -27 26v68q0 26 27 29q168 11 168 211v14q0 2 -4 10q-2 6 -2 23v641q0 114 -67.5 185t-176.5 71q-104 0 -172.5 -59t-79.5 -156v-682q0 -27 -26 -27h-93q-26 0 -26 27v983q0 26 26 26h93q26 0 26 -26
v-76q0 -6 4.5 -8t8.5 4q87 121 272 121q161 0 258.5 -97t97.5 -258v-264z" />
    <glyph glyph-name="Omacron" unicode="&#x14c;" horiz-adv-x="1273" 
d="M387 1630q-12 0 -19.5 7.5t-7.5 19.5v51q0 12 7.5 19.5t19.5 7.5h498q26 0 26 -27v-51q0 -27 -26 -27h-498zM635 -16q-220 0 -354 130t-134 345v516q0 214 134 344.5t354 130.5q221 0 355 -130.5t134 -344.5v-516q0 -215 -134 -345t-355 -130zM635 109q155 0 249.5 94.5
t94.5 249.5v524q0 155 -94.5 250.5t-249.5 95.5q-154 0 -248 -95.5t-94 -250.5v-524q0 -155 94 -249.5t248 -94.5z" />
    <glyph glyph-name="omacron" unicode="&#x14d;" horiz-adv-x="1118" 
d="M309 1233q-26 0 -26 27v51q0 26 26 26h498q27 0 27 -26v-51q0 -12 -7.5 -19.5t-19.5 -7.5h-498zM561 -16q-150 0 -255.5 75.5t-145.5 208.5q-29 99 -29 252q0 151 27 250q40 132 146 207.5t257 75.5q147 0 253 -75.5t144 -205.5q29 -102 29 -252q0 -153 -29 -252
q-40 -132 -145.5 -208t-251.5 -76zM561 111q98 0 167.5 53.5t94.5 146.5q17 69 17 207q0 143 -17 207q-24 92 -94.5 146.5t-171.5 54.5q-98 0 -167.5 -54.5t-94.5 -146.5q-16 -60 -16 -207t16 -207q23 -93 93.5 -146.5t172.5 -53.5z" />
    <glyph glyph-name="Ohungarumlaut" unicode="&#x150;" horiz-adv-x="1273" 
d="M428 1591q-15 0 -19.5 8.5t1.5 22.5l108 213q9 18 33 18h80q15 0 20 -9.5t-2 -22.5l-117 -211q-10 -19 -30 -19h-74zM764 1591q-15 0 -21.5 8.5t0.5 22.5l115 213q9 18 31 18h76q15 0 20 -9.5t-2 -22.5l-119 -211q-10 -19 -30 -19h-70zM635 -16q-220 0 -354 130t-134 345
v516q0 214 134 344.5t354 130.5q221 0 355 -130.5t134 -344.5v-516q0 -215 -134 -345t-355 -130zM635 109q155 0 249.5 94.5t94.5 249.5v524q0 155 -94.5 250.5t-249.5 95.5q-154 0 -248 -95.5t-94 -250.5v-524q0 -155 94 -249.5t248 -94.5z" />
    <glyph glyph-name="ohungarumlaut" unicode="&#x151;" horiz-adv-x="1118" 
d="M350 1194q-15 0 -19.5 9t1.5 22l108 213q9 18 33 18h80q15 0 20.5 -10t-2.5 -23l-116 -211q-9 -18 -31 -18h-74zM686 1194q-15 0 -21 9t1 22l114 213q9 18 31 18h76q15 0 20.5 -10t-2.5 -23l-119 -211q-9 -18 -30 -18h-70zM561 -16q-150 0 -255.5 75.5t-145.5 208.5
q-29 99 -29 252q0 151 27 250q40 132 146 207.5t257 75.5q147 0 253 -75.5t144 -205.5q29 -102 29 -252q0 -153 -29 -252q-40 -132 -145.5 -208t-251.5 -76zM561 111q98 0 167.5 53.5t94.5 146.5q17 69 17 207q0 143 -17 207q-24 92 -94.5 146.5t-171.5 54.5
q-98 0 -167.5 -54.5t-94.5 -146.5q-16 -60 -16 -207t16 -207q23 -93 93.5 -146.5t172.5 -53.5z" />
    <glyph glyph-name="OE" unicode="&#x152;" horiz-adv-x="1884" 
d="M1765 1333q0 -26 -26 -26h-662q-10 0 -10 -11v-501q0 -11 10 -11h436q27 0 27 -26v-74q0 -12 -7.5 -19.5t-19.5 -7.5h-436q-10 0 -10 -10v-510q0 -10 10 -10h662q26 0 26 -27v-73q0 -27 -26 -27h-791q-26 0 -26 27v90q0 6 -4 8t-9 -4q-131 -137 -334 -137
q-186 0 -307 124.5t-121 319.5v576q0 195 121 320.5t307 125.5q203 0 334 -137q5 -6 9 -4t4 8v90q0 27 26 27h791q26 0 26 -27v-74zM606 109q141 0 228.5 89t87.5 226v582q0 138 -87.5 227.5t-228.5 89.5q-140 0 -226.5 -89.5t-86.5 -227.5v-582q0 -137 87 -226t226 -89z
" />
    <glyph glyph-name="oe" unicode="&#x153;" horiz-adv-x="1757" 
d="M1245 109q82 0 149 39.5t101 107.5q10 26 35 12l57 -35q19 -14 10 -36q-51 -99 -146.5 -156t-221.5 -57q-111 0 -198.5 47t-141.5 129q-6 9 -12 0q-56 -81 -144 -128.5t-194 -47.5q-144 0 -247 77t-140 205q-21 84 -21 254q0 175 21 252q36 127 140 204t247 77
q105 0 193 -47t145 -129q6 -9 12 0q56 81 142 128.5t190 47.5q146 0 252.5 -78.5t140.5 -204.5q20 -76 20 -266q0 -29 -26 -29h-639q-11 0 -11 -10q0 -111 13 -154q21 -94 91.5 -148t182.5 -54zM791 311q12 52 12 209q0 156 -12 205q-19 91 -86.5 146t-165.5 55
q-96 0 -162.5 -55.5t-87.5 -145.5q-13 -56 -13 -205q0 -144 15 -209q19 -91 85 -145.5t163 -54.5q98 0 165.5 55t86.5 145zM1221 926q-98 0 -164.5 -55.5t-85.5 -145.5q-10 -37 -13 -137q0 -10 11 -10h508q10 0 10 10q-4 107 -10 137q-21 90 -89 145.5t-167 55.5z" />
    <glyph glyph-name="Racute" unicode="&#x154;" horiz-adv-x="1253" 
d="M768 1841q15 0 19.5 -9.5t-3.5 -23.5l-131 -211q-12 -18 -30 -18h-72q-15 0 -20.5 9.5t1.5 23.5l117 211q9 18 31 18h88zM1034 0q-23 0 -33 20l-299 631q-4 8 -12 8h-342q-10 0 -10 -10v-622q0 -12 -7.5 -19.5t-19.5 -7.5h-92q-26 0 -26 27v1382q0 27 26 27h524
q177 0 285.5 -108.5t108.5 -285.5q0 -144 -77.5 -242.5t-209.5 -129.5q-10 -2 -6 -13l305 -626q6 -13 0 -22t-21 -9h-94zM348 1309q-10 0 -10 -11v-512q0 -10 10 -10h379q119 0 192.5 73t73.5 191q0 120 -73.5 194.5t-192.5 74.5h-379z" />
    <glyph glyph-name="racute" unicode="&#x155;" horiz-adv-x="745" 
d="M602 1458q15 0 19.5 -10t-3.5 -23l-131 -211q-12 -18 -30 -18h-72q-15 0 -20.5 10t2.5 23l116 211q9 18 31 18h88zM582 1047q64 0 112 -25q22 -9 15 -33l-21 -90q-6 -25 -33 -16q-40 13 -100 10q-106 -3 -176 -78t-70 -190v-598q0 -27 -26 -27h-93q-26 0 -26 27v983
q0 26 26 26h93q26 0 26 -26v-115q0 -7 3.5 -8.5t6.5 4.5q43 73 110 114.5t153 41.5z" />
    <glyph glyph-name="uni0156" unicode="&#x156;" horiz-adv-x="1253" 
d="M850 670q-10 -2 -6 -13l305 -626q6 -13 0 -22t-21 -9h-94q-23 0 -33 20l-299 631q-4 8 -12 8h-342q-10 0 -10 -10v-622q0 -12 -7.5 -19.5t-19.5 -7.5h-92q-26 0 -26 27v1382q0 27 26 27h524q177 0 285.5 -108.5t108.5 -285.5q0 -144 -77.5 -242.5t-209.5 -129.5z
M348 1309q-10 0 -10 -11v-512q0 -10 10 -10h379q119 0 192.5 73t73.5 191q0 120 -73.5 194.5t-192.5 74.5h-379zM520 -379q-15 0 -20.5 9.5t2.5 23.5l116 211q9 18 31 18h88q15 0 20 -9.5t-3 -23.5l-131 -210q-13 -19 -31 -19h-72z" />
    <glyph glyph-name="uni0157" unicode="&#x157;" horiz-adv-x="751" 
d="M582 1047q64 0 112 -25q22 -9 15 -33l-21 -90q-6 -25 -33 -16q-40 13 -100 10q-106 -3 -176 -78t-70 -190v-598q0 -27 -26 -27h-93q-26 0 -26 27v983q0 26 26 26h93q26 0 26 -26v-115q0 -7 3.5 -8.5t6.5 4.5q43 73 110 114.5t153 41.5zM53 -379q-15 0 -20.5 9.5t2.5 23.5
l117 211q9 18 30 18h88q15 0 20 -9.5t-3 -23.5l-131 -210q-13 -19 -31 -19h-72z" />
    <glyph glyph-name="Rcaron" unicode="&#x158;" horiz-adv-x="1253" 
d="M694 1575q-13 -16 -32 -16h-107q-20 0 -33 16l-151 209q-9 14 -4 23.5t20 9.5h62q18 0 32 -17l121 -164q7 -11 14 0l121 164q14 17 33 17h61q15 0 20.5 -9.5t-3.5 -23.5zM1034 0q-23 0 -33 20l-299 631q-4 8 -12 8h-342q-10 0 -10 -10v-622q0 -12 -7.5 -19.5t-19.5 -7.5
h-92q-26 0 -26 27v1382q0 27 26 27h524q177 0 285.5 -108.5t108.5 -285.5q0 -144 -77.5 -242.5t-209.5 -129.5q-10 -2 -6 -13l305 -626q6 -13 0 -22t-21 -9h-94zM348 1309q-10 0 -10 -11v-512q0 -10 10 -10h379q119 0 192.5 73t73.5 191q0 120 -73.5 194.5t-192.5 74.5h-379
z" />
    <glyph glyph-name="rcaron" unicode="&#x159;" horiz-adv-x="745" 
d="M528 1192q-13 -16 -32 -16h-107q-20 0 -33 16l-151 209q-9 13 -4 23t20 10h62q18 0 32 -17l121 -164q8 -11 15 0l120 164q14 17 33 17h62q15 0 20 -10t-4 -23zM582 1047q64 0 112 -25q22 -9 15 -33l-21 -90q-6 -25 -33 -16q-40 13 -100 10q-106 -3 -176 -78t-70 -190
v-598q0 -27 -26 -27h-93q-26 0 -26 27v983q0 26 26 26h93q26 0 26 -26v-115q0 -7 3.5 -8.5t6.5 4.5q43 73 110 114.5t153 41.5z" />
    <glyph glyph-name="Sacute" unicode="&#x15a;" horiz-adv-x="1200" 
d="M530 1595q-15 0 -20.5 9.5t2.5 23.5l117 211q9 19 30 19h89q15 0 19.5 -10t-3.5 -23l-131 -211q-13 -19 -31 -19h-72zM610 -16q-226 0 -359.5 104.5t-133.5 278.5v57q0 27 26 27h88q12 0 19.5 -7.5t7.5 -19.5v-49q0 -117 98.5 -190.5t264.5 -73.5q157 0 239 66t82 177
q0 54 -20 95.5t-70 80t-114.5 71t-172.5 77.5q-52 21 -80 32.5t-72.5 31t-68.5 33.5t-58 36t-52.5 41t-39.5 45.5t-32 54t-18 62t-7 73.5q0 172 120 267.5t331 95.5q225 0 356 -106.5t131 -282.5v-39q0 -27 -26 -27h-91q-26 0 -26 27v31q0 120 -92.5 195t-259.5 75
q-145 0 -222 -59.5t-77 -171.5q0 -38 8.5 -68.5t31.5 -57t46.5 -45.5t72.5 -42.5t89 -40t114 -45.5q61 -25 104.5 -44t93 -45.5t83.5 -51t67 -56.5t52.5 -66.5t31.5 -77.5t12 -92q0 -170 -126 -273t-351 -103z" />
    <glyph glyph-name="sacute" unicode="&#x15b;" horiz-adv-x="987" 
d="M436 1192q-15 0 -20.5 10t2.5 23l117 211q9 18 30 18h88q15 0 20 -10t-3 -23l-131 -211q-12 -18 -31 -18h-72zM504 -10q-173 0 -281 78.5t-108 193.5v19q0 26 26 26h88q27 0 27 -18v-19q0 -67 69.5 -117.5t176.5 -50.5q106 0 171.5 48.5t65.5 121.5q0 81 -94 127
q-39 19 -160 56q-47 14 -76 23t-72 25.5t-70 31.5t-57.5 39t-48 49.5t-29 60.5t-11.5 76q0 131 104 209t271 78q170 0 275.5 -80t105.5 -203q0 -12 -7.5 -19.5t-19.5 -7.5h-84q-27 0 -27 15v12q0 70 -66.5 117t-178.5 47q-104 0 -168 -42.5t-64 -115.5q0 -30 13.5 -54.5
t33 -41t56.5 -33t66.5 -26.5t80.5 -25q40 -11 59.5 -17t57.5 -18t58 -21t51.5 -25t49 -30.5t39 -36t32.5 -44.5t18.5 -52.5t7.5 -62.5q0 -132 -104 -212.5t-277 -80.5z" />
    <glyph glyph-name="Scedilla" unicode="&#x15e;" horiz-adv-x="1200" 
d="M1087 360q0 -159 -109 -260t-306 -114q-8 -2 -9 -6t5 -9q122 -107 92 -229q-11 -46 -40 -75t-66.5 -38.5t-75 -9t-74.5 9.5q-24 6 -21 31l6 33q3 27 31 20q33 -5 61 -2t49 21.5t27 50.5q19 92 -108 199q-8 4 -12 4q-195 19 -307.5 121t-112.5 260v57q0 27 26 27h88
q12 0 19.5 -7.5t7.5 -19.5v-49q0 -117 98.5 -190.5t264.5 -73.5q157 0 239 66t82 177q0 54 -20 95.5t-70 80t-114.5 71t-172.5 77.5q-52 21 -80 32.5t-72.5 31t-68.5 33.5t-58 36t-52.5 41t-39.5 45.5t-32 54t-18 62t-7 73.5q0 172 120 267.5t331 95.5q225 0 356 -106.5
t131 -282.5v-39q0 -27 -26 -27h-91q-26 0 -26 27v31q0 120 -92.5 195t-259.5 75q-145 0 -222 -59.5t-77 -171.5q0 -38 8.5 -68.5t31.5 -57t46.5 -45.5t72.5 -42.5t89 -40t114 -45.5q61 -25 104.5 -44t93 -45.5t83.5 -51t67 -56.5t52.5 -66.5t31.5 -77.5t12 -92z" />
    <glyph glyph-name="scedilla" unicode="&#x15f;" horiz-adv-x="987" 
d="M885 283q0 -118 -84.5 -196t-227.5 -93q-13 -3 -4 -12q127 -112 97 -234q-11 -46 -40 -75t-66.5 -38.5t-75 -9t-74.5 9.5q-24 6 -21 31l6 33q3 27 31 20q33 -5 61 -2t49 21.5t27 50.5q19 95 -108 199q-8 4 -13 4q-148 15 -237.5 91t-89.5 179v19q0 26 26 26h88
q27 0 27 -18v-19q0 -67 69.5 -117.5t176.5 -50.5q106 0 171.5 48.5t65.5 121.5q0 81 -94 127q-39 19 -160 56q-47 14 -76 23t-72 25.5t-70 31.5t-57.5 39t-48 49.5t-29 60.5t-11.5 76q0 131 104 209t271 78q170 0 275.5 -80t105.5 -203q0 -12 -7.5 -19.5t-19.5 -7.5h-84
q-27 0 -27 15v12q0 70 -66.5 117t-178.5 47q-104 0 -168 -42.5t-64 -115.5q0 -30 13.5 -54.5t33 -41t56.5 -33t66.5 -26.5t80.5 -25q40 -11 59.5 -17t57.5 -18t58 -21t51.5 -25t49 -30.5t39 -36t32.5 -44.5t18.5 -52.5t7.5 -62.5z" />
    <glyph glyph-name="Scaron" unicode="&#x160;" horiz-adv-x="1200" 
d="M535 1575q-20 0 -33 16l-152 209q-9 14 -3.5 23.5t20.5 9.5h61q20 0 33 -16l121 -164q7 -11 14 0l121 164q13 16 33 16h61q15 0 20 -9.5t-4 -23.5l-153 -209q-13 -16 -33 -16h-106zM610 -16q-226 0 -359.5 104.5t-133.5 278.5v57q0 27 26 27h88q12 0 19.5 -7.5t7.5 -19.5
v-49q0 -117 98.5 -190.5t264.5 -73.5q157 0 239 66t82 177q0 54 -20 95.5t-70 80t-114.5 71t-172.5 77.5q-52 21 -80 32.5t-72.5 31t-68.5 33.5t-58 36t-52.5 41t-39.5 45.5t-32 54t-18 62t-7 73.5q0 172 120 267.5t331 95.5q225 0 356 -106.5t131 -282.5v-39q0 -27 -26 -27
h-91q-26 0 -26 27v31q0 120 -92.5 195t-259.5 75q-145 0 -222 -59.5t-77 -171.5q0 -38 8.5 -68.5t31.5 -57t46.5 -45.5t72.5 -42.5t89 -40t114 -45.5q61 -25 104.5 -44t93 -45.5t83.5 -51t67 -56.5t52.5 -66.5t31.5 -77.5t12 -92q0 -170 -126 -273t-351 -103z" />
    <glyph glyph-name="scaron" unicode="&#x161;" horiz-adv-x="987" 
d="M440 1171q-18 0 -32 17l-152 209q-9 13 -4 23t20 10h62q19 0 33 -17l120 -164q7 -11 15 0l121 164q14 17 32 17h62q15 0 20 -10t-4 -23l-153 -209q-14 -17 -33 -17h-107zM504 -10q-173 0 -281 78.5t-108 193.5v19q0 26 26 26h88q27 0 27 -18v-19q0 -67 69.5 -117.5
t176.5 -50.5q106 0 171.5 48.5t65.5 121.5q0 81 -94 127q-39 19 -160 56q-47 14 -76 23t-72 25.5t-70 31.5t-57.5 39t-48 49.5t-29 60.5t-11.5 76q0 131 104 209t271 78q170 0 275.5 -80t105.5 -203q0 -12 -7.5 -19.5t-19.5 -7.5h-84q-27 0 -27 15v12q0 70 -66.5 117
t-178.5 47q-104 0 -168 -42.5t-64 -115.5q0 -30 13.5 -54.5t33 -41t56.5 -33t66.5 -26.5t80.5 -25q40 -11 59.5 -17t57.5 -18t58 -21t51.5 -25t49 -30.5t39 -36t32.5 -44.5t18.5 -52.5t7.5 -62.5q0 -132 -104 -212.5t-277 -80.5z" />
    <glyph glyph-name="uni0162" unicode="&#x162;" horiz-adv-x="1165" 
d="M657 1305q-10 0 -10 -11v-1267q0 -27 -6 -27q-4 0 8 -12q122 -111 92 -230q-11 -46 -40 -75t-66.5 -38.5t-75 -8.5t-74.5 10q-23 6 -20 30l6 33q3 28 31 21q52 -10 90.5 6.5t46.5 62.5q19 91 -107 197q-8 4 -12 4q-18 6 -18 27v1267q0 11 -10 11h-377q-27 0 -27 26v76
q0 12 7.5 19.5t19.5 7.5h936q26 0 26 -27v-76q0 -26 -26 -26h-394z" />
    <glyph glyph-name="uni0163" unicode="&#x163;" horiz-adv-x="745" 
d="M623 31q0 -26 -27 -29h-70q-72 0 -123 11t-92.5 38.5t-62.5 80t-21 130.5v643q0 10 -10 10h-117q-26 0 -26 27v68q0 26 26 26h117q10 0 10 11v229q0 12 7.5 19.5t19.5 7.5h88q12 0 19.5 -7.5t7.5 -19.5v-229q0 -11 10 -11h223q27 0 27 -26v-68q0 -12 -7.5 -19.5
t-19.5 -7.5h-223q-10 0 -10 -10v-598q0 -97 43.5 -137.5t138.5 -40.5h45q12 0 19.5 -7.5t7.5 -19.5v-71zM492 -27q20 0 32 -12q146 -117 113 -246q-11 -46 -40 -75t-66.5 -38.5t-75 -8.5t-74.5 10q-24 6 -21 30l7 33q3 28 30 21q52 -10 91 6.5t47 62.5q19 85 -95 185
q-13 13 -9.5 22.5t22.5 9.5h39z" />
    <glyph glyph-name="Tcaron" unicode="&#x164;" horiz-adv-x="1165" 
d="M659 1559q-14 -17 -32 -17h-107q-19 0 -33 17l-153 210q-9 13 -3 23t21 10h62q19 0 32 -16l121 -164q7 -11 15 0l120 164q13 16 33 16h62q15 0 20 -10t-4 -23zM1051 1434q26 0 26 -27v-76q0 -26 -26 -26h-394q-10 0 -10 -11v-1267q0 -27 -26 -27h-93q-26 0 -26 27v1267
q0 11 -10 11h-377q-27 0 -27 26v76q0 12 7.5 19.5t19.5 7.5h936z" />
    <glyph glyph-name="tcaron" unicode="&#x165;" horiz-adv-x="745" 
d="M385 1425q-13 -16 -33 -16h-106q-20 0 -33 16l-154 211q-9 14 -2.5 23.5t21.5 9.5h61q20 0 33 -16l121 -164q7 -11 14 0l121 164q13 16 33 16h61q15 0 20.5 -9.5t-3.5 -23.5zM629 942q0 -12 -7.5 -19.5t-19.5 -7.5h-223q-10 0 -10 -10v-598q0 -97 43.5 -137.5
t138.5 -40.5h45q12 0 19.5 -7.5t7.5 -19.5v-71q0 -26 -27 -29h-70q-72 0 -123 11t-92.5 38.5t-62.5 80t-21 130.5v643q0 10 -10 10h-117q-26 0 -26 27v68q0 26 26 26h117q10 0 10 11v229q0 12 7.5 19.5t19.5 7.5h88q12 0 19.5 -7.5t7.5 -19.5v-229q0 -11 10 -11h223
q27 0 27 -26v-68z" />
    <glyph glyph-name="Tbar" unicode="&#x166;" horiz-adv-x="1228" 
d="M1077 1331q0 -26 -26 -26h-394q-10 0 -10 -11v-426q0 -10 10 -10h217q12 0 19.5 -7.5t7.5 -19.5v-43q0 -26 -27 -26h-217q-10 0 -10 -10v-725q0 -27 -26 -27h-93q-26 0 -26 27v725q0 10 -10 10h-213q-27 0 -27 26v43q0 12 7.5 19.5t19.5 7.5h213q10 0 10 10v426
q0 11 -10 11h-377q-27 0 -27 26v76q0 12 7.5 19.5t19.5 7.5h936q26 0 26 -27v-76z" />
    <glyph glyph-name="tbar" unicode="&#x167;" horiz-adv-x="1228" 
d="M629 942q0 -12 -7.5 -19.5t-19.5 -7.5h-223q-10 0 -10 -10v-182q0 -10 10 -10h215q12 0 19.5 -7.5t7.5 -19.5v-43q0 -12 -7.5 -19.5t-19.5 -7.5h-215q-10 0 -10 -10v-299q0 -97 43.5 -137.5t138.5 -40.5h45q12 0 19.5 -7.5t7.5 -19.5v-71q0 -26 -27 -29h-70
q-72 0 -123 11t-92.5 38.5t-62.5 80t-21 130.5v344q0 10 -10 10h-104q-12 0 -19.5 7.5t-7.5 19.5v43q0 12 7.5 19.5t19.5 7.5h104q10 0 10 10v182q0 10 -10 10h-117q-26 0 -26 27v68q0 26 26 26h117q10 0 10 11v229q0 12 7.5 19.5t19.5 7.5h88q12 0 19.5 -7.5t7.5 -19.5
v-229q0 -11 10 -11h223q27 0 27 -26v-68z" />
    <glyph glyph-name="Umacron" unicode="&#x16a;" horiz-adv-x="1327" 
d="M416 1638q-12 0 -19.5 7.5t-7.5 19.5v51q0 12 7.5 19.5t19.5 7.5h497q12 0 19.5 -7.5t7.5 -19.5v-51q0 -12 -7.5 -19.5t-19.5 -7.5h-497zM664 -16q-219 0 -353.5 126t-134.5 332v965q0 12 7.5 19.5t19.5 7.5h92q12 0 19.5 -7.5t7.5 -19.5v-969q0 -146 94 -236.5
t248 -90.5t248 90.5t94 236.5v969q0 27 26 27h92q12 0 19.5 -7.5t7.5 -19.5v-965q0 -207 -133.5 -332.5t-353.5 -125.5z" />
    <glyph glyph-name="umacron" unicode="&#x16b;" horiz-adv-x="1097" 
d="M795 1321q26 0 26 -27v-51q0 -26 -26 -26h-498q-27 0 -27 26v51q0 12 7.5 19.5t19.5 7.5h498zM791 1010q0 26 26 26h92q27 0 27 -26v-983q0 -12 -7.5 -19.5t-19.5 -7.5h-92q-26 0 -26 27v77q0 6 -4.5 8.5t-8.5 -3.5q-87 -123 -270 -123q-153 0 -257 90t-104 248v686
q0 26 27 26h92q27 0 27 -26v-643q0 -116 65.5 -185t178.5 -69q116 0 185 69.5t69 184.5v643z" />
    <glyph glyph-name="Uring" unicode="&#x16e;" horiz-adv-x="1327" 
d="M664 1587q-91 0 -153 61t-62 150q0 88 62 148.5t153 60.5q89 0 151 -60.5t62 -148.5q0 -89 -62 -150t-151 -61zM664 1667q55 0 93 37.5t38 93.5q0 55 -38.5 93t-92.5 38q-56 0 -95 -38t-39 -93q0 -56 39 -93.5t95 -37.5zM664 -16q-219 0 -353.5 126t-134.5 332v965
q0 12 7.5 19.5t19.5 7.5h92q12 0 19.5 -7.5t7.5 -19.5v-969q0 -146 94 -236.5t248 -90.5t248 90.5t94 236.5v969q0 27 26 27h92q12 0 19.5 -7.5t7.5 -19.5v-965q0 -207 -133.5 -332.5t-353.5 -125.5z" />
    <glyph glyph-name="uring" unicode="&#x16f;" horiz-adv-x="1097" 
d="M545 1165q-91 0 -153 61t-62 150q0 88 62 148.5t153 60.5q89 0 151 -60.5t62 -148.5q0 -89 -62 -150t-151 -61zM545 1507q-56 0 -94.5 -38t-38.5 -93q0 -56 38.5 -93.5t94.5 -37.5q55 0 93 37.5t38 93.5q0 55 -38.5 93t-92.5 38zM791 1010q0 26 26 26h92q27 0 27 -26
v-983q0 -12 -7.5 -19.5t-19.5 -7.5h-92q-26 0 -26 27v77q0 6 -4.5 8.5t-8.5 -3.5q-87 -123 -270 -123q-153 0 -257 90t-104 248v686q0 26 27 26h92q27 0 27 -26v-643q0 -116 65.5 -185t178.5 -69q116 0 185 69.5t69 184.5v643z" />
    <glyph glyph-name="Uhungarumlaut" unicode="&#x170;" horiz-adv-x="1327" 
d="M457 1599q-15 0 -20 8.5t1 22.5l109 213q9 19 33 19h79q15 0 20.5 -10t-1.5 -23l-117 -211q-9 -19 -31 -19h-73zM793 1599q-15 0 -21.5 8.5t0.5 22.5l115 213q9 19 31 19h75q15 0 20.5 -10t-1.5 -23l-119 -211q-9 -19 -31 -19h-69zM664 -16q-219 0 -353.5 126t-134.5 332
v965q0 12 7.5 19.5t19.5 7.5h92q12 0 19.5 -7.5t7.5 -19.5v-969q0 -146 94 -236.5t248 -90.5t248 90.5t94 236.5v969q0 27 26 27h92q12 0 19.5 -7.5t7.5 -19.5v-965q0 -207 -133.5 -332.5t-353.5 -125.5z" />
    <glyph glyph-name="uhungarumlaut" unicode="&#x171;" horiz-adv-x="1097" 
d="M541 1440q15 0 20.5 -10t-2.5 -23l-117 -211q-9 -18 -30 -18h-74q-32 0 -19 30l109 213q10 19 33 19h80zM874 1440q15 0 20.5 -10t-1.5 -23l-119 -211q-9 -18 -31 -18h-69q-15 0 -21.5 8t0.5 22l115 213q10 19 31 19h75zM791 1010q0 26 26 26h92q27 0 27 -26v-983
q0 -12 -7.5 -19.5t-19.5 -7.5h-92q-26 0 -26 27v77q0 6 -4.5 8.5t-8.5 -3.5q-87 -123 -270 -123q-153 0 -257 90t-104 248v686q0 26 27 26h92q27 0 27 -26v-643q0 -116 65.5 -185t178.5 -69q116 0 185 69.5t69 184.5v643z" />
    <glyph glyph-name="Uogonek" unicode="&#x172;" horiz-adv-x="1327" 
d="M1006 1407q0 27 26 27h92q12 0 19.5 -7.5t7.5 -19.5v-965q0 -196 -120 -319t-320 -137q-7 0 -15 -4q-106 -103 -88 -183q8 -46 46.5 -62.5t90.5 -6.5q28 7 31 -21l6 -33q3 -24 -20 -30q-37 -9 -74.5 -10t-75 8.5t-66.5 38.5t-40 75q-29 109 78 219q10 10 -4 13
q-183 23 -293.5 145t-110.5 307v965q0 12 7.5 19.5t19.5 7.5h92q12 0 19.5 -7.5t7.5 -19.5v-969q0 -146 94 -236.5t248 -90.5t248 90.5t94 236.5v969z" />
    <glyph glyph-name="uogonek" unicode="&#x173;" horiz-adv-x="1103" 
d="M946 -287q28 7 31 -20l6 -33q3 -25 -20 -31q-37 -9 -74.5 -9.5t-75 9t-66.5 38.5t-40 75q-33 131 110 246q13 10 8 12h-8q-26 0 -26 27v77q0 6 -4.5 8.5t-8.5 -3.5q-87 -123 -270 -123q-153 0 -257 90t-104 248v686q0 26 27 26h92q27 0 27 -26v-643q0 -116 65.5 -185
t178.5 -69q116 0 185 69.5t69 184.5v643q0 26 26 26h92q27 0 27 -26v-1004q0 -8 -4 -12q-6 -4 -29 -27q-113 -99 -94 -184q6 -32 27 -50.5t49 -21.5t61 2z" />
    <glyph glyph-name="Wcircumflex" unicode="&#x174;" horiz-adv-x="1785" 
d="M664 1565q-17 0 -21.5 10t4.5 22l160 209q11 17 33 17h96q22 0 33 -17l161 -209q10 -12 5.5 -22t-21.5 -10h-65q-20 0 -33 16l-119 164q-7 10 -14 0l-121 -164q-13 -16 -33 -16h-65zM471 0q-23 0 -29 23l-389 1380q-3 14 3.5 22.5t19.5 8.5h100q23 0 29 -23l307 -1110
q2 -6 6 -6t6 6l287 1110q7 23 31 23h98q23 0 29 -23l299 -1112q2 -6 6 -6t6 6l307 1112q6 23 29 23h94q13 0 19.5 -8.5t3.5 -22.5l-383 -1380q-6 -23 -29 -23h-98q-24 0 -31 23l-295 1138q-1 6 -6 6t-6 -6l-291 -1138q-7 -23 -31 -23h-92z" />
    <glyph glyph-name="wcircumflex" unicode="&#x175;" horiz-adv-x="1476" 
d="M502 1167q-17 0 -21.5 10.5t4.5 22.5l160 209q11 16 33 16h96q22 0 33 -16l162 -209q9 -12 4.5 -22.5t-21.5 -10.5h-65q-19 0 -33 17l-119 164q-7 10 -14 0l-121 -164q-14 -17 -33 -17h-65zM383 0q-23 0 -29 23l-286 983q-4 13 2 21.5t20 8.5h96q24 0 29 -22l213 -799
q2 -6 6 -6t6 6l219 799q5 22 29 22h90q24 0 29 -22l223 -799q2 -6 6 -6t6 6l220 799q6 22 30 22l94 -2q14 0 20.5 -8.5t2.5 -21.5l-291 -981q-6 -23 -28 -23h-101q-22 0 -28 23l-222 755q-1 6 -6 6t-6 -6l-213 -755q-6 -23 -29 -23h-102z" />
    <glyph glyph-name="Ycircumflex" unicode="&#x176;" horiz-adv-x="1161" 
d="M352 1563q-17 0 -21.5 10t5.5 22l160 209q11 17 32 17h97q21 0 32 -17l162 -209q9 -12 5 -22t-21 -10h-66q-19 0 -32 16l-119 164q-8 11 -15 0l-120 -164q-13 -16 -33 -16h-66zM535 2q-12 0 -19.5 7.5t-7.5 19.5v600q0 4 -4 12l-420 760q-8 13 -2.5 23t20.5 10h99
q21 0 30 -19l342 -618q7 -10 13 0l344 618q10 19 31 19h98q15 0 20.5 -10t-2.5 -23l-420 -760q-4 -8 -4 -12v-600q0 -27 -26 -27h-92z" />
    <glyph glyph-name="ycircumflex" unicode="&#x177;" horiz-adv-x="944" 
d="M244 1176q-17 0 -21.5 10t4.5 22l160 209q11 17 33 17h96q22 0 33 -17l162 -209q9 -12 4.5 -22t-21.5 -10h-65q-20 0 -33 16l-119 164q-7 10 -14 0l-121 -164q-13 -16 -33 -16h-65zM117 -410q-15 0 -15 27v72q0 26 15 26h14q115 0 165 53t103 226q2 5 0 12l-344 1000
q-4 13 2.5 21.5t20.5 8.5h96q25 0 31 -22l264 -803q1 -5 3.5 -7t5 0t3.5 7l258 803q5 22 29 22h98q14 0 20.5 -8.5t2.5 -21.5l-377 -1096q-29 -83 -53.5 -134.5t-54 -90.5t-68.5 -58.5t-86.5 -28t-118.5 -8.5h-14z" />
    <glyph glyph-name="Ydieresis" unicode="&#x178;" horiz-adv-x="1161" 
d="M408 1624q-43 0 -71 26.5t-28 67.5t28 69t71 28q41 0 67.5 -27.5t26.5 -69.5q0 -41 -26.5 -67.5t-67.5 -26.5zM752 1624q-43 0 -70 26.5t-27 67.5q0 42 27.5 69.5t69.5 27.5t69 -27.5t27 -69.5q0 -41 -26.5 -67.5t-69.5 -26.5zM535 2q-12 0 -19.5 7.5t-7.5 19.5v600
q0 4 -4 12l-420 760q-8 13 -2.5 23t20.5 10h99q21 0 30 -19l342 -618q7 -10 13 0l344 618q10 19 31 19h98q15 0 20.5 -10t-2.5 -23l-420 -760q-4 -8 -4 -12v-600q0 -27 -26 -27h-92z" />
    <glyph glyph-name="Zacute" unicode="&#x179;" horiz-adv-x="1124" 
d="M489 1606q-15 0 -20 9t2 23l117 211q10 19 30 19h89q15 0 19.5 -10t-3.5 -23l-131 -211q-12 -18 -31 -18h-72zM119 0q-12 0 -19.5 7.5t-7.5 19.5v88q0 15 10 32l746 1147q6 13 -6 13h-723q-27 0 -27 26v74q0 12 7.5 19.5t19.5 7.5h870q12 0 19.5 -7.5t7.5 -19.5v-88
q0 -16 -10 -33l-744 -1147q-6 -12 6 -12h721q12 0 19.5 -7.5t7.5 -19.5v-73q0 -12 -7.5 -19.5t-19.5 -7.5h-870z" />
    <glyph glyph-name="zacute" unicode="&#x17a;" horiz-adv-x="911" 
d="M391 1202q-15 0 -20.5 10t2.5 23l116 211q9 18 31 18h88q15 0 20 -9t-3 -23l-131 -211q-13 -19 -31 -19h-72zM96 0q-26 0 -26 27v88q0 17 12 32l575 744q3 5 1.5 8.5t-7.5 3.5h-547q-26 0 -26 27v80q0 26 26 26h707q27 0 27 -26v-88q0 -17 -13 -33l-581 -744
q-3 -5 -1.5 -8.5t7.5 -3.5h561q12 0 19.5 -7.5t7.5 -19.5v-79q0 -12 -7.5 -19.5t-19.5 -7.5h-715z" />
    <glyph glyph-name="Zdotaccent" unicode="&#x17b;" horiz-adv-x="1124" 
d="M549 1624q-41 0 -67.5 25t-26.5 65q0 39 26.5 64.5t67.5 25.5q38 0 63 -26t25 -64q0 -40 -25 -65t-63 -25zM119 0q-12 0 -19.5 7.5t-7.5 19.5v88q0 15 10 32l746 1147q6 13 -6 13h-723q-27 0 -27 26v74q0 12 7.5 19.5t19.5 7.5h870q12 0 19.5 -7.5t7.5 -19.5v-88
q0 -16 -10 -33l-744 -1147q-6 -12 6 -12h721q12 0 19.5 -7.5t7.5 -19.5v-73q0 -12 -7.5 -19.5t-19.5 -7.5h-870z" />
    <glyph glyph-name="zdotaccent" unicode="&#x17c;" horiz-adv-x="911" 
d="M451 1221q-41 0 -68 25t-27 65q0 38 27 64t68 26q38 0 63 -26t25 -64q0 -40 -25 -65t-63 -25zM96 0q-26 0 -26 27v88q0 17 12 32l575 744q3 5 1.5 8.5t-7.5 3.5h-547q-26 0 -26 27v80q0 26 26 26h707q27 0 27 -26v-88q0 -17 -13 -33l-581 -744q-3 -5 -1.5 -8.5t7.5 -3.5
h561q12 0 19.5 -7.5t7.5 -19.5v-79q0 -12 -7.5 -19.5t-19.5 -7.5h-715z" />
    <glyph glyph-name="Zcaron" unicode="&#x17d;" horiz-adv-x="1124" 
d="M494 1585q-19 0 -33 17l-152 208q-9 14 -3.5 23.5t20.5 9.5h61q20 0 33 -16l121 -164q7 -11 14 0l121 164q13 16 33 16h61q15 0 20 -9.5t-4 -23.5l-153 -208q-14 -17 -33 -17h-106zM119 0q-12 0 -19.5 7.5t-7.5 19.5v88q0 15 10 32l746 1147q6 13 -6 13h-723
q-27 0 -27 26v74q0 12 7.5 19.5t19.5 7.5h870q12 0 19.5 -7.5t7.5 -19.5v-88q0 -16 -10 -33l-744 -1147q-6 -12 6 -12h721q12 0 19.5 -7.5t7.5 -19.5v-73q0 -12 -7.5 -19.5t-19.5 -7.5h-870z" />
    <glyph glyph-name="zcaron" unicode="&#x17e;" horiz-adv-x="911" 
d="M395 1182q-20 0 -33 16l-151 209q-9 13 -4 23t20 10h62q19 0 33 -17l120 -163q8 -11 15 0l121 163q14 17 32 17h62q15 0 20 -10t-4 -23l-153 -209q-13 -16 -33 -16h-107zM96 0q-26 0 -26 27v88q0 17 12 32l575 744q3 5 1.5 8.5t-7.5 3.5h-547q-26 0 -26 27v80q0 26 26 26
h707q27 0 27 -26v-88q0 -17 -13 -33l-581 -744q-3 -5 -1.5 -8.5t7.5 -3.5h561q12 0 19.5 -7.5t7.5 -19.5v-79q0 -12 -7.5 -19.5t-19.5 -7.5h-715z" />
    <glyph glyph-name="florin" unicode="&#x192;" horiz-adv-x="1120" 
d="M571 1094q13 86 33 142.5t50 96t80.5 60.5t113.5 30.5t158 10.5q26 0 26 -27v-74q0 -26 -26 -26h-62q-113 0 -161 -50t-68 -172l-39 -245q0 -11 8 -11h180q27 0 27 -26v-80q0 -12 -7.5 -19.5t-19.5 -7.5h-200q-13 0 -13 -10l-121 -756q-14 -86 -34.5 -142.5t-50.5 -96
t-80 -60.5t-112 -30.5t-157 -10.5q-26 0 -26 27v74q0 26 26 26h62q113 0 161 50t68 172l119 747q0 10 -8 10h-148q-26 0 -26 27v80q0 26 26 26h168q12 0 12 11z" />
    <glyph glyph-name="uni01CD" unicode="&#x1cd;" horiz-adv-x="1243" 
d="M702 1559q-14 -17 -32 -17h-107q-19 0 -33 17l-153 210q-9 13 -3 23t21 10h62q19 0 32 -16l121 -164q8 -11 15 0l120 164q13 16 33 16h62q15 0 20 -10t-4 -23zM1047 0q-23 0 -29 23l-82 249q-4 9 -10 9h-611q-5 0 -10 -9l-80 -249q-6 -23 -28 -23h-99q-14 0 -20 9t-2 22
l450 1380q6 23 29 23h131q23 0 29 -23l452 -1380q4 -13 -2 -22t-20 -9h-98zM350 412q-3 -13 8 -13h527q11 0 8 13l-266 837q-1 5 -4 7t-5.5 0t-3.5 -7z" />
    <glyph glyph-name="uni01CE" unicode="&#x1ce;" horiz-adv-x="1046" 
d="M608 1178q-14 -17 -33 -17h-106q-19 0 -33 17l-153 211q-9 13 -3 22.5t21 9.5h61q20 0 33 -16l121 -164q7 -11 14 0l121 164q13 16 33 16h61q15 0 20.5 -9.5t-3.5 -22.5zM522 1053q184 0 285.5 -94t101.5 -250v-682q0 -27 -26 -27h-92q-12 0 -19.5 7.5t-7.5 19.5v73
q0 6 -4 8t-8 -4q-114 -120 -320 -120q-68 0 -127 17t-107 51.5t-76 93.5t-28 137q0 154 111.5 242.5t310.5 88.5h238q10 0 10 11v75q0 105 -59 165.5t-181 60.5q-95 0 -156 -37t-79 -103q-6 -23 -31 -20l-100 12q-13 2 -19.5 7.5t-5.5 15.5q20 113 126 182.5t263 69.5z
M465 109q121 0 210 60.5t89 162.5v157q0 11 -10 11h-215q-136 0 -217.5 -55.5t-81.5 -153.5q0 -90 63 -136t162 -46z" />
    <glyph glyph-name="uni0218" unicode="&#x218;" horiz-adv-x="1200" 
d="M610 -16q-226 0 -359.5 104.5t-133.5 278.5v57q0 27 26 27h88q12 0 19.5 -7.5t7.5 -19.5v-49q0 -117 98.5 -190.5t264.5 -73.5q157 0 239 66t82 177q0 54 -20 95.5t-70 80t-114.5 71t-172.5 77.5q-52 21 -80 32.5t-72.5 31t-68.5 33.5t-58 36t-52.5 41t-39.5 45.5t-32 54
t-18 62t-7 73.5q0 172 120 267.5t331 95.5q225 0 356 -106.5t131 -282.5v-39q0 -27 -26 -27h-91q-26 0 -26 27v31q0 120 -92.5 195t-259.5 75q-145 0 -222 -59.5t-77 -171.5q0 -38 8.5 -68.5t31.5 -57t46.5 -45.5t72.5 -42.5t89 -40t114 -45.5q61 -25 104.5 -44t93 -45.5
t83.5 -51t67 -56.5t52.5 -66.5t31.5 -77.5t12 -92q0 -170 -126 -273t-351 -103zM479 -395q-15 0 -20.5 9.5t2.5 23.5l117 210q10 19 30 19h88q15 0 20 -9.5t-3 -23.5l-131 -211q-12 -18 -31 -18h-72z" />
    <glyph glyph-name="uni0219" unicode="&#x219;" horiz-adv-x="987" 
d="M504 -10q-173 0 -281 78.5t-108 193.5v19q0 26 26 26h88q27 0 27 -18v-19q0 -67 69.5 -117.5t176.5 -50.5q106 0 171.5 48.5t65.5 121.5q0 81 -94 127q-39 19 -160 56q-47 14 -76 23t-72 25.5t-70 31.5t-57.5 39t-48 49.5t-29 60.5t-11.5 76q0 131 104 209t271 78
q170 0 275.5 -80t105.5 -203q0 -12 -7.5 -19.5t-19.5 -7.5h-84q-27 0 -27 15v12q0 70 -66.5 117t-178.5 47q-104 0 -168 -42.5t-64 -115.5q0 -30 13.5 -54.5t33 -41t56.5 -33t66.5 -26.5t80.5 -25q40 -11 59.5 -17t57.5 -18t58 -21t51.5 -25t49 -30.5t39 -36t32.5 -44.5
t18.5 -52.5t7.5 -62.5q0 -132 -104 -212.5t-277 -80.5zM385 -389q-15 0 -20.5 9.5t2.5 23.5l116 211q9 18 31 18h88q15 0 19.5 -9.5t-3.5 -23.5l-131 -211q-12 -18 -30 -18h-72z" />
    <glyph glyph-name="uni021A" unicode="&#x21a;" horiz-adv-x="1177" 
d="M88 1407q0 12 7.5 19.5t19.5 7.5h936q26 0 26 -27v-76q0 -26 -26 -26h-394q-10 0 -10 -11v-1267q0 -27 -26 -27h-93q-26 0 -26 27v1267q0 11 -10 11h-377q-27 0 -27 26v76zM397 -379q-15 0 -20.5 9.5t2.5 23.5l117 211q9 18 30 18h88q15 0 20 -9.5t-3 -23.5l-131 -210
q-13 -19 -31 -19h-72z" />
    <glyph glyph-name="uni021B" unicode="&#x21b;" horiz-adv-x="745" 
d="M629 942q0 -12 -7.5 -19.5t-19.5 -7.5h-223q-10 0 -10 -10v-598q0 -97 43.5 -137.5t138.5 -40.5h45q12 0 19.5 -7.5t7.5 -19.5v-71q0 -26 -27 -29h-70q-72 0 -123 11t-92.5 38.5t-62.5 80t-21 130.5v643q0 10 -10 10h-117q-26 0 -26 27v68q0 26 26 26h117q10 0 10 11v229
q0 12 7.5 19.5t19.5 7.5h88q12 0 19.5 -7.5t7.5 -19.5v-229q0 -11 10 -11h223q27 0 27 -26v-68zM356 -422q-15 0 -20.5 10t2.5 23l117 211q9 18 30 18h88q15 0 20 -10t-3 -23l-131 -210q-13 -19 -31 -19h-72z" />
    <glyph glyph-name="uni0228" unicode="&#x228;" horiz-adv-x="1239" 
d="M1120 1333q0 -26 -26 -26h-746q-10 0 -10 -11v-501q0 -11 10 -11h520q27 0 27 -26v-74q0 -12 -7.5 -19.5t-19.5 -7.5h-520q-10 0 -10 -10v-510q0 -10 10 -10h746q26 0 26 -27v-73q0 -27 -26 -27h-363q-6 0 -7.5 -4t3.5 -8q122 -111 92 -230q-11 -46 -40 -75t-66.5 -38.5
t-75 -8.5t-74.5 10q-23 6 -20 30l6 33q3 28 31 21q52 -10 90.5 6.5t46.5 62.5q19 91 -107 197q-8 4 -12 4h-379q-26 0 -26 27v1380q0 27 26 27h875q26 0 26 -27v-74z" />
    <glyph glyph-name="uni0229" unicode="&#x229;" horiz-adv-x="1093" 
d="M567 109q185 3 262 153q5 11 14.5 14.5t20.5 -2.5l60 -32q22 -12 12 -35q-44 -90 -124.5 -147t-190.5 -72q-14 -4 -5 -13q131 -116 99 -235q-11 -46 -40 -75t-66.5 -38.5t-75 -9t-74.5 9.5q-24 6 -21 31l6 33q3 27 31 20q33 -5 61 -2t49 21.5t27 50.5q21 93 -112 203
q-8 4 -13 4q-118 15 -197.5 80.5t-117.5 171.5q-39 102 -39 282q0 163 19 238q34 134 139.5 213.5t255.5 79.5q177 0 278.5 -93t130.5 -260q13 -72 13 -204q0 -12 -7.5 -19.5t-19.5 -7.5h-655q-11 0 -11 -10q0 -100 13 -150q22 -91 95 -145.5t183 -54.5zM547 926
q-101 0 -167 -52.5t-87 -140.5q-14 -46 -17 -139q0 -10 11 -10h526q10 0 10 10q-3 89 -12 131q-22 92 -91.5 146.5t-172.5 54.5z" />
    <glyph glyph-name="circumflex" unicode="&#x2c6;" horiz-adv-x="532" 
d="M41 1167q-17 0 -21.5 10.5t5.5 22.5l159 209q11 16 33 16h96q22 0 33 -16l162 -209q10 -12 5.5 -22.5t-21.5 -10.5h-66q-19 0 -33 17l-119 164q-7 10 -14 0l-121 -164q-14 -17 -33 -17h-65z" />
    <glyph glyph-name="caron" unicode="&#x2c7;" horiz-adv-x="645" 
d="M268 1165q-18 0 -32 17l-152 209q-9 13 -4 22.5t20 9.5h62q20 0 33 -16l120 -164q7 -11 15 0l121 164q13 16 32 16h62q15 0 20 -9.5t-4 -22.5l-153 -209q-14 -17 -33 -17h-107z" />
    <glyph glyph-name="uni02C9" unicode="&#x2c9;" horiz-adv-x="550" 
d="M27 1217q-27 0 -27 26v51q0 12 7.5 19.5t19.5 7.5h497q12 0 19.5 -7.5t7.5 -19.5v-51q0 -26 -27 -26h-497z" />
    <glyph glyph-name="breve" unicode="&#x2d8;" horiz-adv-x="569" 
d="M285 1143q-86 0 -149.5 54t-74.5 136q-1 12 6 19.5t19 7.5h37q24 0 27 -25q9 -50 46.5 -82t88.5 -32q49 0 86.5 32t46.5 82q3 25 26 25h39q12 0 19 -7.5t6 -19.5q-9 -82 -73 -136t-150 -54z" />
    <glyph glyph-name="dotaccent" unicode="&#x2d9;" horiz-adv-x="301" 
d="M154 1200q-41 0 -68 25t-27 65q0 38 27 64t68 26q38 0 63 -26t25 -64q0 -40 -25 -65t-63 -25z" />
    <glyph glyph-name="ring" unicode="&#x2da;" horiz-adv-x="544" 
d="M274 1165q-91 0 -153 61t-62 150q0 88 62 148.5t153 60.5q89 0 151 -60.5t62 -148.5q0 -89 -62 -150t-151 -61zM274 1245q55 0 93.5 37.5t38.5 93.5q0 55 -39 93t-93 38q-56 0 -94.5 -38t-38.5 -93q0 -56 38.5 -93.5t94.5 -37.5z" />
    <glyph glyph-name="ogonek" unicode="&#x2db;" horiz-adv-x="286" 
d="M283 -340q3 -25 -21 -31q-37 -9 -74.5 -9.5t-75 9t-66.5 38.5t-40 75q-33 129 113 246q12 12 33 12h38q19 0 22.5 -10t-9.5 -23q-113 -99 -94 -184q6 -32 27 -50.5t49 -21.5t61 2q27 7 30 -20z" />
    <glyph glyph-name="tilde" unicode="&#x2dc;" horiz-adv-x="702" 
d="M463 1212q-55 0 -127 50q-22 16 -32.5 22.5t-26.5 12.5t-33 6q-30 0 -52 -11t-45 -39q-19 -22 -38 -8l-29 21q-21 14 -8 37q61 102 164 102q24 0 48.5 -8.5t36.5 -15t39 -23.5q71 -43 101 -43q58 0 96 55q15 21 37 8l31 -18q22 -16 0 -51q-33 -49 -77 -73t-85 -24z" />
    <glyph glyph-name="hungarumlaut" unicode="&#x2dd;" horiz-adv-x="745" 
d="M96 1198q-15 0 -21 10t1 23l117 211q9 18 30 18h88q15 0 20 -10t-3 -23l-131 -210q-13 -19 -31 -19h-70zM434 1198q-15 0 -21 10t1 23l116 211q9 18 31 18h88q15 0 20 -10t-3 -23l-131 -210q-13 -19 -31 -19h-70z" />
    <glyph glyph-name="gravecomb" unicode="&#x300;" 
d="M-18 1214q7 -14 1.5 -23t-20.5 -9h-72q-18 0 -30 18l-131 211q-8 13 -3.5 23t19.5 10h88q22 0 31 -19z" />
    <glyph glyph-name="acutecomb" unicode="&#x301;" 
d="M-360 1182q-15 0 -20.5 9t1.5 23l117 211q10 19 31 19h88q15 0 19.5 -10t-3.5 -23l-131 -211q-12 -18 -31 -18h-71z" />
    <glyph glyph-name="uni0302" unicode="&#x302;" 
d="M-492 1167q-17 0 -21.5 10.5t5.5 22.5l160 209q11 16 33 16h96q22 0 33 -16l161 -209q10 -12 5.5 -22.5t-21.5 -10.5h-65q-19 0 -33 17l-119 164q-7 10 -14 0l-121 -164q-14 -17 -33 -17h-66z" />
    <glyph glyph-name="tildecomb" unicode="&#x303;" 
d="M-193 1212q-54 0 -126 50q-22 15 -33 22t-27 13t-33 6q-30 0 -51.5 -11t-44.5 -39q-19 -22 -39 -8l-28 21q-22 15 -9 37q61 102 164 102q24 0 48.5 -8t37.5 -15.5t39 -23.5q2 -1 12 -7t13 -8t12 -7t13.5 -7t12 -5.5t13 -5t12 -2.5t12.5 -1q59 0 97 55q15 21 37 8l30 -18
q22 -16 0 -51q-33 -49 -77 -73t-85 -24z" />
    <glyph glyph-name="uni0304" unicode="&#x304;" 
d="M-524 1217q-27 0 -27 26v51q0 12 7.5 19.5t19.5 7.5h497q12 0 19.5 -7.5t7.5 -19.5v-51q0 -26 -27 -26h-497z" />
    <glyph glyph-name="uni0306" unicode="&#x306;" 
d="M-285 1114q-86 0 -149 54.5t-74 136.5q-1 12 6 19t19 7h37q23 0 26 -24q9 -50 46.5 -82.5t88.5 -32.5q49 0 86.5 32.5t46.5 82.5q3 24 27 24h39q12 0 19 -7t6 -19q-9 -82 -73.5 -136.5t-150.5 -54.5z" />
    <glyph glyph-name="uni0307" unicode="&#x307;" 
d="M-88 1200q-41 0 -67.5 25t-26.5 65q0 39 26.5 64.5t67.5 25.5q38 0 63 -26t25 -64q0 -40 -25 -65t-63 -25z" />
    <glyph glyph-name="uni0308" unicode="&#x308;" 
d="M-440 1229q-43 0 -71 26.5t-28 67.5t28 68.5t71 27.5q41 0 67.5 -27.5t26.5 -68.5t-26.5 -67.5t-67.5 -26.5zM-96 1229q-43 0 -70 26.5t-27 67.5t27.5 68.5t69.5 27.5t69 -27t27 -69q0 -41 -26.5 -67.5t-69.5 -26.5z" />
    <glyph glyph-name="uni030A" unicode="&#x30a;" 
d="M-209 1165q-91 0 -153 61t-62 150q0 88 62 148.5t153 60.5q89 0 151 -60.5t62 -148.5q0 -89 -62 -150t-151 -61zM-209 1245q55 0 93 37.5t38 93.5q0 55 -38.5 93t-92.5 38q-56 0 -94.5 -38t-38.5 -93q0 -56 38.5 -93.5t94.5 -37.5z" />
    <glyph glyph-name="uni030B" unicode="&#x30b;" 
d="M-633 1178q-31 0 -18 30l108 213q9 19 33 19h80q15 0 20.5 -10t-2.5 -23l-116 -211q-9 -18 -31 -18h-74zM-297 1178q-15 0 -21 8t1 22l114 213q9 19 31 19h76q15 0 20.5 -10t-2.5 -23l-119 -211q-9 -18 -30 -18h-70z" />
    <glyph glyph-name="uni030C" unicode="&#x30c;" 
d="M-377 1149q-20 0 -33 16l-153 211q-9 14 -3 23.5t21 9.5h62q19 0 32 -16l121 -164q8 -11 15 0l120 164q13 16 33 16h62q15 0 20 -9.5t-4 -23.5l-154 -211q-13 -16 -32 -16h-107z" />
    <glyph glyph-name="uni0312" unicode="&#x312;" 
d="M-96 1417q15 0 20.5 -9.5t-2.5 -23.5l-117 -210q-9 -19 -30 -19h-88q-15 0 -20 9.5t3 23.5l131 211q12 18 31 18h72z" />
    <glyph glyph-name="uni0313" unicode="&#x313;" 
d="M-254 1182q-15 0 -20 9t2 23l116 211q10 19 31 19h88q15 0 20 -10t-3 -23l-132 -211q-12 -18 -30 -18h-72z" />
    <glyph glyph-name="uni0326" unicode="&#x326;" 
d="M-313 -379q-15 0 -20.5 9.5t1.5 23.5l117 211q9 18 31 18h88q15 0 19.5 -9.5t-3.5 -23.5l-131 -210q-13 -19 -31 -19h-71z" />
    <glyph glyph-name="uni0327" unicode="&#x327;" 
d="M-262 -371q-24 6 -21 31l7 33q3 27 30 20q33 -5 61 -2t49 21.5t27 50.5q19 85 -94 184q-13 13 -9.5 23t22.5 10h38q21 0 33 -12q146 -117 113 -246q-11 -46 -40 -75t-66.5 -38.5t-75 -9t-74.5 9.5z" />
    <glyph glyph-name="uni0328" unicode="&#x328;" 
d="M-4 -340q3 -25 -21 -31q-37 -9 -74.5 -9.5t-75 9t-66.5 38.5t-40 75q-33 129 113 246q12 12 33 12h39q19 0 22.5 -10t-10.5 -23q-113 -99 -94 -184q6 -32 27 -50.5t49 -21.5t61 2q28 7 31 -20z" />
    <glyph glyph-name="uni0335" unicode="&#x335;" 
d="M-649 1243q0 27 26 27h596q12 0 19.5 -7.5t7.5 -19.5v-43q0 -26 -27 -26h-596q-26 0 -26 26v43z" />
    <glyph glyph-name="uni0336" unicode="&#x336;" 
d="M-1184 1057q-26 0 -26 26v52q0 26 26 26h1157q27 0 27 -26v-52q0 -26 -27 -26h-1157z" />
    <glyph glyph-name="uni0337" unicode="&#x337;" 
d="M-788 82q-20 -17 -37 4l-41 49q-15 22 6 37l897 676q20 17 37 -4l39 -49q14 -20 -7 -37z" />
    <glyph glyph-name="uni0338" unicode="&#x338;" 
d="M-846 -80q-15 0 -20.5 9t0.5 22l737 1554q11 21 33 21h61q15 0 21 -9t0 -22l-740 -1554q-10 -21 -32 -21h-60z" />
    <glyph glyph-name="uni0394" unicode="&#x394;" horiz-adv-x="1306" 
d="M92 0q-26 0 -26 27v84q0 17 6 32l516 1270q9 21 30 21h70q22 0 31 -21l516 -1272q6 -15 6 -32v-82q0 -12 -7.5 -19.5t-19.5 -7.5h-1122zM213 139q-1 -5 1 -8.5t7 -3.5h864q5 0 7.5 4t1.5 8l-435 1094q-6 15 -12 0z" />
    <glyph glyph-name="uni03A9" unicode="&#x3a9;" horiz-adv-x="1312" 
d="M174 0q-12 0 -19.5 7.5t-7.5 19.5v73q0 12 7.5 19.5t19.5 7.5h160q6 0 8 3.5t-4 8.5q-81 56 -125.5 147t-44.5 206v483q0 214 133.5 344.5t353.5 130.5q221 0 355.5 -130.5t134.5 -344.5v-483q0 -116 -44.5 -206.5t-127.5 -146.5q-6 -5 -4 -8.5t8 -3.5h162q26 0 26 -27
v-73q0 -27 -26 -27h-371q-12 0 -19.5 7.5t-7.5 19.5v77q0 22 23 29q96 25 165.5 117.5t69.5 220.5v508q0 155 -94.5 249.5t-249.5 94.5q-154 0 -248 -94.5t-94 -249.5v-508q0 -128 70 -220.5t164 -117.5q22 -6 22 -29v-77q0 -27 -26 -27h-369z" />
    <glyph glyph-name="uni03BC" unicode="&#x3bc;" horiz-adv-x="1118" 
d="M805 1010q0 26 26 26h93q26 0 26 -26v-983q0 -27 -26 -27h-93q-26 0 -26 27v77q0 6 -3.5 8.5t-8.5 -3.5q-87 -123 -271 -123q-115 0 -200 49q-4 3 -8.5 1.5t-4.5 -7.5v-412q0 -27 -26 -27h-93q-26 0 -26 27v659v13q-2 10 -2 35v686q0 26 26 26h95q26 0 26 -26v-682
q11 -99 75 -157t167 -58q116 0 185 69.5t69 184.5v643z" />
    <glyph glyph-name="pi" unicode="&#x3c0;" horiz-adv-x="1323" 
d="M1243 938q0 -27 -26 -27h-142q-10 0 -10 -10v-588q0 -108 28.5 -145.5t98.5 -40.5q27 0 27 -27v-71q0 -12 -7.5 -19.5t-19.5 -7.5q-47 0 -81.5 4t-72.5 19t-62 41t-40 72.5t-16 111.5v651q0 10 -11 10h-481q-10 0 -10 -10v-874q0 -12 -7.5 -19.5t-19.5 -7.5h-92
q-12 0 -19.5 7.5t-7.5 19.5v874q0 10 -10 10h-156q-26 0 -26 27v72q0 26 26 26h1111q26 0 26 -26v-72z" />
    <glyph glyph-name="Wgrave" unicode="&#x1e80;" horiz-adv-x="1785" 
d="M934 1612q7 -14 1.5 -23.5t-20.5 -9.5h-71q-19 0 -31 18l-131 211q-8 14 -3.5 23.5t19.5 9.5h88q22 0 31 -18zM471 0q-23 0 -29 23l-389 1380q-3 14 3.5 22.5t19.5 8.5h100q23 0 29 -23l307 -1110q2 -6 6 -6t6 6l287 1110q7 23 31 23h98q23 0 29 -23l299 -1112q2 -6 6 -6
t6 6l307 1112q6 23 29 23h94q13 0 19.5 -8.5t3.5 -22.5l-383 -1380q-6 -23 -29 -23h-98q-24 0 -31 23l-295 1138q-1 6 -6 6t-6 -6l-291 -1138q-7 -23 -31 -23h-92z" />
    <glyph glyph-name="wgrave" unicode="&#x1e81;" horiz-adv-x="1476" 
d="M772 1214q7 -14 2 -23t-20 -9h-72q-19 0 -31 18l-131 211q-8 13 -3 23t20 10h88q21 0 30 -19zM383 0q-23 0 -29 23l-286 983q-4 13 2 21.5t20 8.5h96q24 0 29 -22l213 -799q2 -6 6 -6t6 6l219 799q5 22 29 22h90q24 0 29 -22l223 -799q2 -6 6 -6t6 6l220 799q6 22 30 22
l94 -2q14 0 20.5 -8.5t2.5 -21.5l-291 -981q-6 -23 -28 -23h-101q-22 0 -28 23l-222 755q-1 6 -6 6t-6 -6l-213 -755q-6 -23 -29 -23h-102z" />
    <glyph glyph-name="Wacute" unicode="&#x1e82;" horiz-adv-x="1785" 
d="M831 1579q-15 0 -20.5 9.5t2.5 23.5l117 211q9 18 31 18h88q15 0 19.5 -9.5t-3.5 -23.5l-131 -211q-12 -18 -31 -18h-72zM471 0q-23 0 -29 23l-389 1380q-3 14 3.5 22.5t19.5 8.5h100q23 0 29 -23l307 -1110q2 -6 6 -6t6 6l287 1110q7 23 31 23h98q23 0 29 -23l299 -1112
q2 -6 6 -6t6 6l307 1112q6 23 29 23h94q13 0 19.5 -8.5t3.5 -22.5l-383 -1380q-6 -23 -29 -23h-98q-24 0 -31 23l-295 1138q-1 6 -6 6t-6 -6l-291 -1138q-7 -23 -31 -23h-92z" />
    <glyph glyph-name="wacute" unicode="&#x1e83;" horiz-adv-x="1476" 
d="M670 1182q-15 0 -20.5 9t1.5 23l117 211q10 19 31 19h88q15 0 19.5 -10t-3.5 -23l-131 -211q-12 -18 -31 -18h-71zM383 0q-23 0 -29 23l-286 983q-4 13 2 21.5t20 8.5h96q24 0 29 -22l213 -799q2 -6 6 -6t6 6l219 799q5 22 29 22h90q24 0 29 -22l223 -799q2 -6 6 -6t6 6
l220 799q6 22 30 22l94 -2q14 0 20.5 -8.5t2.5 -21.5l-291 -981q-6 -23 -28 -23h-101q-22 0 -28 23l-222 755q-1 6 -6 6t-6 -6l-213 -755q-6 -23 -29 -23h-102z" />
    <glyph glyph-name="Wdieresis" unicode="&#x1e84;" horiz-adv-x="1785" 
d="M719 1626q-43 0 -70.5 26.5t-27.5 67.5q0 42 27.5 69.5t70.5 27.5q41 0 67.5 -27.5t26.5 -69.5q0 -41 -26.5 -67.5t-67.5 -26.5zM1063 1626q-43 0 -69.5 26.5t-26.5 67.5q0 42 27 69.5t69 27.5t69 -27.5t27 -69.5q0 -41 -26.5 -67.5t-69.5 -26.5zM471 0q-23 0 -29 23
l-389 1380q-3 14 3.5 22.5t19.5 8.5h100q23 0 29 -23l307 -1110q2 -6 6 -6t6 6l287 1110q7 23 31 23h98q23 0 29 -23l299 -1112q2 -6 6 -6t6 6l307 1112q6 23 29 23h94q13 0 19.5 -8.5t3.5 -22.5l-383 -1380q-6 -23 -29 -23h-98q-24 0 -31 23l-295 1138q-1 6 -6 6t-6 -6
l-291 -1138q-7 -23 -31 -23h-92z" />
    <glyph glyph-name="wdieresis" unicode="&#x1e85;" horiz-adv-x="1476" 
d="M557 1229q-43 0 -70.5 26.5t-27.5 67.5t27.5 68.5t70.5 27.5q41 0 67.5 -27.5t26.5 -68.5t-26.5 -67.5t-67.5 -26.5zM901 1229q-43 0 -69.5 26.5t-26.5 67.5q0 42 27 69t69 27t69 -27t27 -69q0 -41 -26.5 -67.5t-69.5 -26.5zM383 0q-23 0 -29 23l-286 983q-4 13 2 21.5
t20 8.5h96q24 0 29 -22l213 -799q2 -6 6 -6t6 6l219 799q5 22 29 22h90q24 0 29 -22l223 -799q2 -6 6 -6t6 6l220 799q6 22 30 22l94 -2q14 0 20.5 -8.5t2.5 -21.5l-291 -981q-6 -23 -28 -23h-101q-22 0 -28 23l-222 755q-1 6 -6 6t-6 -6l-213 -755q-6 -23 -29 -23h-102z
" />
    <glyph glyph-name="Ygrave" unicode="&#x1ef2;" horiz-adv-x="1161" 
d="M623 1610q7 -14 1.5 -23.5t-20.5 -9.5h-72q-18 0 -30 18l-131 211q-8 14 -3.5 23.5t19.5 9.5h88q22 0 31 -18zM535 2q-12 0 -19.5 7.5t-7.5 19.5v600q0 4 -4 12l-420 760q-8 13 -2.5 23t20.5 10h99q21 0 30 -19l342 -618q7 -10 13 0l344 618q10 19 31 19h98
q15 0 20.5 -10t-2.5 -23l-420 -760q-4 -8 -4 -12v-600q0 -27 -26 -27h-92z" />
    <glyph glyph-name="ygrave" unicode="&#x1ef3;" horiz-adv-x="944" 
d="M514 1223q8 -13 2.5 -23t-20.5 -10h-72q-19 0 -31 18l-131 211q-8 13 -3 23t20 10h88q21 0 30 -18zM117 -410q-15 0 -15 27v72q0 26 15 26h14q115 0 165 53t103 226q2 5 0 12l-344 1000q-4 13 2.5 21.5t20.5 8.5h96q25 0 31 -22l264 -803q1 -5 3.5 -7t5 0t3.5 7l258 803
q5 22 29 22h98q14 0 20.5 -8.5t2.5 -21.5l-377 -1096q-29 -83 -53.5 -134.5t-54 -90.5t-68.5 -58.5t-86.5 -28t-118.5 -8.5h-14z" />
    <glyph glyph-name="endash" unicode="&#x2013;" horiz-adv-x="921" 
d="M106 514q-26 0 -26 27v75q0 27 26 27h709q12 0 19.5 -7.5t7.5 -19.5v-75q0 -12 -7.5 -19.5t-19.5 -7.5h-709z" />
    <glyph glyph-name="emdash" unicode="&#x2014;" horiz-adv-x="1402" 
d="M106 516q-26 0 -26 27v73q0 27 26 27h1190q12 0 19.5 -7.5t7.5 -19.5v-73q0 -12 -7.5 -19.5t-19.5 -7.5h-1190z" />
    <glyph glyph-name="quoteleft" unicode="&#x2018;" horiz-adv-x="286" 
d="M33 1014q-14 0 -19.5 8.5t-1.5 21.5l148 369q9 21 30 21h64q14 0 20 -9t2 -22l-118 -367q-6 -22 -29 -22h-96z" />
    <glyph glyph-name="quoteright" unicode="&#x2019;" horiz-adv-x="286" 
d="M254 1434q13 0 19 -8.5t1 -22.5l-147 -369q-9 -20 -31 -20h-63q-14 0 -20.5 8.5t-2.5 21.5l119 367q6 23 29 23h96z" />
    <glyph glyph-name="quotesinglbase" unicode="&#x201a;" horiz-adv-x="1228" 
d="M164 -162q-14 0 -21 8t-4 21l88 426q7 24 29 24h78q28 0 22 -28l-110 -428q-7 -23 -31 -23h-51z" />
    <glyph glyph-name="quotedblleft" unicode="&#x201c;" horiz-adv-x="546" 
d="M33 1014q-14 0 -19.5 8.5t-1.5 21.5l140 369q9 21 30 21h62q14 0 20 -9t2 -22l-112 -367q-6 -22 -29 -22h-92zM305 1014q-13 0 -19 8t-1 22l139 369q9 21 31 21h61q14 0 20.5 -9t2.5 -22l-113 -367q-6 -22 -29 -22h-92z" />
    <glyph glyph-name="quotedblright" unicode="&#x201d;" horiz-adv-x="546" 
d="M242 1434q13 0 19 -8.5t1 -22.5l-139 -369q-9 -20 -31 -20h-61q-14 0 -20.5 8.5t-2.5 21.5l113 367q6 23 29 23h92zM514 1434q14 0 19.5 -9t1.5 -22l-140 -369q-9 -20 -30 -20h-62q-14 0 -20 8.5t-2 21.5l112 367q6 23 29 23h92z" />
    <glyph glyph-name="quotedblbase" unicode="&#x201e;" horiz-adv-x="563" 
d="M242 262q13 0 19 -8.5t1 -22.5l-139 -368q-9 -21 -31 -21h-61q-14 0 -20.5 9t-2.5 22l113 367q5 22 29 22h92zM514 262q14 0 19.5 -9t1.5 -22l-140 -368q-9 -21 -30 -21h-62q-14 0 -20 9t-2 22l112 367q5 22 29 22h92z" />
    <glyph glyph-name="dagger" unicode="&#x2020;" horiz-adv-x="874" 
d="M768 938q12 0 19.5 -7.5t7.5 -19.5v-61q0 -12 -7.5 -19.5t-19.5 -7.5h-248q-10 0 -10 -10v-1196q0 -12 -7.5 -19.5t-19.5 -7.5h-92q-26 0 -26 27v1196q0 10 -11 10h-248q-26 0 -26 27v61q0 27 26 27h248q11 0 11 10v459q0 27 26 27h92q12 0 19.5 -7.5t7.5 -19.5v-459
q0 -10 10 -10h248z" />
    <glyph glyph-name="daggerdbl" unicode="&#x2021;" horiz-adv-x="874" 
d="M795 850q0 -12 -7.5 -19.5t-19.5 -7.5h-248q-10 0 -10 -10v-602q0 -10 10 -10h248q12 0 19.5 -7.5t7.5 -19.5v-61q0 -12 -7.5 -19.5t-19.5 -7.5h-248q-10 0 -10 -10v-459q0 -12 -7.5 -19.5t-19.5 -7.5h-92q-26 0 -26 27v459q0 10 -11 10h-248q-26 0 -26 27v61q0 27 26 27
h248q11 0 11 10v602q0 10 -11 10h-248q-26 0 -26 27v61q0 27 26 27h248q11 0 11 10v459q0 27 26 27h92q12 0 19.5 -7.5t7.5 -19.5v-459q0 -10 10 -10h248q12 0 19.5 -7.5t7.5 -19.5v-61z" />
    <glyph glyph-name="bullet" unicode="&#x2022;" horiz-adv-x="632" 
d="M317 309q-98 0 -167.5 70.5t-69.5 167.5q0 98 69.5 166.5t167.5 68.5q97 0 166.5 -68.5t69.5 -166.5q0 -97 -69.5 -167.5t-166.5 -70.5z" />
    <glyph glyph-name="ellipsis" unicode="&#x2026;" horiz-adv-x="1619" 
d="M276 6q-55 0 -90.5 34.5t-35.5 86.5q0 51 37.5 86t88.5 35q50 0 88.5 -35.5t38.5 -85.5q0 -51 -37 -86t-90 -35zM811 6q-55 0 -91 35t-36 86q0 50 37.5 85.5t89.5 35.5q50 0 88.5 -35.5t38.5 -85.5q0 -51 -37 -86t-90 -35zM1335 6q-55 0 -91 35t-36 86q0 50 37.5 85.5
t89.5 35.5q50 0 88.5 -35.5t38.5 -85.5q0 -51 -37 -86t-90 -35z" />
    <glyph glyph-name="perthousand" unicode="&#x2030;" horiz-adv-x="2334" 
d="M330 567q-121 0 -192.5 69.5t-71.5 186.5v375q0 116 71.5 184t192.5 68q122 0 195 -68.5t73 -183.5v-375q0 -117 -73 -186.5t-195 -69.5zM391 0q-15 0 -19.5 10t3.5 23l866 1382q13 19 31 19h55q15 0 19.5 -10t-3.5 -23l-864 -1383q-12 -18 -30 -18h-58zM330 659
q75 0 119.5 42.5t44.5 113.5v387q0 71 -44.5 114.5t-119.5 43.5q-72 0 -117 -44t-45 -114v-387q0 -70 45 -113t117 -43zM1362 -16q-121 0 -192.5 69.5t-71.5 186.5v374q0 116 71.5 184t192.5 68q122 0 195 -68.5t73 -183.5v-374q0 -117 -73 -186.5t-195 -69.5zM2013 -16
q-121 0 -192.5 69.5t-71.5 186.5v374q0 116 71.5 184t192.5 68q122 0 195 -68.5t73 -183.5v-374q0 -117 -73 -186.5t-195 -69.5zM1362 76q75 0 119.5 42t44.5 113v387q0 71 -44.5 114.5t-119.5 43.5q-72 0 -117 -44t-45 -114v-387q0 -70 45 -112.5t117 -42.5zM2013 76
q75 0 119.5 42t44.5 113v387q0 71 -44.5 114.5t-119.5 43.5q-72 0 -117 -44t-45 -114v-387q0 -70 45 -112.5t117 -42.5z" />
    <glyph glyph-name="guilsinglleft" unicode="&#x2039;" horiz-adv-x="743" 
d="M526 252q11 -12 6 -22.5t-22 -10.5h-86q-22 0 -33 17l-252 321q-15 19 0 37l252 321q11 17 33 17h86q17 0 22 -10.5t-6 -22.5l-247 -315q-6 -8 0 -17z" />
    <glyph glyph-name="guilsinglright" unicode="&#x203a;" horiz-adv-x="804" 
d="M233 219q-17 0 -22 10.5t6 22.5l248 315q6 9 0 17l-248 315q-11 12 -6 22.5t22 10.5h86q22 0 33 -17l252 -321q15 -18 0 -37l-252 -321q-11 -17 -33 -17h-86z" />
    <glyph glyph-name="fraction" unicode="&#x2044;" horiz-adv-x="481" 
d="M-217 0q-15 0 -19.5 10t3.5 23l866 1382q13 19 31 19h55q15 0 19.5 -10t-3.5 -23l-864 -1383q-12 -18 -31 -18h-57z" />
    <glyph glyph-name="uni2074" unicode="&#x2074;" horiz-adv-x="690" 
d="M592 1231q26 0 26 -27v-41q0 -26 -26 -26h-33q-10 0 -10 -11v-194q0 -12 -7.5 -19.5t-19.5 -7.5h-51q-12 0 -19.5 7.5t-7.5 19.5v194q0 11 -10 11h-350q-27 0 -27 26v37q0 10 9 33l235 512q10 20 31 20h51q15 0 20.5 -8.5t-0.5 -21.5l-223 -492q-4 -12 6 -12h248
q10 0 10 10v172q0 12 7.5 19.5t19.5 7.5h51q12 0 19.5 -7.5t7.5 -19.5v-172q0 -10 10 -10h33z" />
    <glyph glyph-name="uni2075" unicode="&#x2075;" horiz-adv-x="618" 
d="M545 1305q24 -59 24 -140q0 -74 -24 -137q-62 -139 -230 -139q-87 0 -149.5 44.5t-87.5 119.5q-9 33 -12 63q-1 12 5.5 19.5t18.5 7.5h55q24 0 27 -25l6 -31q11 -50 47 -78t90 -28q91 0 127 80q23 48 23 102q0 61 -23 109q-37 78 -125 78q-45 0 -81.5 -19t-53.5 -53
q-14 -21 -30 -21h-60q-26 0 -26 27v449q0 26 26 26h418q27 0 27 -26v-37q0 -12 -7.5 -19.5t-19.5 -7.5h-332q-10 0 -10 -10v-256q0 -6 4 -8t8 2q61 43 152 43q150 0 213 -135z" />
    <glyph glyph-name="uni2076" unicode="&#x2076;" horiz-adv-x="636" 
d="M567 1278q13 -42 13 -113q0 -64 -13 -112q-24 -74 -88 -119t-153 -45q-85 0 -147 45t-89 119q-14 41 -14 114v375q0 105 67.5 166t182.5 61q102 0 168.5 -59.5t66.5 -153.5v-6q0 -26 -26 -26h-52q-26 0 -26 10v10q0 59 -37.5 96t-95.5 37q-66 0 -106 -39t-40 -108v-150
q0 -4 1.5 -6t4.5 -1.5t6 3.5q62 62 152 62q79 0 140.5 -44t84.5 -116zM465 1081q12 37 12 82q0 43 -10 76q-9 48 -46.5 78.5t-92.5 30.5q-52 0 -88.5 -29t-49.5 -74q-10 -31 -10 -82q0 -49 8 -80q11 -46 48.5 -74t91.5 -28q53 0 89 27.5t48 72.5z" />
    <glyph glyph-name="uni2077" unicode="&#x2077;" horiz-adv-x="569" 
d="M182 905q-13 0 -19 8.5t-1 22.5l268 727q3 12 -8 12h-301q-10 0 -10 -10v-59q0 -12 -7.5 -19.5t-19.5 -7.5h-33q-26 0 -26 27v133q0 26 26 26h467q27 0 27 -26v-47q0 -18 -6 -33l-271 -733q-6 -21 -30 -21h-56z" />
    <glyph glyph-name="uni2078" unicode="&#x2078;" horiz-adv-x="643" 
d="M473 1362q-12 -6 0 -12q63 -38 86 -107q14 -43 14 -100q0 -53 -14 -96q-22 -72 -86.5 -115t-153.5 -43q-86 0 -148 42.5t-89 115.5q-16 49 -16 98q0 41 18 96q24 72 84 107q12 6 0 12q-62 43 -82 102q-18 37 -18 82q0 46 18 86q57 142 233 142q88 0 150.5 -38.5
t87.5 -105.5q16 -39 16 -82q0 -39 -16 -82q-25 -64 -84 -102zM170 1538q0 -13 8 -45q12 -44 48 -70t93 -26q54 0 91 22t49 60q5 13 8 30q2 8 2 29q0 31 -6 47q-12 46 -50 71t-94 25q-111 0 -139 -98q-10 -23 -10 -45zM461 1087q6 20 6 64q0 34 -4 57q-11 48 -50 78.5
t-94 30.5t-90.5 -30t-48.5 -79q-8 -31 -8 -59q0 -31 8 -62q9 -48 46.5 -78t92.5 -30t93 30t49 78z" />
    <glyph glyph-name="uni2079" unicode="&#x2079;" horiz-adv-x="636" 
d="M547 1606q14 -41 14 -115v-375q0 -105 -67.5 -166t-182.5 -61q-102 0 -168.5 59.5t-66.5 153.5v6q0 27 26 27h52q26 0 26 -11v-10q0 -59 37.5 -96t95.5 -37q66 0 106 39t40 108v150q0 6 -4.5 7.5t-8.5 -3.5q-61 -61 -151 -61q-79 0 -140.5 43.5t-84.5 115.5
q-13 42 -13 113q0 65 13 113q24 74 88 118.5t153 44.5q85 0 147 -44.5t89 -118.5zM446 1413q11 34 11 82q0 49 -8 80q-11 46 -48.5 74t-91.5 28q-53 0 -89 -27.5t-48 -72.5q-12 -37 -12 -82q0 -43 10 -76q9 -48 46.5 -78t92.5 -30q52 0 88 28.5t49 73.5z" />
    <glyph glyph-name="franc" unicode="&#x20a3;" horiz-adv-x="1329" 
d="M1284 1333q0 -26 -27 -26h-743q-10 0 -10 -11v-501q0 -11 10 -11h518q27 0 27 -26v-74q0 -12 -7.5 -19.5t-19.5 -7.5h-518q-10 0 -10 -10v-256q0 -10 10 -10h301q12 0 19.5 -7.5t7.5 -19.5v-43q0 -26 -27 -26h-301q-10 0 -10 -11v-247q0 -12 -7.5 -19.5t-19.5 -7.5h-92
q-12 0 -19.5 7.5t-7.5 19.5v247q0 11 -10 11h-129q-26 0 -26 26v43q0 27 26 27h129q10 0 10 10v1016q0 12 7.5 19.5t19.5 7.5h872q12 0 19.5 -7.5t7.5 -19.5v-74z" />
    <glyph glyph-name="Euro" unicode="&#x20ac;" horiz-adv-x="1302" 
d="M745 111q112 0 186 61t91 166q3 28 29 22l92 -16q26 -6 20 -31q-22 -151 -135 -241t-283 -90q-193 0 -309.5 113.5t-116.5 299.5v148q0 10 -10 10h-135q-12 0 -19.5 7.5t-7.5 19.5v34q0 12 7.5 19.5t19.5 7.5h135q10 0 10 10v127q0 10 -10 10h-135q-12 0 -19.5 7.5
t-7.5 19.5v35q0 12 7.5 19.5t19.5 7.5h135q10 0 10 10v153q0 186 116.5 298t309.5 112q173 0 286.5 -91t135.5 -245q3 -28 -24 -31l-92 -12q-26 -3 -29 23q-15 105 -90 167t-187 62q-126 0 -203 -76.5t-77 -202.5v-157q0 -10 10 -10h486q14 0 20 -9t2 -22l-12 -37
q-6 -21 -31 -21h-465q-10 0 -10 -10v-127q0 -10 10 -10h416q14 0 20 -9t2 -22l-12 -37q-6 -20 -31 -20h-395q-10 0 -10 -10v-154q0 -126 77 -202t203 -76z" />
    <glyph glyph-name="uni20BA" unicode="&#x20ba;" horiz-adv-x="1304" 
d="M1026 522q0 27 27 27h92q26 0 26 -27q-7 -127 -69.5 -235.5t-183.5 -184t-283 -92.5q-106 -13 -205 -10q-27 0 -27 27v604q0 5 -4 7t-8 1l-192 -53q-27 -7 -33 16l-10 37q-6 29 18 35l221 61q8 4 8 10v119q0 4 -4 7t-8 1l-192 -53q-27 -7 -33 17l-10 38q-6 29 18 35
l221 62q8 4 8 10v426q0 12 7.5 19.5t19.5 7.5h92q12 0 19.5 -7.5t7.5 -19.5v-381q0 -4 3.5 -7t8.5 -1l275 76q26 7 32 -17l11 -39q6 -26 -19 -32l-303 -86q-8 -4 -8 -11v-118q0 -5 4 -7.5t8 -1.5l275 76q26 7 32 -16l11 -37q6 -29 -19 -35l-303 -84q-8 -4 -8 -10v-539
q0 -10 14 -10q204 12 328 122.5t135 272.5z" />
    <glyph glyph-name="uni20BD" unicode="&#x20bd;" horiz-adv-x="1431" 
d="M950 645h-397q-10 0 -10 -10v-166q0 -10 10 -10h485q12 0 19.5 -7.5t7.5 -19.5v-41q0 -26 -27 -26h-485q-10 0 -10 -11v-327q0 -12 -7.5 -19.5t-19.5 -7.5h-92q-12 0 -19.5 7.5t-7.5 19.5v327q0 11 -10 11h-168q-26 0 -26 26v41q0 27 26 27h168q10 0 10 10v166
q0 10 -10 10h-168q-26 0 -26 27v67q0 27 26 27h168q10 0 10 10v633q0 12 7.5 19.5t19.5 7.5h532q180 0 291 -110t111 -288q0 -177 -114 -285t-294 -108zM553 1309q-10 0 -10 -11v-522q0 -10 10 -10h387q124 0 198 73.5t74 196.5q0 125 -74 199t-198 74h-387z" />
    <glyph glyph-name="uni2113" unicode="&#x2113;" horiz-adv-x="1026" 
d="M614 96q94 0 164 58q21 18 37 -4l31 -48q12 -22 -2 -36q-38 -38 -104.5 -60t-143.5 -22q-133 0 -206 83.5t-73 233.5l-2 197q0 7 -3.5 9t-8.5 -3l-70 -51q-22 -16 -34 8l-25 45q-10 22 8 37q23 19 68 52t59 44q6 3 6 12l-2 379q-1 101 33 194t103 156.5t157 69.5
q108 7 180 -70t72 -198q0 -66 -23.5 -131.5t-59.5 -119.5t-93.5 -114t-111 -105t-126.5 -102q-6 -3 -6 -12l2 -279q0 -223 174 -223zM436 1012l2 -258q0 -7 4 -9t9 3q90 74 149 134.5t101 137.5t42 151q0 78 -38 127.5t-99 42.5q-73 -9 -121.5 -98.5t-48.5 -230.5z" />
    <glyph glyph-name="trademark" unicode="&#x2122;" horiz-adv-x="1347" 
d="M72 1354q-27 0 -27 26v27q0 12 7.5 19.5t19.5 7.5h460q12 0 19.5 -7.5t7.5 -19.5v-27q0 -26 -27 -26h-180q-10 0 -10 -11v-602q0 -26 -27 -26h-36q-27 0 -27 26v602q0 11 -10 11h-170zM1149 1417q11 17 33 17h41q26 0 26 -27v-666q0 -26 -26 -26h-37q-27 0 -27 26v523
q0 6 -4.5 8t-7.5 -4l-135 -205q-11 -16 -33 -16h-2q-22 0 -33 16l-135 205q-3 6 -7.5 4t-4.5 -8v-523q0 -26 -27 -26h-39q-26 0 -26 26v666q0 27 26 27h43q22 0 33 -17l164 -250q6 -12 14 0z" />
    <glyph glyph-name="uni2126" unicode="&#x2126;" horiz-adv-x="1312" 
d="M174 0q-12 0 -19.5 7.5t-7.5 19.5v73q0 12 7.5 19.5t19.5 7.5h160q6 0 8 3.5t-4 8.5q-81 56 -125.5 147t-44.5 206v483q0 214 133.5 344.5t353.5 130.5q221 0 355.5 -130.5t134.5 -344.5v-483q0 -116 -44.5 -206.5t-127.5 -146.5q-6 -5 -4 -8.5t8 -3.5h162q26 0 26 -27
v-73q0 -27 -26 -27h-371q-12 0 -19.5 7.5t-7.5 19.5v77q0 22 23 29q96 25 165.5 117.5t69.5 220.5v508q0 155 -94.5 249.5t-249.5 94.5q-154 0 -248 -94.5t-94 -249.5v-508q0 -128 70 -220.5t164 -117.5q22 -6 22 -29v-77q0 -27 -26 -27h-369z" />
    <glyph glyph-name="estimated" unicode="&#x212e;" horiz-adv-x="1792" 
d="M895 1450q215 0 386.5 -95.5t267.5 -264.5t96 -379q0 -9 -27 -9h-1276q-10 0 -10 -10v-377q0 -4 4 -12q93 -124 237.5 -194t321.5 -70q195 0 356.5 93t247.5 249q12 18 31 18h12q15 0 20.5 -8.5t-1.5 -21.5q-92 -176 -270 -280.5t-396 -104.5q-160 0 -299.5 55.5
t-237.5 152t-154.5 231.5t-56.5 288q0 210 96 379t267 264.5t385 95.5zM338 1130q-4 -8 -4 -12v-350q0 -10 10 -10h1104q10 0 10 10v346q0 4 -4 12q-92 127 -237 198t-322 71q-175 0 -319.5 -70.5t-237.5 -194.5z" />
    <glyph glyph-name="oneeighth" unicode="&#x215b;" horiz-adv-x="1607" 
d="M285 600q0 -12 -7.5 -19.5t-19.5 -7.5h-51q-12 0 -19.5 7.5t-7.5 19.5v723q0 5 -4 8t-8 2l-62 -16q-28 -6 -28 24v25q0 21 20 31l66 30q17 7 33 7h61q12 0 19.5 -7.5t7.5 -19.5v-807zM1087 1415q13 19 31 19h56q15 0 19.5 -10t-3.5 -23l-864 -1383q-12 -18 -31 -18h-57
q-15 0 -20 10t3 23zM1438 457q-13 -7 0 -13q63 -38 86 -106q14 -43 14 -100q0 -54 -14 -97q-22 -71 -86 -114t-154 -43q-86 0 -148 42t-89 115q-17 52 -17 99q0 37 19 96q24 71 84 106q13 6 0 13q-62 43 -82 102q-19 39 -19 82q0 44 19 86q57 141 233 141q88 0 150.5 -38
t87.5 -105q16 -39 16 -82q0 -39 -16 -82q-25 -64 -84 -102zM1135 633q0 -13 8 -45q12 -44 48 -70t93 -26q54 0 90.5 21.5t48.5 59.5q7 16 9 31q2 8 2 29q0 28 -7 47q-12 46 -49.5 71t-93.5 25q-111 0 -139 -98q-10 -23 -10 -45zM1425 182q7 23 7 64q0 28 -5 57
q-11 48 -49.5 78.5t-93.5 30.5t-90.5 -30t-48.5 -79q-8 -31 -8 -59q0 -31 8 -62q9 -48 46.5 -78t92.5 -30q54 0 92 30t49 78z" />
    <glyph glyph-name="threeeighths" unicode="&#x215c;" horiz-adv-x="1812" 
d="M553 707q-29 -63 -87.5 -97.5t-137.5 -34.5q-87 0 -149 45.5t-89 122.5q-10 35 -14 80q0 27 26 27h52q26 0 26 -27q5 -37 8 -49q11 -48 48.5 -77t91.5 -29q87 0 125 71q24 47 24 115q0 79 -26 127q-38 72 -123 72q-18 0 -33 -6q-23 -9 -37 8l-22 28q-14 20 0 37l198 223
q10 13 -4 13h-319q-27 0 -27 26v37q0 12 7.5 19.5t19.5 7.5h438q26 0 26 -27v-45q0 -18 -12 -33l-180 -206q-8 -12 4 -15q115 -12 164 -112q31 -64 31 -156q0 -82 -29 -145zM1292 1415q13 19 31 19h55q15 0 20 -10t-3 -23l-865 -1383q-12 -18 -30 -18h-58q-15 0 -19.5 10
t3.5 23zM1642 457q-13 -7 0 -13q64 -39 87 -106q14 -43 14 -100q0 -54 -14 -97q-22 -71 -86 -114t-154 -43q-87 0 -149 42t-89 115q-16 49 -16 99q0 40 18 96q24 71 84 106q13 6 0 13q-62 43 -82 102q-18 37 -18 82q0 46 18 86q57 141 234 141q88 0 150 -38t87 -105
q17 -41 17 -82q0 -36 -17 -82q-25 -64 -84 -102zM1339 633q0 -9 9 -45q12 -44 48 -70t93 -26q54 0 90.5 21.5t48.5 59.5q5 12 8 31q2 8 2 29q0 31 -6 47q-12 46 -49.5 71t-93.5 25q-111 0 -139 -98q-11 -26 -11 -45zM1630 182q6 20 6 64q0 34 -4 57q-11 48 -49.5 78.5
t-93.5 30.5t-90.5 -30t-48.5 -79q-9 -35 -9 -59q0 -28 9 -62q9 -48 46.5 -78t92.5 -30q54 0 92 30t49 78z" />
    <glyph glyph-name="fiveeighths" unicode="&#x215d;" horiz-adv-x="1757" 
d="M1237 1415q13 19 31 19h55q15 0 19.5 -10t-3.5 -23l-864 -1383q-12 -18 -31 -18h-57q-15 0 -19.5 10t3.5 23zM545 700q-62 -139 -230 -139q-87 0 -149.5 44.5t-87.5 119.5q-9 33 -12 63q-1 12 5.5 19.5t18.5 7.5h55q24 0 27 -24l6 -31q11 -50 47 -78.5t90 -28.5
q91 0 127 80q23 48 23 103q0 60 -23 108q-37 78 -125 78q-45 0 -81.5 -19t-53.5 -53q-13 -20 -30 -20h-60q-26 0 -26 26v449q0 27 26 27h418q12 0 19.5 -7.5t7.5 -19.5v-37q0 -12 -7.5 -19.5t-19.5 -7.5h-332q-10 0 -10 -10v-256q0 -6 4 -8t8 2q61 43 152 43q150 0 213 -135
q24 -59 24 -139q0 -75 -24 -138zM1587 457q-13 -7 0 -13q63 -38 86 -106q15 -46 15 -100q0 -51 -15 -97q-22 -72 -85.5 -114.5t-153.5 -42.5q-87 0 -149 42t-89 115q-16 49 -16 99q0 40 18 96q24 71 84 106q13 6 0 13q-62 43 -82 102q-18 37 -18 82q0 46 18 86
q57 141 234 141q88 0 150 -38t87 -105q17 -41 17 -82q0 -36 -17 -82q-25 -64 -84 -102zM1284 633q0 -13 8 -45q12 -44 48.5 -70t93.5 -26q54 0 90.5 21.5t48.5 59.5q5 12 8 31q2 8 2 29q0 31 -6 47q-12 46 -49.5 71t-93.5 25t-91.5 -26.5t-48.5 -71.5q-10 -23 -10 -45z
M1575 182q6 20 6 64q0 34 -4 57q-11 48 -49.5 78.5t-93.5 30.5t-91 -30t-49 -79q-8 -31 -8 -59q0 -31 8 -62q9 -48 47 -78t93 -30q54 0 92 30t49 78z" />
    <glyph glyph-name="seveneighths" unicode="&#x215e;" horiz-adv-x="1628" 
d="M268 594q-6 -21 -30 -21h-56q-13 0 -19 8.5t-1 22.5l268 727q3 12 -8 12h-301q-10 0 -10 -10v-59q0 -12 -7.5 -19.5t-19.5 -7.5h-33q-26 0 -26 27v133q0 27 26 27h467q12 0 19.5 -7.5t7.5 -19.5v-47q0 -18 -6 -33zM1108 1415q13 19 31 19h55q15 0 19.5 -10t-3.5 -23
l-864 -1383q-12 -18 -31 -18h-57q-15 0 -19.5 10t3.5 23zM1458 457q-13 -7 0 -13q63 -38 86 -106q15 -46 15 -100q0 -51 -15 -97q-22 -72 -85.5 -114.5t-153.5 -42.5q-87 0 -149 42t-89 115q-16 49 -16 99q0 40 18 96q24 71 84 106q13 6 0 13q-62 43 -82 102q-18 37 -18 82
q0 46 18 86q57 141 234 141q88 0 150 -38t87 -105q17 -41 17 -82q0 -36 -17 -82q-25 -64 -84 -102zM1155 633q0 -13 8 -45q12 -44 48.5 -70t93.5 -26q54 0 90.5 21.5t48.5 59.5q5 12 8 31q2 8 2 29q0 31 -6 47q-12 46 -49.5 71t-93.5 25t-91.5 -26.5t-48.5 -71.5
q-10 -23 -10 -45zM1446 182q6 20 6 64q0 34 -4 57q-11 48 -49.5 78.5t-93.5 30.5t-91 -30t-49 -79q-8 -31 -8 -59q0 -31 8 -62q9 -48 47 -78t93 -30q54 0 92 30t49 78z" />
    <glyph glyph-name="partialdiff" unicode="&#x2202;" horiz-adv-x="1200" 
d="M877 1278q87 -114 123.5 -279t33.5 -342q-2 -104 -15 -193.5t-46.5 -180.5t-85.5 -155t-138.5 -104t-199.5 -40q-193 0 -310.5 120t-117.5 324q0 140 62 246.5t162.5 160t221.5 52.5q173 -3 305 -115q4 -5 8.5 -3.5t4.5 7.5q-18 273 -117 408q-79 110 -213 125
q-116 14 -238 -58q-25 -15 -34 13l-31 75q-9 23 12 35q139 86 299 72q194 -15 314 -168zM557 111q305 0 330 454q0 9 -4 13q-42 82 -122.5 133.5t-180.5 50.5q-132 0 -223 -92t-91 -238q0 -142 81 -231.5t210 -89.5z" />
    <glyph glyph-name="uni2206" unicode="&#x2206;" horiz-adv-x="1306" 
d="M92 0q-26 0 -26 27v84q0 17 6 32l516 1270q9 21 30 21h70q22 0 31 -21l516 -1272q6 -15 6 -32v-82q0 -12 -7.5 -19.5t-19.5 -7.5h-1122zM213 139q-1 -5 1 -8.5t7 -3.5h864q5 0 7.5 4t1.5 8l-435 1094q-6 15 -12 0z" />
    <glyph glyph-name="product" unicode="&#x220f;" horiz-adv-x="1337" 
d="M1122 1638q27 0 27 -26v-1995q0 -12 -7.5 -19.5t-19.5 -7.5h-92q-26 0 -26 27v1884q0 10 -11 10h-645q-10 0 -10 -10v-1884q0 -12 -7.5 -19.5t-19.5 -7.5h-92q-26 0 -26 27v1995q0 26 26 26h903z" />
    <glyph glyph-name="summation" unicode="&#x2211;" horiz-adv-x="1253" 
d="M219 -408q-26 0 -26 27v80q0 19 8 35l489 876q4 8 0 15l-485 727q-10 17 -10 32v82q0 27 26 27h887q12 0 19.5 -7.5t7.5 -19.5v-73q0 -12 -7.5 -19.5t-19.5 -7.5h-750q-6 0 -7.5 -4t1.5 -8l488 -717q12 -18 2 -37l-492 -870q-6 -13 8 -13h750q27 0 27 -26v-72
q0 -12 -7.5 -19.5t-19.5 -7.5h-889z" />
    <glyph glyph-name="minus" unicode="&#x2212;" horiz-adv-x="1024" 
d="M106 578q-26 0 -26 26v74q0 27 26 27h812q26 0 26 -27v-74q0 -26 -26 -26h-812z" />
    <glyph glyph-name="uni2215" unicode="&#x2215;" horiz-adv-x="991" 
d="M94 0q-15 0 -19.5 9t1.5 22l710 1384q10 19 33 19h78q15 0 19.5 -9t-1.5 -22l-708 -1385q-8 -18 -33 -18h-80z" />
    <glyph glyph-name="uni2219" unicode="&#x2219;" horiz-adv-x="632" 
d="M317 399q-98 0 -167.5 70.5t-69.5 167.5q0 98 69.5 166.5t167.5 68.5q97 0 166.5 -68.5t69.5 -166.5q0 -97 -69.5 -167.5t-166.5 -70.5z" />
    <glyph glyph-name="radical" unicode="&#x221a;" horiz-adv-x="1509" 
d="M360 -410q-24 0 -30 21l-260 717q-9 23 16 32l84 27q24 6 33 -16l190 -529q3 -6 8 -6t7 6l471 1753q6 23 28 23h412q12 0 19.5 -7.5t7.5 -19.5v-71q0 -12 -7.5 -19.5t-19.5 -7.5h-313q-7 0 -11 -8l-503 -1872q-6 -23 -29 -23h-103z" />
    <glyph glyph-name="infinity" unicode="&#x221e;" horiz-adv-x="1507" 
d="M1102 979q141 0 233 -94.5t92 -233.5t-92 -231t-239 -92q-75 0 -139 28t-111 72t-98 113q-6 9 -15 0q-75 -100 -153.5 -156.5t-180.5 -56.5q-134 0 -226.5 94.5t-92.5 232.5q0 137 93 230.5t233 93.5q74 0 137.5 -31t104.5 -72.5t89 -107.5q7 -11 17 2
q88 108 169.5 158.5t178.5 50.5zM399 444q41 0 77.5 15t71 48t58.5 62.5t60 79.5q3 6 0 15q-71 105 -126 151.5t-134 46.5q-92 0 -149.5 -58.5t-57.5 -148.5t57.5 -150.5t142.5 -60.5zM1096 444q97 0 155 58t58 149q0 93 -57.5 152t-147.5 59q-82 0 -147.5 -49.5
t-137.5 -150.5q-6 -8 0 -17q47 -68 81.5 -107t85 -66.5t110.5 -27.5z" />
    <glyph glyph-name="integral" unicode="&#x222b;" horiz-adv-x="849" 
d="M98 -410q-26 0 -26 27l-2 74q0 26 26 26h45q113 0 154 50.5t41 171.5l14 1155q1 71 8 121.5t26 89.5t46 62.5t71.5 38.5t99 21t132.5 7q27 0 27 -27l2 -74q0 -26 -27 -26h-43q-113 0 -154.5 -50.5t-41.5 -171.5l-15 -1155q-1 -72 -8.5 -122t-26.5 -89t-45.5 -62.5
t-71.5 -38.5t-99 -21t-132 -7z" />
    <glyph glyph-name="approxequal" unicode="&#x2248;" horiz-adv-x="1026" 
d="M707 743q-43 0 -85 12.5t-62 23t-62 34.5q-95 53 -162 53q-100 0 -152 -80q-15 -21 -37 -6l-47 31q-22 16 -10 37q33 67 97.5 107t144.5 40t176 -53q4 -2 23.5 -14t25.5 -15t23.5 -12t28 -12t27 -8.5t32 -7t32.5 -1.5q42 0 71 19.5t60 58.5q15 21 37 6l56 -34
q22 -16 10 -37q-37 -65 -95.5 -103.5t-131.5 -38.5zM707 299q-43 0 -85 12.5t-62 23t-62 34.5q-95 53 -162 53q-100 0 -152 -80q-15 -21 -37 -6l-47 31q-22 16 -10 36q33 67 97.5 107.5t144.5 40.5t176 -53q4 -2 23.5 -14t25.5 -15t23.5 -12t28 -12t27 -8.5t32 -7t32.5 -1.5
q42 0 71 19.5t60 58.5q15 21 37 6l56 -35q22 -16 10 -37q-37 -65 -95 -103t-132 -38z" />
    <glyph glyph-name="notequal" unicode="&#x2260;" horiz-adv-x="1024" 
d="M944 838q0 -27 -26 -27h-297q-9 0 -13 -8l-133 -281q-1 -4 1 -8t7 -4h435q26 0 26 -27v-73q0 -27 -26 -27h-500q-8 0 -12 -8l-76 -160q-10 -20 -33 -20h-41q-15 0 -20.5 8.5t0.5 21.5l69 146q1 5 -1 8.5t-7 3.5h-191q-26 0 -26 27v73q0 27 26 27h256q9 0 13 8l133 281
q2 5 -1 8.5t-7 3.5h-394q-26 0 -26 27v73q0 27 26 27h459q9 0 13 8l88 187q10 20 32 20h41q15 0 21 -9t0 -22l-82 -172q-2 -5 1 -8.5t7 -3.5h232q26 0 26 -27v-73z" />
    <glyph glyph-name="lessequal" unicode="&#x2264;" horiz-adv-x="1024" 
d="M944 266q0 -15 -9 -20.5t-22 0.5l-813 377q-20 10 -20 32v86q0 23 20 33l813 377q13 6 22 0t9 -21v-86q0 -20 -20 -30l-684 -309q-13 -7 0 -13l684 -309q20 -10 20 -31v-86zM944 27q0 -27 -26 -27h-812q-26 0 -26 27v73q0 27 26 27h812q26 0 26 -27v-73z" />
    <glyph glyph-name="greaterequal" unicode="&#x2265;" horiz-adv-x="1024" 
d="M111 246q-13 -6 -22 -0.5t-9 20.5v86q0 21 20 31l684 309q13 6 0 13l-684 309q-20 10 -20 30v86q0 15 9 21t22 0l813 -377q20 -10 20 -33v-86q0 -22 -20 -32zM106 0q-26 0 -26 27v73q0 27 26 27h812q26 0 26 -27v-73q0 -27 -26 -27h-812z" />
    <glyph glyph-name="lozenge" unicode="&#x25ca;" horiz-adv-x="1003" 
d="M467 -94q-21 0 -31 20l-348 772q-8 18 0 37l350 772q10 21 31 21h63q20 0 31 -21l352 -772q8 -19 0 -37l-350 -772q-10 -20 -30 -20h-68zM496 72q6 -12 12 0l276 639q2 6 0 12l-276 639q-6 12 -12 0l-277 -639q-2 -6 0 -12z" />
    <glyph glyph-name="i.loclTRK" horiz-adv-x="452" 
d="M221 1221q-41 0 -67.5 25t-26.5 65q0 39 26.5 64.5t67.5 25.5q38 0 63 -26t25 -64q0 -40 -25 -65t-63 -25zM178 0q-26 0 -26 27v983q0 26 26 26h92q27 0 27 -26v-983q0 -12 -7.5 -19.5t-19.5 -7.5h-92z" />
    <glyph glyph-name="a.alt" horiz-adv-x="1107" 
d="M799 1010q0 26 26 26h93q26 0 26 -26v-983q0 -27 -26 -27h-93q-26 0 -26 27v75q0 6 -4.5 8t-8.5 -4q-44 -59 -111.5 -90.5t-146.5 -31.5q-143 0 -239.5 73t-134.5 201q-29 91 -29 260q0 166 25 254q38 131 135 206t243 75q166 0 258 -121q4 -6 8.5 -4t4.5 8v74zM762 268
q35 74 35 250q0 173 -37 254q-26 71 -81 112.5t-134 41.5q-81 0 -141 -41t-87 -109q-25 -44 -36 -100.5t-11 -157.5q0 -167 37 -248q25 -74 87.5 -116.5t148.5 -42.5q82 0 137.5 42.5t81.5 114.5z" />
    <glyph glyph-name="a.sc" horiz-adv-x="1077" 
d="M895 0q-23 0 -29 23l-63 190q-4 8 -10 8h-508q-7 0 -11 -8l-63 -190q-6 -23 -29 -23h-90q-14 0 -20 9t-2 22l379 1128q7 23 30 23h117q24 0 31 -23l381 -1128q4 -13 -2.5 -22t-20.5 -9h-90zM319 352q-3 -12 9 -12h422q11 0 8 12l-213 656q-1 5 -4 7t-5.5 0t-3.5 -7z" />
    <glyph glyph-name="aacute.sc" horiz-adv-x="1077" 
d="M694 1589q15 0 20 -9.5t-3 -23.5l-131 -210q-13 -19 -31 -19h-72q-15 0 -20.5 9.5t2.5 23.5l116 211q9 18 31 18h88zM895 0q-23 0 -29 23l-63 190q-4 8 -10 8h-508q-7 0 -11 -8l-63 -190q-6 -23 -29 -23h-90q-14 0 -20 9t-2 22l379 1128q7 23 30 23h117q24 0 31 -23
l381 -1128q4 -13 -2.5 -22t-20.5 -9h-90zM319 352q-3 -12 9 -12h422q11 0 8 12l-213 656q-1 5 -4 7t-5.5 0t-3.5 -7z" />
    <glyph glyph-name="abreve.sc" horiz-adv-x="1077" 
d="M537 1260q-86 0 -149.5 54t-74.5 136q-1 12 6 19.5t19 7.5h37q23 0 26 -25q9 -50 47 -82.5t89 -32.5q49 0 86.5 32.5t46.5 82.5q3 25 26 25h39q12 0 19 -7.5t6 -19.5q-9 -82 -73 -136t-150 -54zM895 0q-23 0 -29 23l-63 190q-4 8 -10 8h-508q-7 0 -11 -8l-63 -190
q-6 -23 -29 -23h-90q-14 0 -20 9t-2 22l379 1128q7 23 30 23h117q24 0 31 -23l381 -1128q4 -13 -2.5 -22t-20.5 -9h-90zM319 352q-3 -12 9 -12h422q11 0 8 12l-213 656q-1 5 -4 7t-5.5 0t-3.5 -7z" />
    <glyph glyph-name="uni01CE.sc" horiz-adv-x="1077" 
d="M621 1307q-14 -17 -33 -17h-107q-18 0 -32 17l-154 211q-9 14 -3 23t21 9h62q20 0 33 -16l120 -164q8 -11 15 0l121 164q13 16 32 16h62q15 0 20 -9t-4 -23zM895 0q-23 0 -29 23l-63 190q-4 8 -10 8h-508q-7 0 -11 -8l-63 -190q-6 -23 -29 -23h-90q-14 0 -20 9t-2 22
l379 1128q7 23 30 23h117q24 0 31 -23l381 -1128q4 -13 -2.5 -22t-20.5 -9h-90zM319 352q-3 -12 9 -12h422q11 0 8 12l-213 656q-1 5 -4 7t-5.5 0t-3.5 -7z" />
    <glyph glyph-name="acircumflex.sc" horiz-adv-x="1077" 
d="M543 1493q-7 11 -15 0l-120 -164q-13 -16 -33 -16h-66q-17 0 -21.5 10.5t5.5 22.5l160 208q11 17 32 17h97q21 0 32 -17l162 -208q10 -12 5.5 -22.5t-21.5 -10.5h-66q-19 0 -32 16zM895 0q-23 0 -29 23l-63 190q-4 8 -10 8h-508q-7 0 -11 -8l-63 -190q-6 -23 -29 -23h-90
q-14 0 -20 9t-2 22l379 1128q7 23 30 23h117q24 0 31 -23l381 -1128q4 -13 -2.5 -22t-20.5 -9h-90zM319 352q-3 -12 9 -12h422q11 0 8 12l-213 656q-1 5 -4 7t-5.5 0t-3.5 -7z" />
    <glyph glyph-name="adieresis.sc" horiz-adv-x="1077" 
d="M365 1374q-43 0 -71 26.5t-28 67.5t28 69t71 28q41 0 67.5 -27.5t26.5 -69.5q0 -41 -26.5 -67.5t-67.5 -26.5zM709 1374q-43 0 -70 26.5t-27 67.5q0 42 27.5 69.5t69.5 27.5t69 -27.5t27 -69.5q0 -41 -26.5 -67.5t-69.5 -26.5zM895 0q-23 0 -29 23l-63 190q-4 8 -10 8
h-508q-7 0 -11 -8l-63 -190q-6 -23 -29 -23h-90q-14 0 -20 9t-2 22l379 1128q7 23 30 23h117q24 0 31 -23l381 -1128q4 -13 -2.5 -22t-20.5 -9h-90zM319 352q-3 -12 9 -12h422q11 0 8 12l-213 656q-1 5 -4 7t-5.5 0t-3.5 -7z" />
    <glyph glyph-name="agrave.sc" horiz-adv-x="1077" 
d="M580 1360q7 -14 1.5 -23.5t-20.5 -9.5h-72q-17 0 -30 19l-131 210q-8 14 -3.5 23.5t19.5 9.5h88q22 0 31 -18zM895 0q-23 0 -29 23l-63 190q-4 8 -10 8h-508q-7 0 -11 -8l-63 -190q-6 -23 -29 -23h-90q-14 0 -20 9t-2 22l379 1128q7 23 30 23h117q24 0 31 -23l381 -1128
q4 -13 -2.5 -22t-20.5 -9h-90zM319 352q-3 -12 9 -12h422q11 0 8 12l-213 656q-1 5 -4 7t-5.5 0t-3.5 -7z" />
    <glyph glyph-name="amacron.sc" horiz-adv-x="1077" 
d="M786 1466q27 0 27 -26v-51q0 -12 -7.5 -19.5t-19.5 -7.5h-497q-12 0 -19.5 7.5t-7.5 19.5v51q0 26 27 26h497zM895 0q-23 0 -29 23l-63 190q-4 8 -10 8h-508q-7 0 -11 -8l-63 -190q-6 -23 -29 -23h-90q-14 0 -20 9t-2 22l379 1128q7 23 30 23h117q24 0 31 -23l381 -1128
q4 -13 -2.5 -22t-20.5 -9h-90zM319 352q-3 -12 9 -12h422q11 0 8 12l-213 656q-1 5 -4 7t-5.5 0t-3.5 -7z" />
    <glyph glyph-name="aogonek.sc" horiz-adv-x="1122" 
d="M1018 -287q28 7 31 -20l6 -33q3 -25 -21 -31q-37 -9 -74.5 -9.5t-75 9t-66.5 38.5t-40 75q-33 130 111 246q16 12 12 12h-6q-23 0 -29 23l-63 190q-4 8 -10 8h-508q-7 0 -11 -8l-63 -190q-6 -23 -29 -23h-90q-14 0 -20 9t-2 22l379 1128q7 23 30 23h117q24 0 31 -23
l381 -1128l8 -31h-2q-69 -50 -106.5 -106.5t-26.5 -110.5q6 -32 27 -50.5t49 -21.5t61 2zM319 352q-3 -12 9 -12h422q11 0 8 12l-213 656q-1 5 -4 7t-5.5 0t-3.5 -7z" />
    <glyph glyph-name="aring.sc" horiz-adv-x="1077" 
d="M537 1311q-91 0 -153 61t-62 150q0 88 62 148.5t153 60.5q89 0 151 -60.5t62 -148.5q0 -89 -62 -150t-151 -61zM537 1653q-56 0 -95 -38t-39 -93q0 -56 39 -93.5t95 -37.5q55 0 93 37.5t38 93.5q0 55 -38.5 93t-92.5 38zM895 0q-23 0 -29 23l-63 190q-4 8 -10 8h-508
q-7 0 -11 -8l-63 -190q-6 -23 -29 -23h-90q-14 0 -20 9t-2 22l379 1128q7 23 30 23h117q24 0 31 -23l381 -1128q4 -13 -2.5 -22t-20.5 -9h-90zM319 352q-3 -12 9 -12h422q11 0 8 12l-213 656q-1 5 -4 7t-5.5 0t-3.5 -7z" />
    <glyph glyph-name="atilde.sc" horiz-adv-x="1077" 
d="M451 1448q-31 0 -53 -10.5t-44 -38.5q-19 -22 -39 -8l-28 20q-21 14 -8 37q61 102 163 102q24 0 48.5 -8t37.5 -15.5t39 -23.5q71 -43 101 -43q57 0 96 56q15 21 37 8l30 -19q21 -15 9 -37q-31 -57 -78 -83.5t-92 -26.5q-57 0 -127 49q-22 16 -32.5 22.5t-26.5 12.5
t-33 6zM895 0q-23 0 -29 23l-63 190q-4 8 -10 8h-508q-7 0 -11 -8l-63 -190q-6 -23 -29 -23h-90q-14 0 -20 9t-2 22l379 1128q7 23 30 23h117q24 0 31 -23l381 -1128q4 -13 -2.5 -22t-20.5 -9h-90zM319 352q-3 -12 9 -12h422q11 0 8 12l-213 656q-1 5 -4 7t-5.5 0t-3.5 -7z
" />
    <glyph glyph-name="ae.sc" horiz-adv-x="1632" 
d="M1538 1079q0 -26 -27 -26h-581q-10 0 -10 -11v-374q0 -11 10 -11h385q26 0 26 -26v-74q0 -27 -26 -27h-385q-10 0 -10 -10v-383q0 -10 10 -10h581q12 0 19.5 -7.5t7.5 -19.5v-73q0 -12 -7.5 -19.5t-19.5 -7.5h-712q-12 0 -19.5 7.5t-7.5 19.5v184q0 10 -10 10h-414
q-8 0 -12 -8l-105 -195q-9 -18 -30 -18h-105q-15 0 -21 9t1 22l616 1132q10 19 31 19h788q12 0 19.5 -7.5t7.5 -19.5v-76zM410 352q-6 -12 8 -12h344q10 0 10 10v645q0 7 -4.5 8.5t-7.5 -4.5z" />
    <glyph glyph-name="b.sc" horiz-adv-x="1099" 
d="M797 616q-12 -6 0 -12q184 -81 184 -282q0 -154 -104 -238t-273 -84h-422q-26 0 -26 27v1128q0 27 26 27h412q174 0 273.5 -81t99.5 -235q0 -180 -170 -250zM311 1053q-10 0 -10 -11v-366q0 -10 10 -10h291q99 0 160 52.5t61 137.5q0 89 -60.5 143t-160.5 54h-291z
M614 129q99 0 160.5 57t61.5 150q0 94 -63.5 151.5t-164.5 57.5h-297q-10 0 -10 -10v-396q0 -10 10 -10h303z" />
    <glyph glyph-name="c.sc" horiz-adv-x="1062" 
d="M539 -16q-191 0 -305.5 111t-114.5 298v398q0 185 114.5 295t305.5 110q189 0 303 -107.5t114 -287.5q0 -9 -7 -16t-19 -7l-92 -4q-27 0 -27 10v11q0 124 -73.5 195.5t-198.5 76.5q-123 6 -199 -70t-76 -202v-410q0 -125 75.5 -198.5t199.5 -73.5t198 73.5t74 198.5
q0 24 27 21l92 -5q26 0 26 -10v-8q0 -182 -113.5 -290.5t-303.5 -108.5z" />
    <glyph glyph-name="cacute.sc" horiz-adv-x="1062" 
d="M479 1341q-15 0 -20.5 9.5t2.5 23.5l117 211q10 19 30 19h88q15 0 20 -10t-3 -23l-131 -211q-13 -19 -31 -19h-72zM539 -16q-191 0 -305.5 111t-114.5 298v398q0 185 114.5 295t305.5 110q189 0 303 -107.5t114 -287.5q0 -9 -7 -16t-19 -7l-92 -4q-27 0 -27 10v11
q0 124 -73.5 195.5t-198.5 76.5q-123 6 -199 -70t-76 -202v-410q0 -125 75.5 -198.5t199.5 -73.5t198 73.5t74 198.5q0 24 27 21l92 -5q26 0 26 -10v-8q0 -182 -113.5 -290.5t-303.5 -108.5z" />
    <glyph glyph-name="ccaron.sc" horiz-adv-x="1062" 
d="M483 1305q-19 0 -32 16l-154 211q-9 14 -3 23.5t21 9.5h62q19 0 33 -17l120 -164q8 -11 15 0l121 164q14 17 32 17h62q15 0 20 -9.5t-4 -23.5l-153 -211q-13 -16 -33 -16h-107zM539 -16q-191 0 -305.5 111t-114.5 298v398q0 185 114.5 295t305.5 110q189 0 303 -107.5
t114 -287.5q0 -9 -7 -16t-19 -7l-92 -4q-27 0 -27 10v11q0 124 -73.5 195.5t-198.5 76.5q-123 6 -199 -70t-76 -202v-410q0 -125 75.5 -198.5t199.5 -73.5t198 73.5t74 198.5q0 24 27 21l92 -5q26 0 26 -10v-8q0 -182 -113.5 -290.5t-303.5 -108.5z" />
    <glyph glyph-name="ccedilla.sc" horiz-adv-x="1062" 
d="M956 791q0 -13 -26 -13l-92 -4q-27 0 -27 10v11q0 124 -73.5 195.5t-198.5 76.5q-123 6 -199 -70t-76 -202v-410q0 -125 75.5 -198.5t199.5 -73.5t198 73.5t74 198.5q0 24 27 21l92 -5q26 0 26 -10v-8q0 -176 -107 -283.5t-288 -115.5q-7 0 -8.5 -4t4.5 -9
q122 -110 92 -229q-11 -46 -40 -75t-66.5 -38.5t-75 -9t-74.5 9.5q-23 6 -20 31l6 33q3 27 31 20q33 -5 61 -2t49 21.5t27 50.5q11 51 -24 106t-99 105l-12 6q-136 34 -214.5 137.5t-78.5 255.5v398q0 185 114.5 295t305.5 110q189 0 303 -107.5t114 -287.5v-10z" />
    <glyph glyph-name="cdotaccent.sc" horiz-adv-x="1062" 
d="M539 1360q-41 0 -68 25t-27 65q0 38 27 64t68 26q38 0 63 -26t25 -64q0 -40 -25 -65t-63 -25zM539 -16q-191 0 -305.5 111t-114.5 298v398q0 185 114.5 295t305.5 110q189 0 303 -107.5t114 -287.5q0 -9 -7 -16t-19 -7l-92 -4q-27 0 -27 10v11q0 124 -73.5 195.5
t-198.5 76.5q-123 6 -199 -70t-76 -202v-410q0 -125 75.5 -198.5t199.5 -73.5t198 73.5t74 198.5q0 24 27 21l92 -5q26 0 26 -10v-8q0 -182 -113.5 -290.5t-303.5 -108.5z" />
    <glyph glyph-name="d.sc" horiz-adv-x="1083" 
d="M182 0q-26 0 -26 27v1128q0 27 26 27h410q177 0 283 -91t106 -243v-514q0 -153 -106 -243.5t-283 -90.5h-410zM301 137q0 -10 10 -10h287q108 0 173 61.5t65 163.5v475q0 104 -64.5 165t-173.5 61h-287q-10 0 -10 -11v-905z" />
    <glyph glyph-name="eth.sc" horiz-adv-x="1193" 
d="M702 1182q177 0 283.5 -91t106.5 -243v-514q0 -153 -106 -243.5t-284 -90.5h-409q-12 0 -19.5 7.5t-7.5 19.5v522q0 10 -10 10h-74q-26 0 -26 27v49q0 27 26 27h74q10 0 10 10v483q0 12 7.5 19.5t19.5 7.5h409zM946 352v475q0 104 -64 165t-173 61h-287q-10 0 -10 -11
v-370q0 -10 10 -10h184q12 0 19.5 -7.5t7.5 -19.5v-49q0 -12 -7.5 -19.5t-19.5 -7.5h-184q-10 0 -10 -10v-412q0 -10 10 -10h287q107 0 172 61t65 164z" />
    <glyph glyph-name="dcaron.sc" horiz-adv-x="1083" 
d="M487 1298q-18 0 -32 17l-154 211q-9 14 -3 23.5t21 9.5h62q19 0 33 -17l121 -164q7 -11 14 0l121 164q14 17 32 17h62q15 0 20 -9.5t-4 -23.5l-153 -211q-14 -17 -33 -17h-107zM182 0q-26 0 -26 27v1128q0 27 26 27h410q177 0 283 -91t106 -243v-514q0 -153 -106 -243.5
t-283 -90.5h-410zM301 137q0 -10 10 -10h287q108 0 173 61.5t65 163.5v475q0 104 -64.5 165t-173.5 61h-287q-10 0 -10 -11v-905z" />
    <glyph glyph-name="dcroat.sc" horiz-adv-x="1193" 
d="M702 1182q177 0 283.5 -91t106.5 -243v-514q0 -153 -106 -243.5t-284 -90.5h-409q-12 0 -19.5 7.5t-7.5 19.5v522q0 10 -10 10h-74q-26 0 -26 27v49q0 27 26 27h74q10 0 10 10v483q0 12 7.5 19.5t19.5 7.5h409zM946 352v475q0 104 -64 165t-173 61h-287q-10 0 -10 -11
v-370q0 -10 10 -10h184q12 0 19.5 -7.5t7.5 -19.5v-49q0 -12 -7.5 -19.5t-19.5 -7.5h-184q-10 0 -10 -10v-412q0 -10 10 -10h287q107 0 172 61t65 164z" />
    <glyph glyph-name="e.sc" horiz-adv-x="1054" 
d="M958 1079q0 -26 -26 -26h-621q-10 0 -10 -11v-374q0 -11 10 -11h428q27 0 27 -26v-74q0 -12 -7.5 -19.5t-19.5 -7.5h-428q-10 0 -10 -10v-383q0 -10 10 -10h621q26 0 26 -27v-73q0 -27 -26 -27h-750q-26 0 -26 27v1126q0 27 26 27h750q26 0 26 -27v-74z" />
    <glyph glyph-name="eacute.sc" horiz-adv-x="1054" 
d="M686 1608q15 0 19.5 -10t-3.5 -23l-131 -211q-12 -18 -30 -18h-72q-15 0 -20 9t2 23l116 211q9 19 31 19h88zM958 1079q0 -26 -26 -26h-621q-10 0 -10 -11v-374q0 -11 10 -11h428q27 0 27 -26v-74q0 -12 -7.5 -19.5t-19.5 -7.5h-428q-10 0 -10 -10v-383q0 -10 10 -10h621
q26 0 26 -27v-73q0 -27 -26 -27h-750q-26 0 -26 27v1126q0 27 26 27h750q26 0 26 -27v-74z" />
    <glyph glyph-name="ecaron.sc" horiz-adv-x="1054" 
d="M612 1325q-13 -16 -32 -16h-107q-20 0 -33 16l-153 211q-9 14 -3 23.5t21 9.5h62q18 0 32 -17l121 -163q8 -11 15 0l120 163q14 17 33 17h62q15 0 20 -9.5t-4 -23.5zM958 1079q0 -26 -26 -26h-621q-10 0 -10 -11v-374q0 -11 10 -11h428q27 0 27 -26v-74q0 -12 -7.5 -19.5
t-19.5 -7.5h-428q-10 0 -10 -10v-383q0 -10 10 -10h621q26 0 26 -27v-73q0 -27 -26 -27h-750q-26 0 -26 27v1126q0 27 26 27h750q26 0 26 -27v-74z" />
    <glyph glyph-name="uni0229.sc" horiz-adv-x="1054" 
d="M958 1079q0 -26 -26 -26h-621q-10 0 -10 -11v-374q0 -11 10 -11h428q27 0 27 -26v-74q0 -12 -7.5 -19.5t-19.5 -7.5h-428q-10 0 -10 -10v-383q0 -10 10 -10h621q26 0 26 -27v-73q0 -27 -26 -27h-338q-4 0 -6 -1.5t-1.5 -4.5t3.5 -6q122 -111 92 -230q-11 -46 -40 -75
t-66.5 -38.5t-75 -8.5t-74.5 10q-23 6 -20 30l6 33q3 28 30 21q52 -10 91 6.5t47 62.5q19 91 -107 197q-8 4 -12 4h-279q-26 0 -26 27v1126q0 27 26 27h750q26 0 26 -27v-74z" />
    <glyph glyph-name="ecircumflex.sc" horiz-adv-x="1054" 
d="M535 1511q-7 11 -15 0l-121 -163q-14 -17 -32 -17h-66q-17 0 -21.5 10.5t5.5 22.5l159 209q11 16 33 16h96q22 0 33 -16l162 -209q10 -12 5.5 -22.5t-21.5 -10.5h-66q-19 0 -33 17zM958 1079q0 -26 -26 -26h-621q-10 0 -10 -11v-374q0 -11 10 -11h428q27 0 27 -26v-74
q0 -12 -7.5 -19.5t-19.5 -7.5h-428q-10 0 -10 -10v-383q0 -10 10 -10h621q26 0 26 -27v-73q0 -27 -26 -27h-750q-26 0 -26 27v1126q0 27 26 27h750q26 0 26 -27v-74z" />
    <glyph glyph-name="edieresis.sc" horiz-adv-x="1054" 
d="M356 1393q-43 0 -70.5 26.5t-27.5 67.5t27.5 68.5t70.5 27.5q41 0 68 -27.5t27 -68.5t-27 -67.5t-68 -26.5zM700 1393q-43 0 -69.5 26.5t-26.5 67.5q0 42 27 69t69 27t69.5 -27.5t27.5 -68.5t-27 -67.5t-70 -26.5zM958 1079q0 -26 -26 -26h-621q-10 0 -10 -11v-374
q0 -11 10 -11h428q27 0 27 -26v-74q0 -12 -7.5 -19.5t-19.5 -7.5h-428q-10 0 -10 -10v-383q0 -10 10 -10h621q26 0 26 -27v-73q0 -27 -26 -27h-750q-26 0 -26 27v1126q0 27 26 27h750q26 0 26 -27v-74z" />
    <glyph glyph-name="edotaccent.sc" horiz-adv-x="1054" 
d="M528 1364q-41 0 -67.5 25t-26.5 65q0 39 26.5 64.5t67.5 25.5q38 0 63 -26t25 -64q0 -40 -25 -65t-63 -25zM958 1079q0 -26 -26 -26h-621q-10 0 -10 -11v-374q0 -11 10 -11h428q27 0 27 -26v-74q0 -12 -7.5 -19.5t-19.5 -7.5h-428q-10 0 -10 -10v-383q0 -10 10 -10h621
q26 0 26 -27v-73q0 -27 -26 -27h-750q-26 0 -26 27v1126q0 27 26 27h750q26 0 26 -27v-74z" />
    <glyph glyph-name="egrave.sc" horiz-adv-x="1054" 
d="M571 1378q7 -14 2 -23t-20 -9h-72q-18 0 -30 18l-132 211q-8 13 -3 23t20 10h88q22 0 31 -19zM958 1079q0 -26 -26 -26h-621q-10 0 -10 -11v-374q0 -11 10 -11h428q27 0 27 -26v-74q0 -12 -7.5 -19.5t-19.5 -7.5h-428q-10 0 -10 -10v-383q0 -10 10 -10h621q26 0 26 -27
v-73q0 -27 -26 -27h-750q-26 0 -26 27v1126q0 27 26 27h750q26 0 26 -27v-74z" />
    <glyph glyph-name="emacron.sc" horiz-adv-x="1054" 
d="M778 1485q12 0 19.5 -7.5t7.5 -19.5v-51q0 -12 -7.5 -19.5t-19.5 -7.5h-497q-12 0 -19.5 7.5t-7.5 19.5v51q0 12 7.5 19.5t19.5 7.5h497zM958 1079q0 -26 -26 -26h-621q-10 0 -10 -11v-374q0 -11 10 -11h428q27 0 27 -26v-74q0 -12 -7.5 -19.5t-19.5 -7.5h-428
q-10 0 -10 -10v-383q0 -10 10 -10h621q26 0 26 -27v-73q0 -27 -26 -27h-750q-26 0 -26 27v1126q0 27 26 27h750q26 0 26 -27v-74z" />
    <glyph glyph-name="eogonek.sc" horiz-adv-x="1054" 
d="M958 1079q0 -26 -26 -26h-621q-10 0 -10 -11v-374q0 -11 10 -11h428q27 0 27 -26v-74q0 -12 -7.5 -19.5t-19.5 -7.5h-428q-10 0 -10 -10v-383q0 -10 10 -10h621q26 0 26 -27v-73q0 -27 -26 -27h-352q-5 0 -13 -4q-125 -105 -106 -197q8 -46 46.5 -62.5t90.5 -6.5
q28 7 31 -21l6 -33q3 -24 -21 -30q-37 -9 -74.5 -10t-75 8.5t-66.5 38.5t-40 75q-30 119 93 230q4 4 2.5 8t-7.5 4h-264q-26 0 -26 27v1126q0 27 26 27h750q26 0 26 -27v-74z" />
    <glyph glyph-name="f.sc" horiz-adv-x="991" 
d="M956 1079q0 -26 -26 -26h-619q-10 0 -10 -11v-374q0 -11 10 -11h426q27 0 27 -26v-74q0 -12 -7.5 -19.5t-19.5 -7.5h-426q-10 0 -10 -10v-493q0 -12 -7.5 -19.5t-19.5 -7.5h-92q-26 0 -26 27v1128q0 27 26 27h748q26 0 26 -27v-76z" />
    <glyph glyph-name="g.sc" horiz-adv-x="1132" 
d="M578 -14q-205 0 -326 112t-121 310v366q0 198 121 310t326 112q198 0 318 -111t120 -303q0 -22 -27 -22h-90q-27 0 -27 12v10q0 136 -79.5 211.5t-214.5 75.5q-139 0 -221.5 -77.5t-82.5 -221.5v-364q0 -141 82.5 -217t221.5 -76q136 0 215 75.5t79 217.5v59q0 10 -10 10
h-246q-26 0 -26 27v71q0 27 26 27h373q12 0 19.5 -7.5t7.5 -19.5v-165q0 -197 -119.5 -309.5t-318.5 -112.5z" />
    <glyph glyph-name="gbreve.sc" horiz-adv-x="1132" 
d="M573 1274q-86 0 -149 54t-74 136q-1 12 6 19.5t19 7.5h37q23 0 26 -25q9 -50 46.5 -82t88.5 -32q49 0 87 32t47 82q3 25 26 25h39q12 0 19 -7.5t6 -19.5q-9 -82 -73 -136t-151 -54zM578 -14q-205 0 -326 112t-121 310v366q0 198 121 310t326 112q198 0 318 -111t120 -303
q0 -22 -27 -22h-90q-27 0 -27 12v10q0 136 -79.5 211.5t-214.5 75.5q-139 0 -221.5 -77.5t-82.5 -221.5v-364q0 -141 82.5 -217t221.5 -76q136 0 215 75.5t79 217.5v59q0 10 -10 10h-246q-26 0 -26 27v71q0 27 26 27h373q12 0 19.5 -7.5t7.5 -19.5v-165
q0 -197 -119.5 -309.5t-318.5 -112.5z" />
    <glyph glyph-name="uni0123.sc" horiz-adv-x="1132" 
d="M578 -14q-205 0 -326 112t-121 310v366q0 198 121 310t326 112q198 0 318 -111t120 -303q0 -22 -27 -22h-90q-27 0 -27 12v10q0 136 -79.5 211.5t-214.5 75.5q-139 0 -221.5 -77.5t-82.5 -221.5v-364q0 -141 82.5 -217t221.5 -76q136 0 215 75.5t79 217.5v59q0 10 -10 10
h-246q-26 0 -26 27v71q0 27 26 27h373q12 0 19.5 -7.5t7.5 -19.5v-165q0 -197 -119.5 -309.5t-318.5 -112.5zM455 -393q-15 0 -20.5 9.5t1.5 23.5l117 210q9 19 31 19h88q15 0 19.5 -9.5t-3.5 -23.5l-131 -211q-12 -18 -31 -18h-71z" />
    <glyph glyph-name="gdotaccent.sc" horiz-adv-x="1132" 
d="M573 1360q-41 0 -67.5 25t-26.5 65q0 39 26.5 64.5t67.5 25.5q38 0 63.5 -26t25.5 -64q0 -40 -25 -65t-64 -25zM578 -14q-205 0 -326 112t-121 310v366q0 198 121 310t326 112q198 0 318 -111t120 -303q0 -22 -27 -22h-90q-27 0 -27 12v10q0 136 -79.5 211.5t-214.5 75.5
q-139 0 -221.5 -77.5t-82.5 -221.5v-364q0 -141 82.5 -217t221.5 -76q136 0 215 75.5t79 217.5v59q0 10 -10 10h-246q-26 0 -26 27v71q0 27 26 27h373q12 0 19.5 -7.5t7.5 -19.5v-165q0 -197 -119.5 -309.5t-318.5 -112.5z" />
    <glyph glyph-name="h.sc" horiz-adv-x="1138" 
d="M846 1155q0 27 26 27h93q26 0 26 -27v-1128q0 -27 -26 -27h-93q-26 0 -26 27v493q0 10 -10 10h-525q-10 0 -10 -10v-493q0 -12 -7.5 -19.5t-19.5 -7.5h-92q-26 0 -26 27v1128q0 27 26 27h92q12 0 19.5 -7.5t7.5 -19.5v-487q0 -11 10 -11h525q10 0 10 11v487z" />
    <glyph glyph-name="hbar.sc" horiz-adv-x="1138" 
d="M1153 963q12 0 19.5 -7.5t7.5 -19.5v-51q0 -12 -7.5 -19.5t-19.5 -7.5h-152q-10 0 -10 -10v-821q0 -27 -26 -27h-93q-26 0 -26 27v493q0 10 -10 10h-525q-10 0 -10 -10v-493q0 -12 -7.5 -19.5t-19.5 -7.5h-92q-26 0 -26 27v821q0 10 -11 10h-149q-12 0 -19.5 7.5
t-7.5 19.5v51q0 12 7.5 19.5t19.5 7.5h149q11 0 11 10v182q0 27 26 27h92q12 0 19.5 -7.5t7.5 -19.5v-182q0 -10 10 -10h525q10 0 10 10v182q0 27 26 27h93q26 0 26 -27v-182q0 -10 10 -10h152zM836 657q10 0 10 11v180q0 10 -10 10h-525q-10 0 -10 -10v-180q0 -11 10 -11
h525z" />
    <glyph glyph-name="i.sc" horiz-adv-x="456" 
d="M182 0q-26 0 -26 27v1126q0 27 26 27h92q12 0 19.5 -7.5t7.5 -19.5v-1126q0 -12 -7.5 -19.5t-19.5 -7.5h-92z" />
    <glyph glyph-name="iacute.sc" horiz-adv-x="456" 
d="M168 1346q-15 0 -20 9t2 23l116 211q10 19 31 19h88q15 0 19.5 -10t-3.5 -23l-131 -211q-12 -18 -30 -18h-72zM182 0q-26 0 -26 27v1126q0 27 26 27h92q12 0 19.5 -7.5t7.5 -19.5v-1126q0 -12 -7.5 -19.5t-19.5 -7.5h-92z" />
    <glyph glyph-name="icircumflex.sc" horiz-adv-x="456" 
d="M0 1331q-17 0 -21.5 10.5t5.5 22.5l159 209q11 16 33 16h96q22 0 33 -16l162 -209q10 -12 5.5 -22.5t-21.5 -10.5h-66q-19 0 -33 17l-119 163q-7 11 -14 0l-121 -163q-14 -17 -32 -17h-66zM182 0q-26 0 -26 27v1126q0 27 26 27h92q12 0 19.5 -7.5t7.5 -19.5v-1126
q0 -12 -7.5 -19.5t-19.5 -7.5h-92z" />
    <glyph glyph-name="idieresis.sc" horiz-adv-x="456" 
d="M55 1393q-43 0 -70.5 26.5t-27.5 67.5t27.5 68.5t70.5 27.5q41 0 68 -27.5t27 -68.5t-27 -67.5t-68 -26.5zM399 1393q-43 0 -69.5 26.5t-26.5 67.5q0 42 27 69t69 27q43 0 70 -27.5t27 -68.5t-27 -67.5t-70 -26.5zM182 0q-26 0 -26 27v1126q0 27 26 27h92q12 0 19.5 -7.5
t7.5 -19.5v-1126q0 -12 -7.5 -19.5t-19.5 -7.5h-92z" />
    <glyph glyph-name="i.sc.loclTRK" horiz-adv-x="456" 
d="M227 1364q-41 0 -67.5 25t-26.5 65q0 39 26.5 64.5t67.5 25.5q38 0 63 -26t25 -64q0 -40 -25 -65t-63 -25zM182 0q-26 0 -26 27v1126q0 27 26 27h92q12 0 19.5 -7.5t7.5 -19.5v-1126q0 -12 -7.5 -19.5t-19.5 -7.5h-92z" />
    <glyph glyph-name="igrave.sc" horiz-adv-x="456" 
d="M270 1378q7 -14 2 -23t-20 -9h-72q-18 0 -30 18l-132 211q-8 13 -3 23t20 10h88q21 0 31 -19zM182 0q-26 0 -26 27v1126q0 27 26 27h92q12 0 19.5 -7.5t7.5 -19.5v-1126q0 -12 -7.5 -19.5t-19.5 -7.5h-92z" />
    <glyph glyph-name="ij.sc" horiz-adv-x="1476" 
d="M911 -14q-185 0 -296 108t-111 289v51q0 27 26 27h93q26 0 26 -27v-51q0 -124 71.5 -197t190.5 -73t192 73t73 197v772q0 27 26 27h92q12 0 19.5 -7.5t7.5 -19.5v-772q0 -180 -113 -288.5t-297 -108.5zM182 0q-26 0 -26 27v1126q0 27 26 27h92q12 0 19.5 -7.5t7.5 -19.5
v-1126q0 -12 -7.5 -19.5t-19.5 -7.5h-92z" />
    <glyph glyph-name="imacron.sc" horiz-adv-x="456" 
d="M-20 1380q-12 0 -19.5 7.5t-7.5 19.5v51q0 12 7.5 19.5t19.5 7.5h497q12 0 19.5 -7.5t7.5 -19.5v-51q0 -12 -7.5 -19.5t-19.5 -7.5h-497zM182 0q-26 0 -26 27v1126q0 27 26 27h92q12 0 19.5 -7.5t7.5 -19.5v-1126q0 -12 -7.5 -19.5t-19.5 -7.5h-92z" />
    <glyph glyph-name="iogonek.sc" horiz-adv-x="491" 
d="M309 -287q28 7 31 -20l6 -33q3 -25 -20 -31q-37 -9 -74.5 -9.5t-75 9t-66.5 38.5t-40 75q-33 131 110 246q12 10 10 12h-8q-26 0 -26 27v1126q0 27 26 27h92q12 0 19.5 -7.5t7.5 -19.5v-1145q0 -10 -4 -12q-2 -2 -13 -12t-18 -17q-113 -99 -94 -184q6 -32 27 -50.5
t49 -21.5t61 2z" />
    <glyph glyph-name="j.sc" horiz-adv-x="1019" 
d="M455 -14q-185 0 -296.5 108t-111.5 289v51q0 12 7.5 19.5t19.5 7.5h92q12 0 19.5 -7.5t7.5 -19.5v-51q0 -124 71.5 -197t190.5 -73t191.5 73t72.5 197v772q0 27 26 27h93q26 0 26 -27v-772q0 -181 -112.5 -289t-296.5 -108z" />
    <glyph glyph-name="k.sc" horiz-adv-x="1075" 
d="M182 0q-26 0 -26 27v1128q0 27 26 27h92q12 0 19.5 -7.5t7.5 -19.5v-543q0 -6 3.5 -8t8.5 4l523 559q12 15 32 15h99q17 0 21 -10.5t-7 -22.5l-408 -455q-4 -6 0 -14l445 -647q9 -13 3.5 -23t-20.5 -10h-104q-20 0 -33 16l-391 562q-8 12 -14 2l-154 -164q-4 -8 -4 -15
v-374q0 -12 -7.5 -19.5t-19.5 -7.5h-92z" />
    <glyph glyph-name="uni0137.sc" horiz-adv-x="1073" 
d="M182 0q-26 0 -26 27v1128q0 27 26 27h92q12 0 19.5 -7.5t7.5 -19.5v-543q0 -6 3.5 -8t8.5 4l523 559q12 15 32 15h99q17 0 21 -10.5t-7 -22.5l-408 -455q-4 -6 0 -14l445 -647q9 -13 3.5 -23t-20.5 -10h-104q-20 0 -33 16l-391 562q-8 12 -14 2l-154 -164q-4 -8 -4 -15
v-374q0 -12 -7.5 -19.5t-19.5 -7.5h-92zM451 -379q-15 0 -20.5 9.5t1.5 23.5l117 211q9 18 31 18h88q15 0 19.5 -9.5t-3.5 -23.5l-131 -210q-13 -19 -31 -19h-71z" />
    <glyph glyph-name="l.sc" horiz-adv-x="995" 
d="M182 0q-26 0 -26 27v1128q0 27 26 27h92q12 0 19.5 -7.5t7.5 -19.5v-1018q0 -10 10 -10h598q12 0 19.5 -7.5t7.5 -19.5v-73q0 -12 -7.5 -19.5t-19.5 -7.5h-727z" />
    <glyph glyph-name="lacute.sc" horiz-adv-x="995" 
d="M168 1327q-15 0 -20.5 9.5t2.5 23.5l116 211q9 18 31 18h88q15 0 19.5 -9.5t-3.5 -23.5l-131 -210q-13 -19 -30 -19h-72zM182 0q-26 0 -26 27v1128q0 27 26 27h92q12 0 19.5 -7.5t7.5 -19.5v-1018q0 -10 10 -10h598q12 0 19.5 -7.5t7.5 -19.5v-73q0 -12 -7.5 -19.5
t-19.5 -7.5h-727z" />
    </font>
</defs>
</svg>
