<?xml version="1.0" standalone="no"?>
<!DOCTYPE svg PUBLIC "-//W3C//DTD SVG 1.1//EN" "http://www.w3.org/Graphics/SVG/1.1/DTD/svg11.dtd" >
<svg xmlns="http://www.w3.org/2000/svg" xmlns:xlink="http://www.w3.org/1999/xlink" version="1.1">
<metadata>
Created by FontForge 20170731 at Mon Jan 18 07:23:52 2021
 By Aleksey,,,
Copyright 2017 The Barlow Project Authors (https://github.com/jpt/barlow)
</metadata>
<defs>
<font id="Barlow-Black" horiz-adv-x="1130" >
  <font-face 
    font-family="Barlow Black"
    font-weight="900"
    font-stretch="normal"
    units-per-em="2048"
    panose-1="0 0 10 0 0 0 0 0 0 0"
    ascent="1638"
    descent="-410"
    x-height="1065"
    cap-height="1434"
    bbox="-1339 -555 2427 2007"
    underline-thickness="102"
    underline-position="-307"
    unicode-range="U+000D-25CA"
  />
<missing-glyph horiz-adv-x="1046" 
d="M0 16q0 -16 16 -16h1014q17 0 17 16v1401q0 17 -17 17h-1014q-16 0 -16 -17v-1401zM401 537q-39 0 -39 20v21q0 59 27.5 105t67 74t78.5 51t66.5 49t27.5 56t-28 48t-73 18q-50 0 -79 -21t-29 -53q0 -29 -39 -26l-199 8q-39 3 -39 10v8q0 145 109.5 234.5t284.5 89.5
q168 0 268 -83t100 -220q0 -57 -20 -102.5t-49.5 -72t-64.5 -52t-64.5 -43t-49.5 -43t-20 -54.5q0 -22 -39 -22h-197zM512 182q-63 0 -106.5 41.5t-43.5 98.5q0 60 44 101.5t106 41.5q61 0 105.5 -41.5t44.5 -99.5t-44 -100t-106 -42z" />
    <glyph glyph-name="I_J.liga" unicode="IJ" horiz-adv-x="1767" 
d="M119 0q-39 0 -39 39v1356q0 39 39 39h307q39 0 39 -39v-1356q0 -39 -39 -39h-307zM1126 -16q-251 0 -404 135t-153 356v60q0 38 39 38h307q39 0 39 -38v-58q0 -73 47.5 -118.5t124.5 -45.5q80 0 129.5 45.5t49.5 118.5v918q0 39 38 39h306q39 0 39 -39v-920
q0 -221 -155 -356t-407 -135z" />
    <glyph glyph-name="f_f_i.liga" unicode="ffi" horiz-adv-x="2052" 
d="M1776 1098q-99 0 -160.5 59.5t-61.5 155.5t61.5 155.5t160.5 59.5q100 0 160.5 -59t60.5 -156t-60.5 -156t-160.5 -59zM1262 1104v-23q0 -16 16 -16h166q39 0 39 -39v-229q0 -39 -39 -39h-166q-16 0 -16 -17v-702q0 -39 -39 -39h-308q-38 0 -38 39v702q0 17 -17 17h-272
q-17 0 -17 -17v-702q0 -39 -39 -39h-307q-39 0 -39 39v702q0 17 -16 17h-90q-39 0 -39 39v229q0 39 39 39h90q16 0 16 16v58q0 172 106 239.5t355 55.5h78q39 0 39 -39v-178q0 -39 -39 -39h-78q-41 -4 -58.5 -21.5t-17.5 -52.5v-23q0 -16 17 -16h272q17 0 17 16v58
q0 172 105.5 239.5t354.5 55.5h78q39 0 39 -39v-178q0 -39 -39 -39h-78q-41 -4 -58 -21t-17 -53zM1622 0q-39 0 -39 39v987q0 39 39 39h307q39 0 39 -39v-987q0 -39 -39 -39h-307z" />
    <glyph glyph-name="f_f_l.liga" unicode="ffl" horiz-adv-x="2027" 
d="M1262 1104v-23q0 -16 16 -16h166q39 0 39 -39v-229q0 -39 -39 -39h-166q-16 0 -16 -17v-702q0 -39 -39 -39h-308q-38 0 -38 39v702q0 17 -17 17h-272q-17 0 -17 -17v-702q0 -39 -39 -39h-307q-39 0 -39 39v702q0 17 -16 17h-90q-39 0 -39 39v229q0 39 39 39h90
q16 0 16 16v58q0 172 106 239.5t355 55.5h78q39 0 39 -39v-178q0 -39 -39 -39h-78q-41 -4 -58.5 -21.5t-17.5 -52.5v-23q0 -16 17 -16h272q17 0 17 16v58q0 172 105.5 239.5t354.5 55.5h78q39 0 39 -39v-178q0 -39 -39 -39h-78q-41 -4 -58 -21t-17 -53zM1569 1395
q0 39 39 39h307q39 0 39 -39v-1356q0 -39 -39 -39h-307q-39 0 -39 39v1356z" />
    <glyph glyph-name="f_i.liga" unicode="fi" horiz-adv-x="1366" 
d="M1090 1108q-99 0 -160.5 59.5t-61.5 155.5t61.5 155.5t160.5 59.5q100 0 160.5 -59t60.5 -156t-60.5 -156t-160.5 -59zM571 1104v-23q0 -16 17 -16h166q39 0 39 -39v-229q0 -39 -39 -39h-166q-17 0 -17 -17v-702q0 -39 -39 -39h-307q-39 0 -39 39v702q0 17 -16 17h-90
q-39 0 -39 39v229q0 39 39 39h90q16 0 16 16v58q0 172 106 239.5t355 55.5h78q39 0 39 -39v-178q0 -39 -39 -39h-78q-41 -4 -58.5 -21.5t-17.5 -52.5zM936 0q-39 0 -39 39v987q0 39 39 39h307q39 0 39 -39v-987q0 -39 -39 -39h-307z" />
    <glyph glyph-name="f_l.liga" unicode="fl" horiz-adv-x="1345" 
d="M571 1104v-23q0 -16 17 -16h166q39 0 39 -39v-229q0 -39 -39 -39h-166q-17 0 -17 -17v-702q0 -39 -39 -39h-307q-39 0 -39 39v702q0 17 -16 17h-90q-39 0 -39 39v229q0 39 39 39h90q16 0 16 16v58q0 172 106 239.5t355 55.5h78q39 0 39 -39v-178q0 -39 -39 -39h-78
q-41 -4 -58.5 -21.5t-17.5 -52.5zM887 1395q0 39 39 39h307q39 0 39 -39v-1356q0 -39 -39 -39h-307q-39 0 -39 39v1356z" />
    <glyph glyph-name="g_j.liga" unicode="gj" horiz-adv-x="1685" 
d="M1425 1098q-98 0 -159.5 62t-61.5 153q0 88 66.5 151.5t154.5 63.5q86 0 154 -63.5t68 -151.5q0 -90 -63 -152.5t-159 -62.5zM1059 1065q39 0 39 -39v-887q0 -109 -27 -197t-73 -146.5t-110 -100t-134.5 -62.5t-151.5 -29t-155.5 -4t-151.5 17q-36 6 -33 43l12 260
q3 43 45 31q69 -16 131 -18t116 10t91 46t50 87q3 10 -7.5 15t-19.5 -1q-69 -53 -184 -53q-327 0 -418 266q-35 101 -35 240q0 151 43 258q50 128 155 204t242 76t211 -77q5 -5 9.5 -6.5t7 0t2.5 6.5v22q0 39 39 39h307zM1233 53v973q0 39 39 39h307q39 0 39 -39v-967
q0 -279 -131.5 -380t-429.5 -74q-22 1 -30 14.5t1 32.5l102 227q12 30 35 27q41 -4 54.5 26.5t13.5 120.5zM692 403q21 55 21 142q0 80 -23 133q-36 74 -117 74q-69 0 -108 -72q-33 -56 -33 -141q0 -81 27 -133q39 -72 119 -72q82 0 114 69z" />
    <glyph glyph-name="i_j.liga" unicode="ij" horiz-adv-x="1054" 
d="M276 1108q-99 0 -160 59.5t-61 155.5t61 155.5t160 59.5q100 0 161 -59t61 -156t-61 -156t-161 -59zM795 1098q-98 0 -160 62t-62 153q0 88 67 151.5t155 63.5q86 0 153.5 -63.5t67.5 -151.5q0 -90 -62.5 -152.5t-158.5 -62.5zM123 0q-39 0 -39 39v987q0 39 39 39h307
q39 0 39 -39v-987q0 -39 -39 -39h-307zM397 -414q-39 3 -39 41v242q0 39 43 39q119 -7 160 23t41 122v973q0 39 39 39h307q39 0 39 -39v-967q0 -99 -10.5 -169t-38 -125.5t-69.5 -89t-110 -55t-154.5 -29t-207.5 -5.5z" />
    <glyph glyph-name="hyphen_hyphen.liga" unicode="&#x2d;&#x2d;" horiz-adv-x="1312" 
d="M84 420q-39 0 -39 39v250q0 39 39 39h1145q39 0 39 -39v-250q0 -39 -39 -39h-1145z" />
    <glyph glyph-name=".notdef" horiz-adv-x="1046" 
d="M0 16q0 -16 16 -16h1014q17 0 17 16v1401q0 17 -17 17h-1014q-16 0 -16 -17v-1401zM401 537q-39 0 -39 20v21q0 59 27.5 105t67 74t78.5 51t66.5 49t27.5 56t-28 48t-73 18q-50 0 -79 -21t-29 -53q0 -29 -39 -26l-199 8q-39 3 -39 10v8q0 145 109.5 234.5t284.5 89.5
q168 0 268 -83t100 -220q0 -57 -20 -102.5t-49.5 -72t-64.5 -52t-64.5 -43t-49.5 -43t-20 -54.5q0 -22 -39 -22h-197zM512 182q-63 0 -106.5 41.5t-43.5 98.5q0 60 44 101.5t106 41.5q61 0 105.5 -41.5t44.5 -99.5t-44 -100t-106 -42z" />
    <glyph glyph-name=".null" horiz-adv-x="0" 
 />
    <glyph glyph-name="nonmarkingreturn" horiz-adv-x="682" 
 />
    <glyph glyph-name="CR" unicode="&#xd;" horiz-adv-x="409" 
 />
    <glyph glyph-name="space" unicode=" " horiz-adv-x="409" 
 />
    <glyph glyph-name="exclam" unicode="!" horiz-adv-x="741" 
d="M256 508q-41 0 -41 39l-35 848q-3 39 37 39h307q40 0 37 -39l-37 -848q-3 -39 -41 -39h-227zM367 0q-99 0 -163.5 62.5t-64.5 152.5q0 87 70 150t158 63q90 0 159.5 -62.5t69.5 -150.5q0 -90 -65 -152.5t-164 -62.5z" />
    <glyph glyph-name="quotedbl" unicode="&#x22;" horiz-adv-x="866" 
d="M86 942q-38 0 -41 37l-33 414q-2 19 8 30t29 11h285q19 0 29 -11t8 -30l-35 -414q-3 -37 -39 -37h-211zM578 942q-38 0 -41 37l-33 414q-2 19 8 30t29 11h284q19 0 29 -11t8 -30l-35 -414q-3 -37 -39 -37h-210z" />
    <glyph glyph-name="numbersign" unicode="#" horiz-adv-x="1443" 
d="M1382 831q0 -38 -39 -38h-139q-13 0 -16 -15l-17 -108q-1 -9 4 -14t13 -5h80q39 0 39 -39v-250q0 -38 -39 -38h-135q-13 0 -17 -15l-31 -205q-6 -34 -43 -34h-305q-20 0 -30 11t-7 30l31 194q3 19 -16 19h-113q-12 0 -16 -15l-31 -205q-6 -34 -43 -34h-305q-20 0 -30 11
t-7 30l31 194q1 9 -4 14t-13 5h-84q-39 0 -39 38v250q0 39 39 39h140q13 0 16 15l16 108q3 19 -16 19h-80q-39 0 -39 38v252q0 39 39 39h135q13 0 17 15l30 204q6 35 43 35h306q20 0 29.5 -11t6.5 -30l-30 -194q-3 -19 16 -19h113q12 0 16 15l31 204q6 35 43 35h305
q20 0 30 -11t7 -30l-31 -194q-1 -9 4 -14t13 -5h83q39 0 39 -39v-252zM770 651q13 0 16 15l17 108q1 9 -4 14t-13 5h-112q-14 0 -17 -15l-16 -108q-3 -19 16 -19h113z" />
    <glyph glyph-name="dollar" unicode="$" horiz-adv-x="1138" 
d="M1083 436q0 -176 -99.5 -292t-283.5 -148q-14 -4 -14 -16l2 -80q0 -39 -37 -39h-168q-37 0 -37 39l3 75q0 16 -17 19q-173 28 -269.5 127t-96.5 248v94q0 39 38 39h302q38 0 38 -21v-22q0 -59 35 -102.5t103 -43.5q60 0 88 33.5t28 71.5q0 46 -55 79.5t-127.5 51.5
t-164 50.5t-144.5 72.5q-67 50 -110.5 137.5t-43.5 200.5q0 168 100.5 282t282.5 146q15 4 15 16l-2 100q0 39 36 39h164q37 0 37 -39l-2 -94q0 -15 16 -18q179 -29 278 -135t99 -265v-77q0 -39 -39 -39h-301q-39 0 -39 16v16q0 66 -33.5 114t-105.5 48q-55 0 -91 -28
t-36 -70q0 -32 22.5 -55.5t65 -40t87.5 -29t106.5 -31t105.5 -37.5q264 -115 264 -393z" />
    <glyph glyph-name="percent" unicode="%" horiz-adv-x="1656" 
d="M428 760q-145 0 -246.5 100.5t-101.5 245.5q0 143 101.5 243.5t246.5 100.5q143 0 244.5 -101t101.5 -243q0 -145 -100.5 -245.5t-245.5 -100.5zM344 0q-23 0 -30.5 13.5t3.5 33.5l758 1360q13 27 45 27h187q23 0 30 -14t-4 -34l-755 -1359q-14 -27 -46 -27h-188z
M428 952q63 0 106.5 44.5t43.5 109.5q0 63 -44 107t-106 44q-63 0 -107.5 -44t-44.5 -107q0 -64 44.5 -109t107.5 -45zM1249 -16q-145 0 -246.5 100.5t-101.5 245.5q0 143 101.5 243.5t246.5 100.5q143 0 244.5 -101t101.5 -243q0 -145 -100.5 -245.5t-245.5 -100.5z
M1249 176q63 0 106.5 44.5t43.5 109.5q0 63 -44 107t-106 44q-63 0 -107 -44t-44 -107q0 -64 44 -109t107 -45z" />
    <glyph glyph-name="ampersand" unicode="&#x26;" horiz-adv-x="1501" 
d="M1403 47q17 -19 9.5 -33t-32.5 -14h-340q-29 0 -49 20q-7 8 -24.5 27t-24.5 27q-8 11 -22 4q-195 -94 -396 -94q-94 0 -175.5 21.5t-149 65.5t-107 119.5t-39.5 174.5q0 89 34 162.5t83.5 121t120.5 90.5q15 12 2 25q-86 100 -113.5 156t-27.5 114q0 188 127 302t339 114
t350 -115.5t138 -298.5q0 -128 -67.5 -214.5t-184.5 -151.5q-17 -7 -4 -23q13 -14 46.5 -50.5t53.5 -57.5q12 -13 25 0q80 80 121 145q19 36 53 16l223 -129q34 -20 14 -53q-76 -129 -180 -233q-12 -12 -2 -25zM627 1102q-41 0 -65.5 -19.5t-24.5 -48.5q0 -16 14 -39t59 -77
q11 -14 23 -5q88 55 88 113q0 36 -26 56t-68 20zM594 307q12 2 74 25q8 3 10 9.5t-4 12.5q-35 35 -64 66l-73 78q-9 12 -23 2q-65 -49 -76 -103q-9 -54 35.5 -81t120.5 -9z" />
    <glyph glyph-name="quotesingle" unicode="'" horiz-adv-x="395" 
d="M86 942q-38 0 -41 37l-33 414q-2 19 8 30t29 11h305q19 0 29 -11t8 -30l-35 -414q-3 -37 -39 -37h-231z" />
    <glyph glyph-name="parenleft" unicode="(" horiz-adv-x="829" 
d="M338 -170q-30 0 -47 23q-289 340 -289 837q0 498 289 838q17 20 47 20h297q23 0 31 -12.5t-4 -32.5q-48 -81 -83 -155.5t-71.5 -177t-56 -224.5t-19.5 -256q0 -135 19.5 -257.5t56 -225t71.5 -176.5t83 -156q12 -20 4 -32.5t-31 -12.5h-297z" />
    <glyph glyph-name="parenright" unicode=")" horiz-adv-x="829" 
d="M539 -147q-17 -23 -47 -23h-297q-23 0 -31 12.5t4 32.5q48 81 83 155.5t71 177t55.5 225t19.5 257.5q0 134 -19.5 256t-55.5 224.5t-71 177t-83 155.5q-12 20 -4 32.5t31 12.5h297q30 0 47 -20q288 -339 288 -838q0 -498 -288 -837z" />
    <glyph glyph-name="asterisk" unicode="*" horiz-adv-x="819" 
d="M342 805q-39 0 -39 39l2 121q0 10 -6.5 12.5t-13.5 -2.5l-119 -70q-34 -21 -53 15l-70 127q-18 35 16 53l121 59q9 5 9 11t-9 10l-119 57q-36 17 -18 51l70 127q19 37 53 17l119 -68q7 -5 13.5 -2.5t6.5 12.5l-2 117q0 39 39 39h135q39 0 39 -39l-2 -117q0 -10 7 -12.5
t14 2.5l118 68q15 9 30 4.5t24 -21.5l69 -127q18 -35 -18 -51l-123 -57q-9 -4 -9 -11t9 -12l123 -59q36 -17 18 -51l-69 -127q-19 -36 -54 -15l-118 70q-7 5 -14 2.5t-7 -12.5l2 -121q0 -39 -39 -39h-135z" />
    <glyph glyph-name="plus" unicode="+" horiz-adv-x="974" 
d="M891 762q39 0 39 -39v-250q0 -39 -39 -39h-223q-17 0 -17 -16v-223q0 -39 -39 -39h-250q-38 0 -38 39v223q0 16 -17 16h-223q-39 0 -39 39v250q0 39 39 39h223q17 0 17 16v223q0 39 38 39h250q39 0 39 -39v-223q0 -16 17 -16h223z" />
    <glyph glyph-name="comma" unicode="," horiz-adv-x="542" 
d="M86 -227q-19 0 -29 11t-8 30l51 477q3 37 41 37h262q20 0 29 -11.5t4 -31.5l-129 -480q-8 -32 -43 -32h-178z" />
    <glyph glyph-name="hyphen" unicode="-" horiz-adv-x="858" 
d="M84 420q-39 0 -39 39v250q0 39 39 39h690q39 0 39 -39v-250q0 -39 -39 -39h-690z" />
    <glyph glyph-name="period" unicode="." horiz-adv-x="538" 
d="M268 -16q-98 0 -162.5 62.5t-64.5 152.5q0 87 69.5 150t157.5 63q90 0 160 -63t70 -150q0 -90 -65.5 -152.5t-164.5 -62.5z" />
    <glyph glyph-name="slash" unicode="/" horiz-adv-x="1030" 
d="M74 0q-22 0 -30.5 12.5t-0.5 32.5l567 1358q12 31 45 31h301q22 0 30.5 -12.5t0.5 -32.5l-565 -1358q-12 -31 -45 -31h-303z" />
    <glyph glyph-name="zero" unicode="0" horiz-adv-x="1173" 
d="M586 -25q-244 0 -384.5 136t-140.5 372v467q0 232 140.5 366t384.5 134t385 -134t141 -366v-467q0 -236 -140.5 -372t-385.5 -136zM586 305q66 0 103.5 42t37.5 116v500q0 73 -37.5 115t-103.5 42q-65 0 -102.5 -42t-37.5 -115v-500q0 -73 37.5 -115.5t102.5 -42.5z" />
    <glyph glyph-name="one" unicode="1" horiz-adv-x="688" 
d="M219 1427q21 7 47 7h322q39 0 39 -39v-1356q0 -39 -39 -39h-307q-39 0 -39 39v1030q0 16 -17 16l-162 -6q-38 0 -38 37v219q0 35 32 45z" />
    <glyph glyph-name="two" unicode="2" horiz-adv-x="1179" 
d="M113 0q-39 0 -39 39v237q0 32 22 48q98 88 254 245.5t180 180.5q185 181 185 258q0 50 -36.5 81t-94.5 31q-60 0 -96.5 -32t-36.5 -84v-33q0 -39 -39 -39h-312q-39 0 -39 39v94q13 175 160.5 280t362.5 105q120 0 219 -35t164.5 -94.5t101 -138t35.5 -166.5
q0 -153 -158 -338q-21 -24 -48 -52t-46.5 -47.5t-60 -57t-56 -51.5t-67.5 -61.5t-64 -58.5q-9 -8 -6 -14t14 -6h467q39 0 39 -39v-252q0 -39 -39 -39h-966z" />
    <glyph glyph-name="three" unicode="3" horiz-adv-x="1138" 
d="M1042 690q41 -93 41 -205q0 -108 -43 -209q-56 -135 -183 -213.5t-294 -78.5q-164 0 -291 79.5t-188 217.5q-36 83 -39 172q-3 39 37 39h313q36 0 39 -37q6 -43 27 -84q34 -58 100 -58q67 0 103 58q30 53 30 127q0 75 -28 129q-38 61 -107 61q-40 0 -121 -63
q-34 -27 -55 8l-154 215q-20 33 11 55l280 180q9 6 7 13.5t-13 7.5h-391q-39 0 -39 39v252q0 39 39 39h897q39 0 39 -39v-287q0 -28 -25 -47l-207 -146q-8 -6 -5.5 -12.5t12.5 -9.5q142 -50 208 -203z" />
    <glyph glyph-name="four" unicode="4" horiz-adv-x="1314" 
d="M1198 690q39 0 39 -39v-262q0 -39 -39 -39h-70q-16 0 -16 -16v-295q0 -39 -39 -39h-307q-39 0 -39 39v295q0 16 -16 16h-627q-39 0 -39 39v205q0 20 10 47l332 764q12 29 45 29h328q22 0 29.5 -11.5t-1.5 -33.5l-290 -680q-6 -19 12 -19h201q16 0 16 17v188q0 39 39 39
h307q39 0 39 -39v-188q0 -17 16 -17h70z" />
    <glyph glyph-name="five" unicode="5" horiz-adv-x="1136" 
d="M1055 670q39 -92 39 -199q0 -113 -41 -203q-56 -128 -184.5 -204t-295.5 -76q-166 0 -293 74.5t-186 205.5q-27 67 -35 119q-3 20 7.5 30.5t29.5 10.5h320q30 0 43 -27q3 -10 12 -26q34 -58 102 -58q59 0 99 54q28 42 28 92q3 51 -22 96q-33 55 -105 55q-60 0 -96 -39
q-21 -24 -49 -24h-330q-39 0 -39 39v805q0 39 39 39h912q39 0 39 -39v-252q0 -39 -39 -39h-549q-17 0 -17 -17v-167q0 -9 6 -13t15 0q71 39 166 39q144 0 256.5 -75t167.5 -201z" />
    <glyph glyph-name="six" unicode="6" 
d="M1049 674q38 -77 38 -203q0 -119 -38 -203q-56 -128 -184.5 -204t-295.5 -76q-161 0 -288 75t-185 205q-41 89 -41 203v602q0 169 138 273t364 104q220 0 357 -104t137 -273v-63q0 -39 -39 -39h-307q-39 0 -39 22v23q0 44 -31 74t-80 30q-50 0 -82.5 -30t-32.5 -74v-123
q0 -9 6 -12.5t15 2.5q73 45 182 45q127 0 237 -65.5t169 -188.5zM672 367q30 42 30 96q0 58 -30 98q-34 45 -99 45q-71 0 -104 -45q-27 -36 -27 -94t27 -100q32 -50 100 -50q66 0 103 50z" />
    <glyph glyph-name="seven" unicode="7" horiz-adv-x="1046" 
d="M229 0q-46 0 -30 45l415 1040q3 8 0 13.5t-12 5.5h-256q-16 0 -16 -17v-77q0 -39 -39 -39h-234q-39 0 -39 39l2 385q0 39 39 39h930q39 0 39 -39v-267q0 -23 -8 -47l-418 -1050q-11 -31 -45 -31h-328z" />
    <glyph glyph-name="eight" unicode="8" horiz-adv-x="1138" 
d="M1040 649q50 -92 50 -219q0 -106 -41 -190q-58 -118 -185 -187t-297 -69q-162 0 -287 65.5t-188 190.5q-45 89 -45 192q0 124 51 217q26 53 82 99q15 9 2 22q-47 35 -78 90q-45 76 -45 180q0 134 74 238q66 89 180.5 137.5t257.5 48.5q165 0 284 -58.5t179 -178.5
q47 -96 47 -189q0 -99 -51 -178q-25 -42 -80 -86q-13 -13 0 -22q55 -37 90 -103zM461 905q33 -59 110 -59q80 0 111 57q20 36 20 90q0 44 -14 72q-34 70 -117 70q-86 0 -114 -68q-15 -35 -15 -78q0 -48 19 -84zM672 356q30 40 30 113q0 53 -18 88q-36 68 -113 68
q-78 0 -110 -68q-19 -40 -19 -92q0 -64 25 -103q35 -53 104 -53q66 0 101 47z" />
    <glyph glyph-name="nine" unicode="9" horiz-adv-x="1099" 
d="M1004 1165q40 -87 40 -202v-603q0 -169 -137.5 -272.5t-363.5 -103.5q-220 0 -357 104t-137 272v64q0 39 39 39h307q39 0 39 -23v-22q0 -44 31 -74.5t80 -30.5q50 0 82 30.5t32 74.5v123q0 9 -5.5 12.5t-14.5 -2.5q-73 -45 -182 -45q-127 0 -237 65.5t-169 188.5
q-39 79 -39 203q0 116 39 202q56 128 184.5 204.5t294.5 76.5q161 0 288.5 -75.5t185.5 -205.5zM631 872q26 35 26 95q0 59 -26 100q-32 49 -101 49q-66 0 -102 -49q-31 -43 -31 -96q0 -57 31 -99q34 -45 98 -45q72 0 105 45z" />
    <glyph glyph-name="colon" unicode=":" horiz-adv-x="780" 
d="M393 657q-98 0 -162.5 62.5t-64.5 152.5q0 87 69.5 150t157.5 63q90 0 160 -63t70 -150q0 -90 -65.5 -152.5t-164.5 -62.5zM393 0q-98 0 -162.5 62.5t-64.5 152.5q0 87 69.5 150t157.5 63q90 0 160 -63t70 -150q0 -90 -65.5 -152.5t-164.5 -62.5z" />
    <glyph glyph-name="semicolon" unicode=";" horiz-adv-x="653" 
d="M328 596q-99 0 -163.5 62.5t-64.5 152.5q0 87 70 150t158 63q90 0 159.5 -62.5t69.5 -150.5q0 -90 -65 -152.5t-164 -62.5zM158 -227q-19 0 -29 11t-8 30l41 477q3 37 41 37h262q44 0 35 -43l-123 -480q-8 -32 -43 -32h-176z" />
    <glyph glyph-name="less" unicode="&#x3c;" horiz-adv-x="974" 
d="M930 74q0 -22 -12.5 -31t-32.5 0l-809 348q-31 12 -31 45v262q0 33 31 45l809 347q20 9 32.5 1t12.5 -30v-283q0 -33 -31 -45l-430 -155q-11 -3 -11 -10.5t11 -10.5l430 -156q31 -12 31 -45v-282z" />
    <glyph glyph-name="equal" unicode="=" horiz-adv-x="974" 
d="M84 604q-39 0 -39 39v250q0 39 39 39h807q39 0 39 -39v-250q0 -39 -39 -39h-807zM84 233q-39 0 -39 39v250q0 39 39 39h807q39 0 39 -39v-250q0 -39 -39 -39h-807z" />
    <glyph glyph-name="greater" unicode="&#x3e;" horiz-adv-x="974" 
d="M90 43q-20 -9 -32.5 0t-12.5 31v282q0 33 31 45l430 156q10 3 10 10.5t-10 10.5l-430 155q-31 12 -31 45v283q0 22 12.5 31t32.5 0l809 -349q31 -12 31 -45v-262q0 -33 -31 -45z" />
    <glyph glyph-name="question" unicode="?" horiz-adv-x="1150" 
d="M387 483q-39 0 -39 29v29q0 70 27.5 127.5t68.5 93t89.5 68.5t89.5 57t68.5 56.5t27.5 68.5q0 42 -38 67t-101 25q-70 0 -112 -30t-42 -75q0 -39 -39 -36l-307 14q-39 3 -39 12v10q0 203 152.5 329t396.5 126q235 0 376.5 -116.5t141.5 -307.5q0 -69 -21 -125.5t-54 -94
t-73 -68.5t-80.5 -56t-73.5 -49t-54 -54.5t-21 -66.5q0 -33 -39 -33h-305zM555 -10q-87 0 -148 57t-61 137q0 83 62 141t149 58q84 0 146.5 -58t62.5 -139t-62 -138.5t-149 -57.5z" />
    <glyph glyph-name="at" unicode="@" horiz-adv-x="1669" 
d="M950 1409q222 0 383 -94.5t236 -266t49 -393.5q-24 -209 -126 -326.5t-286 -117.5q-145 0 -225 74q-13 9 -25 0q-82 -74 -233 -74q-102 0 -169 57t-87 148q-17 78 -2 174q11 79 43 166q39 108 117.5 162.5t171.5 54.5q89 0 139 -53q16 -16 20 -2l2 18q6 37 41 37h175
q41 0 34 -41l-47 -338q-4 -39 -1.5 -72.5t21.5 -55.5t52 -22q51 0 78.5 49t40.5 144q35 267 -80 403t-336 136q-246 0 -415 -160t-208 -414q-19 -130 4.5 -233.5t83 -171t149 -103t202.5 -35.5q88 0 166.5 21t128.5 51q33 20 55 -8l90 -107q26 -29 -6 -55
q-88 -62 -213 -100.5t-258 -38.5q-115 0 -222.5 33.5t-196 101t-150.5 160.5t-87 221t-4 274q34 231 157.5 412.5t316 283t421.5 101.5zM788 422q47 0 80 55q30 51 35 115q5 71 -4 113q-12 51 -70 51q-55 0 -84 -54q-18 -32 -34 -122q-12 -69 2 -103q19 -55 75 -55z" />
    <glyph glyph-name="A" unicode="A" horiz-adv-x="1462" 
d="M1047 0q-34 0 -43 33l-41 147q-4 15 -19 15h-426q-14 0 -18 -15l-41 -147q-9 -33 -43 -33h-332q-21 0 -30 12t-3 33l426 1356q10 33 43 33h422q33 0 43 -33l426 -1356q6 -21 -3 -33t-30 -12h-331zM590 508q-2 -8 2.5 -13.5t11.5 -5.5h254q7 0 11.5 5.5t2.5 13.5l-131 473
q-2 7 -6 9.5t-8 0t-6 -9.5z" />
    <glyph glyph-name="B" unicode="B" horiz-adv-x="1259" 
d="M1022 750q-9 -4 -9 -10t9 -11q170 -102 170 -319q0 -108 -41.5 -189t-115 -128t-167 -70t-206.5 -23h-543q-39 0 -39 39v1356q0 39 39 39h524q262 0 394 -93.5t132 -312.5q0 -191 -147 -278zM481 1104q-16 0 -16 -17v-192q0 -16 16 -16h162q150 0 150 112q0 113 -150 113
h-162zM662 330q145 0 145 121q0 114 -143 114h-183q-16 0 -16 -16v-203q0 -16 16 -16h181z" />
    <glyph glyph-name="C" unicode="C" horiz-adv-x="1247" 
d="M627 -16q-255 0 -410.5 145t-155.5 383v414q0 236 155.5 380t410.5 144t410 -135.5t155 -358.5q0 -19 -37 -22l-307 -21q-18 -1 -29.5 2.5t-11.5 8.5v12q0 83 -49 133.5t-131 50.5t-131.5 -50.5t-49.5 -133.5v-440q0 -82 49.5 -132.5t131.5 -50.5q81 0 130.5 50.5
t49.5 132.5q0 11 11.5 17t29.5 5l307 -16q37 -3 37 -10v-11q0 -224 -155 -360.5t-410 -136.5z" />
    <glyph glyph-name="D" unicode="D" horiz-adv-x="1265" 
d="M119 0q-39 0 -39 39v1356q0 39 39 39h518q252 0 406.5 -127t154.5 -334v-512q0 -207 -154.5 -334t-406.5 -127h-518zM465 346q0 -16 16 -16h170q69 0 114 53.5t48 142.5v381q0 89 -45 143t-119 54h-168q-16 0 -16 -17v-741z" />
    <glyph glyph-name="E" unicode="E" horiz-adv-x="1167" 
d="M1118 1143q0 -39 -39 -39h-598q-16 0 -16 -17v-180q0 -16 16 -16h365q39 0 39 -39v-250q0 -39 -39 -39h-365q-16 0 -16 -16v-201q0 -16 16 -16h598q39 0 39 -39v-252q0 -39 -39 -39h-960q-39 0 -39 39v1356q0 39 39 39h960q39 0 39 -39v-252z" />
    <glyph glyph-name="F" unicode="F" horiz-adv-x="1134" 
d="M1116 1143q0 -39 -39 -39h-596q-16 0 -16 -17v-180q0 -16 16 -16h365q39 0 39 -39v-250q0 -39 -39 -39h-365q-16 0 -16 -16v-508q0 -39 -39 -39h-307q-39 0 -39 39v1356q0 39 39 39h958q39 0 39 -39v-252z" />
    <glyph glyph-name="G" unicode="G" horiz-adv-x="1245" 
d="M627 -16q-255 0 -410.5 148.5t-155.5 391.5v387q0 243 155.5 391t410.5 148q124 0 230 -38t178.5 -103.5t113.5 -153.5t41 -186q0 -33 -39 -33h-305q-39 0 -39 10v8q0 69 -48 117.5t-132 48.5q-82 0 -131.5 -54.5t-49.5 -143.5v-410q0 -88 57 -143.5t140 -55.5
q76 0 124 42t48 116v21q0 16 -16 16h-166q-39 0 -39 39v229q0 39 39 39h518q39 0 39 -39v-272q0 -231 -155 -375.5t-408 -144.5z" />
    <glyph glyph-name="H" unicode="H" horiz-adv-x="1251" 
d="M805 1395q0 39 39 39h307q39 0 39 -39v-1356q0 -39 -39 -39h-307q-39 0 -39 39v506q0 16 -17 16h-307q-16 0 -16 -16v-506q0 -39 -39 -39h-307q-39 0 -39 39v1356q0 39 39 39h307q39 0 39 -39v-488q0 -16 16 -16h307q17 0 17 16v488z" />
    <glyph glyph-name="I" unicode="I" horiz-adv-x="544" 
d="M119 0q-39 0 -39 39v1356q0 39 39 39h307q39 0 39 -39v-1356q0 -39 -39 -39h-307z" />
    <glyph glyph-name="J" unicode="J" horiz-adv-x="1222" 
d="M582 -16q-251 0 -404 135t-153 356v60q0 38 38 38h308q39 0 39 -38v-58q0 -73 47.5 -118.5t124.5 -45.5q80 0 129 45.5t49 118.5v918q0 39 39 39h305q39 0 39 -39v-920q0 -221 -154.5 -356t-406.5 -135z" />
    <glyph glyph-name="K" unicode="K" horiz-adv-x="1302" 
d="M119 0q-39 0 -39 39v1356q0 39 39 39h307q39 0 39 -39v-469q0 -11 7 -13t13 7l346 489q17 25 48 25h348q23 0 29.5 -14t-7.5 -34l-413 -577q-8 -12 -2 -23l434 -739q11 -20 3.5 -33.5t-30.5 -13.5h-346q-31 0 -45 27l-277 491q-5 9 -11 8.5t-11 -8.5l-80 -121
q-6 -12 -6 -20v-338q0 -39 -39 -39h-307z" />
    <glyph glyph-name="L" unicode="L" horiz-adv-x="1175" 
d="M119 0q-39 0 -39 39v1356q0 39 39 39h307q39 0 39 -39v-1049q0 -16 16 -16h619q39 0 39 -39v-252q0 -39 -39 -39h-981z" />
    <glyph glyph-name="M" unicode="M" horiz-adv-x="1462" 
d="M119 0q-39 0 -39 39v1356q0 39 39 39h305q32 0 47 -27l248 -403q5 -9 12 -9t12 9l248 403q15 27 47 27h305q39 0 39 -39v-1356q0 -39 -39 -39h-307q-39 0 -39 39v723q0 12 -7 13.5t-13 -7.5l-127 -211q-15 -27 -47 -27h-144q-32 0 -47 27l-127 211q-6 9 -13 7.5t-7 -13.5
v-723q0 -39 -39 -39h-307z" />
    <glyph glyph-name="N" unicode="N" horiz-adv-x="1347" 
d="M119 0q-39 0 -39 39v1356q0 39 39 39h295q32 0 47 -27l403 -678q6 -9 13.5 -7.5t7.5 13.5l-2 660q0 39 39 39h307q39 0 39 -39v-1356q0 -39 -39 -39h-295q-32 0 -47 27l-406 690q-6 11 -13 9.5t-7 -13.5l4 -674q0 -39 -39 -39h-307z" />
    <glyph glyph-name="O" unicode="O" horiz-adv-x="1271" 
d="M635 -25q-258 0 -416 151t-158 398v385q0 243 158 392t416 149q259 0 417 -149t158 -392v-385q0 -248 -158 -398.5t-417 -150.5zM635 305q86 0 138 56.5t52 150.5v401q0 94 -52 150.5t-138 56.5q-85 0 -137 -56.5t-52 -150.5v-401q0 -94 52 -150.5t137 -56.5z" />
    <glyph glyph-name="P" unicode="P" horiz-adv-x="1228" 
d="M705 1434q220 0 353.5 -129.5t133.5 -341.5q0 -207 -139.5 -334t-366.5 -127h-211q-16 0 -16 -17v-446q0 -39 -39 -39h-307q-39 0 -39 39v1356q0 39 39 39h592zM641 809q75 0 121.5 39.5t46.5 105.5q0 67 -46.5 108.5t-121.5 41.5h-166q-16 0 -16 -17v-262q0 -16 16 -16
h166z" />
    <glyph glyph-name="Q" unicode="Q" horiz-adv-x="1239" 
d="M618 1450q252 0 406 -151t154 -398v-399q0 -180 -93.5 -308.5t-257.5 -179.5q-14 -3 -14 -18v-135q0 -39 -39 -39h-307q-39 0 -39 39v133q0 15 -14 18q-165 53 -259 181t-94 309v399q0 247 153 398t404 151zM446 922v-410q0 -89 47.5 -144t124.5 -55q78 0 126.5 55
t48.5 144v410q0 89 -48.5 143.5t-126.5 54.5q-77 0 -124.5 -54.5t-47.5 -143.5z" />
    <glyph glyph-name="R" unicode="R" horiz-adv-x="1259" 
d="M842 0q-33 0 -45 29l-222 510q-5 12 -20 12h-74q-16 0 -16 -16v-496q0 -39 -39 -39h-307q-39 0 -39 39v1356q0 39 39 39h612q211 0 339 -125.5t128 -331.5q0 -134 -64.5 -233.5t-179.5 -149.5q-15 -6 -8 -21l250 -528q9 -22 1 -33.5t-30 -11.5h-325zM481 1104
q-16 0 -16 -17v-227q0 -16 16 -16h187q66 0 106.5 35.5t40.5 93.5q0 59 -40.5 95t-106.5 36h-187z" />
    <glyph glyph-name="S" unicode="S" horiz-adv-x="1222" 
d="M612 -16q-253 0 -406 124.5t-153 333.5v21q0 39 39 39h301q39 0 39 -21v-22q0 -56 59 -101t150 -45q77 0 109 32t32 71q0 16 -5 29.5t-19 24.5t-26 19t-39.5 17.5t-44.5 14.5t-56 16.5t-60 17.5q-48 14 -87 28t-90 37t-91 47.5t-80.5 61t-67.5 77t-44 95t-17 115.5
q0 195 151.5 314.5t383.5 119.5q160 0 289.5 -58.5t204.5 -167.5t75 -249v-10q0 -39 -39 -39h-301q-39 0 -39 16v16q0 61 -56 111.5t-149 50.5q-66 0 -103.5 -27t-37.5 -73q0 -52 58 -84.5t231 -87.5q131 -42 156 -52q232 -92 277 -272q11 -46 11 -98q0 -200 -153 -321
t-402 -121z" />
    <glyph glyph-name="T" unicode="T" horiz-adv-x="1218" 
d="M1143 1434q39 0 39 -39v-254q0 -39 -39 -39h-330q-16 0 -16 -17v-1046q0 -39 -39 -39h-307q-39 0 -39 39v1046q0 17 -17 17h-319q-39 0 -39 39v254q0 39 39 39h1067z" />
    <glyph glyph-name="U" unicode="U" horiz-adv-x="1263" 
d="M633 -16q-252 0 -406.5 141t-154.5 373v897q0 39 39 39h307q39 0 39 -39v-897q0 -83 48.5 -134t127.5 -51q78 0 126 51t48 134v897q0 39 39 39h307q39 0 39 -39v-897q0 -232 -153.5 -373t-405.5 -141z" />
    <glyph glyph-name="V" unicode="V" horiz-adv-x="1320" 
d="M494 0q-35 0 -45 33l-400 1358q-12 43 33 43h334q35 0 43 -35l198 -840q2 -7 6.5 -9.5t8.5 0t6 9.5l192 840q6 35 43 35h326q45 0 33 -43l-404 -1358q-10 -33 -45 -33h-329z" />
    <glyph glyph-name="W" unicode="W" horiz-adv-x="1755" 
d="M414 0q-35 0 -45 33l-402 1358q-12 43 33 43h332q34 0 43 -33l168 -647q2 -7 6 -9.5t8 0t6 9.5l156 645q9 35 43 35h239q34 0 43 -33l164 -647q2 -7 6 -9.5t8.5 0t6.5 9.5l151 645q8 35 43 35h332q20 0 29 -11.5t4 -31.5l-358 -1358q-9 -33 -44 -33h-313q-37 0 -43 35
l-141 678q-2 7 -6 10t-8 0.5t-5 -10.5l-125 -678q-6 -35 -40 -35h-291z" />
    <glyph glyph-name="X" unicode="X" horiz-adv-x="1349" 
d="M90 0q-23 0 -30.5 12.5t3.5 34.5l365 660q7 10 0 20l-365 659q-11 22 -3.5 35t30.5 13h336q30 0 45 -29l195 -373q10 -20 20 0l195 373q15 29 45 29h334q23 0 30 -13t-4 -35l-362 -659q-7 -10 0 -20l362 -660q11 -22 4 -34.5t-30 -12.5h-332q-30 0 -45 29l-197 372
q-10 17 -20 0l-197 -372q-15 -29 -45 -29h-334z" />
    <glyph glyph-name="Y" unicode="Y" horiz-adv-x="1333" 
d="M512 4q-39 0 -39 39v440q0 9 -4 21l-412 885q-9 21 0 33t31 12h334q34 0 45 -31l188 -473q5 -9 11 -9t10 9l188 473q11 31 45 31h336q22 0 31 -12t0 -33l-416 -885q-4 -12 -4 -21v-440q0 -39 -39 -39h-305z" />
    <glyph glyph-name="Z" unicode="Z" horiz-adv-x="1150" 
d="M88 0q-39 0 -39 39v283q0 24 17 47l587 714q6 7 2.5 14t-12.5 7h-555q-39 0 -39 39v252q0 39 39 39h969q39 0 39 -39v-283q0 -24 -17 -47l-592 -715q-6 -8 -2 -14t13 -6h559q39 0 39 -39v-252q0 -39 -39 -39h-969z" />
    <glyph glyph-name="bracketleft" unicode="[" horiz-adv-x="903" 
d="M113 -336q-39 0 -39 39v1933q0 39 39 39h526q39 0 39 -39v-252q0 -38 -39 -38h-164q-16 0 -16 -17v-1319q0 -16 16 -16h164q39 0 39 -39v-252q0 -39 -39 -39h-526z" />
    <glyph glyph-name="backslash" unicode="\" horiz-adv-x="1030" 
d="M987 45q8 -20 -0.5 -32.5t-30.5 -12.5h-303q-33 0 -45 31l-565 1358q-8 20 0.5 32.5t30.5 12.5h301q33 0 45 -31z" />
    <glyph glyph-name="bracketright" unicode="]" horiz-adv-x="903" 
d="M829 -297q0 -39 -38 -39h-527q-39 0 -39 39v252q0 39 39 39h164q16 0 16 16v1319q0 17 -16 17h-164q-39 0 -39 38v252q0 39 39 39h527q38 0 38 -39v-1933z" />
    <glyph glyph-name="asciicircum" unicode="^" horiz-adv-x="999" 
d="M92 596q-44 0 -31 45l267 762q11 31 43 31h252q32 0 43 -31l272 -762q7 -22 -1 -33.5t-30 -11.5h-243q-36 0 -46 33l-108 387q-2 7 -6 9.5t-8.5 0t-6.5 -9.5l-108 -387q-10 -33 -45 -33h-244z" />
    <glyph glyph-name="underscore" unicode="_" horiz-adv-x="1124" 
d="M63 0q-38 0 -38 39v209q0 39 38 39h998q39 0 39 -39v-209q0 -39 -39 -39h-998z" />
    <glyph glyph-name="grave" unicode="`" horiz-adv-x="561" 
d="M512 1217q10 -22 2 -35t-31 -13h-243q-28 0 -47 25l-134 176q-14 19 -6.5 33t31.5 14h291q31 0 45 -28z" />
    <glyph glyph-name="a" unicode="a" horiz-adv-x="1105" 
d="M530 1081q213 0 360.5 -103t147.5 -251v-688q0 -39 -39 -39h-307q-39 0 -39 39v37q0 11 -5.5 13t-12.5 -7q-68 -98 -250 -98q-168 0 -264 76.5t-96 224.5q0 155 109 239t319 84h184q16 0 16 17v30q0 43 -31.5 70t-84.5 27q-77 0 -103 -41q-9 -12 -13 -16.5t-12.5 -8
t-19.5 -2.5l-315 41q-38 3 -35 31q14 140 151.5 232.5t339.5 92.5zM504 250q66 0 107.5 34.5t41.5 94.5v20q0 17 -16 17h-96q-129 0 -129 -84q0 -36 23.5 -59t68.5 -23z" />
    <glyph glyph-name="b" unicode="b" horiz-adv-x="1161" 
d="M1096 799q45 -115 45 -262q0 -128 -31 -230q-45 -149 -154.5 -236t-246.5 -87q-153 0 -232 102q-4 6 -8 7.5t-7 -1.5t-3 -10v-43q0 -39 -39 -39h-307q-39 0 -39 39v1356q0 39 39 39h307q39 0 39 -39v-391q0 -11 5.5 -13.5t12.5 4.5q70 86 215 86t250 -79t154 -203z
M707 381q30 59 30 149q0 96 -30 154q-36 68 -109 68q-68 0 -106 -64q-33 -59 -33 -158q0 -88 30 -147q37 -70 109 -70q71 0 109 68z" />
    <glyph glyph-name="c" unicode="c" horiz-adv-x="1124" 
d="M578 -16q-173 0 -303 85t-189 236q-41 105 -41 234t41 231q57 146 188.5 228.5t303.5 82.5q175 0 308.5 -86.5t180.5 -218.5q15 -44 18 -69q3 -37 -34 -43l-301 -48q-40 -6 -43 25q-1 6 -4.5 16t-4.5 13q-11 35 -45 58.5t-78 23.5q-81 0 -116 -74q-25 -55 -25 -141
q0 -81 23 -142q36 -82 118 -82q85 0 119 84l4 13q2 10 15.5 22.5t29.5 9.5l304 -49q38 -7 32 -43q-4 -30 -12 -55q-53 -149 -185 -230t-304 -81z" />
    <glyph glyph-name="d" unicode="d" horiz-adv-x="1161" 
d="M702 1395q0 39 39 39h308q38 0 38 -39v-1356q0 -39 -38 -39h-308q-39 0 -39 39v43q0 10 -6 11.5t-12 -7.5q-79 -102 -231 -102q-137 0 -247 87t-155 236q-31 102 -31 230q0 145 46 262q49 125 153.5 203.5t249.5 78.5t215 -86q8 -7 13 -4.5t5 13.5v391zM672 383
q30 58 30 147q0 101 -32 158q-38 64 -107 64q-72 0 -108 -68q-31 -60 -31 -154q0 -89 31 -149q38 -68 108 -68q72 0 109 70z" />
    <glyph glyph-name="e" unicode="e" horiz-adv-x="1138" 
d="M647 309q121 7 184 58q32 26 54 -5l139 -192q20 -29 -4 -53q-144 -133 -406 -133q-153 0 -271 54.5t-191 154.5q-103 144 -103 348q0 85 23 172q46 165 184.5 266.5t321.5 101.5q210 0 341.5 -136.5t172.5 -371.5q9 -50 12 -98q0 -39 -39 -39h-608q-18 0 -15 -18
q10 -25 11 -27q42 -89 194 -82zM569 752q-84 0 -116 -82q-4 -8 -7 -17q-3 -8 2 -13t13 -5h221q20 0 14 18q-1 3 -3 8.5t-3 8.5q-33 82 -121 82z" />
    <glyph glyph-name="f" unicode="f" horiz-adv-x="833" 
d="M754 1065q39 0 39 -39v-229q0 -39 -39 -39h-166q-17 0 -17 -17v-702q0 -39 -39 -39h-307q-39 0 -39 39v702q0 17 -16 17h-90q-39 0 -39 39v229q0 39 39 39h90q16 0 16 16v58q0 172 106 239.5t355 55.5h78q39 0 39 -39v-178q0 -39 -39 -39h-78q-41 -4 -58.5 -21.5
t-17.5 -52.5v-23q0 -16 17 -16h166z" />
    <glyph glyph-name="g" unicode="g" horiz-adv-x="1165" 
d="M713 1026q0 39 39 39h307q39 0 39 -39v-887q0 -109 -27 -197t-73 -146.5t-110 -100t-134.5 -62.5t-151.5 -29t-155.5 -4t-151.5 17q-36 6 -33 43l12 260q3 43 45 31q69 -16 131 -18t116 10t91 46t50 87q3 10 -7.5 15t-19.5 -1q-69 -53 -184 -53q-327 0 -418 266
q-35 101 -35 240q0 151 43 258q50 128 155 204t242 76t211 -77q8 -8 13.5 -6t5.5 12v16zM692 403q21 55 21 142q0 80 -23 133q-36 74 -117 74q-69 0 -108 -72q-33 -56 -33 -141q0 -81 27 -133q39 -72 119 -72q82 0 114 69z" />
    <glyph glyph-name="h" unicode="h" 
d="M707 1081q157 0 259.5 -102.5t102.5 -280.5v-659q0 -39 -39 -39h-307q-39 0 -39 39v575q0 61 -32 99.5t-83 38.5q-52 0 -84 -38t-32 -100v-575q0 -39 -39 -39h-308q-38 0 -38 39v1356q0 39 38 39h308q39 0 39 -39v-422q0 -11 5 -14t11 6q76 116 238 116z" />
    <glyph glyph-name="i" unicode="i" horiz-adv-x="552" 
d="M276 1108q-99 0 -160 59.5t-61 155.5t61 155.5t160 59.5q100 0 161 -59t61 -156t-61 -156t-161 -59zM123 0q-39 0 -39 39v987q0 39 39 39h307q39 0 39 -39v-987q0 -39 -39 -39h-307z" />
    <glyph glyph-name="j" unicode="j" horiz-adv-x="540" 
d="M281 1098q-98 0 -160 62t-62 153q0 88 67 151.5t155 63.5q86 0 153.5 -63.5t67.5 -151.5q0 -90 -62.5 -152.5t-158.5 -62.5zM-117 -414q-39 3 -39 41v242q0 39 43 39q119 -7 160 23t41 122v973q0 39 39 39h307q39 0 39 -39v-967q0 -99 -10.5 -169t-38 -125.5t-69.5 -89
t-110 -55t-154.5 -29t-207.5 -5.5z" />
    <glyph glyph-name="k" unicode="k" horiz-adv-x="1136" 
d="M106 0q-38 0 -38 39v1356q0 39 38 39h308q39 0 39 -39v-568q0 -11 7 -13t13 7l162 219q19 25 47 25h350q25 0 32 -13.5t-7 -33.5l-252 -342q-8 -12 -2 -23l295 -608q9 -20 1 -32.5t-30 -12.5h-321q-34 0 -46 31l-159 379q-3 9 -10.5 10t-12.5 -8l-61 -103q-6 -12 -6 -20
v-250q0 -39 -39 -39h-308z" />
    <glyph glyph-name="l" unicode="l" horiz-adv-x="532" 
d="M113 0q-39 0 -39 39v1356q0 39 39 39h307q39 0 39 -39v-1356q0 -39 -39 -39h-307z" />
    <glyph glyph-name="m" unicode="m" horiz-adv-x="1730" 
d="M1327 1081q162 0 252 -100.5t90 -282.5v-659q0 -39 -39 -39h-307q-39 0 -39 39v575q0 62 -29.5 100t-76.5 38q-49 0 -80 -38t-31 -100v-575q0 -39 -39 -39h-307q-39 0 -39 39v575q0 61 -32 99.5t-83 38.5q-42 0 -72.5 -27t-39.5 -72q-2 -8 -2 -20v-594q0 -39 -39 -39
h-308q-38 0 -38 39v987q0 39 38 39h308q39 0 39 -39v-80q0 -12 6 -13.5t12 9.5q77 139 256 139q103 0 180.5 -46t118.5 -132q3 -6 6.5 -8t7.5 0.5t7 9.5q79 176 280 176z" />
    <glyph glyph-name="n" unicode="n" 
d="M707 1081q157 0 259.5 -102.5t102.5 -280.5v-659q0 -39 -39 -39h-307q-39 0 -39 39v575q0 61 -32 99.5t-83 38.5q-52 0 -84 -38t-32 -100v-575q0 -39 -39 -39h-308q-38 0 -38 39v987q0 39 38 39h308q39 0 39 -39v-53q0 -11 5 -14t11 6q76 116 238 116z" />
    <glyph glyph-name="o" unicode="o" horiz-adv-x="1142" 
d="M571 -16q-194 0 -328 105t-177 282q-21 77 -21 164q0 96 25 182q48 169 180.5 266.5t322.5 97.5t321 -97t179 -263q25 -89 25 -182q0 -73 -17 -156q-42 -184 -176.5 -291.5t-333.5 -107.5zM571 313q103 0 131 131q9 44 9 93q0 41 -11 94q-29 121 -129 121
q-102 0 -129 -121q-10 -36 -10 -94q0 -54 8 -93q30 -131 131 -131z" />
    <glyph glyph-name="p" unicode="p" horiz-adv-x="1161" 
d="M1110 758q31 -102 31 -230q0 -147 -45 -262q-49 -124 -154 -203t-250 -79t-215 86q-7 7 -12.5 4.5t-5.5 -13.5v-391q0 -39 -39 -39h-307q-39 0 -39 39v1356q0 39 39 39h307q39 0 39 -39v-43q0 -10 6 -11.5t12 7.5q79 102 232 102q137 0 246.5 -87t154.5 -236zM707 381
q30 59 30 154q0 91 -30 149q-38 68 -109 68q-72 0 -109 -70q-30 -58 -30 -147q0 -99 33 -158q38 -64 106 -64q73 0 109 68z" />
    <glyph glyph-name="q" unicode="q" horiz-adv-x="1161" 
d="M702 1026q0 39 39 39h308q38 0 38 -39v-1356q0 -39 -38 -39h-308q-39 0 -39 39v391q0 11 -5 13.5t-13 -4.5q-70 -86 -215 -86t-249.5 78.5t-153.5 203.5q-46 117 -46 262q0 128 31 230q45 149 155 236t247 87q152 0 231 -102q4 -6 8 -7.5t7 1.5t3 10v43zM670 377
q32 57 32 158q0 89 -30 147q-37 70 -109 70q-70 0 -108 -68q-31 -60 -31 -149q0 -94 31 -154q36 -68 108 -68q69 0 107 64z" />
    <glyph glyph-name="r" unicode="r" horiz-adv-x="811" 
d="M666 1079q62 0 104 -22q27 -15 21 -49l-50 -301q-6 -36 -45 -27q-54 11 -114 0q-53 -11 -91 -44.5t-38 -90.5v-506q0 -39 -39 -39h-308q-38 0 -38 39v987q0 39 38 39h308q39 0 39 -39v-29q0 -11 5 -14t11 4q76 92 197 92z" />
    <glyph glyph-name="s" unicode="s" horiz-adv-x="1060" 
d="M545 -16q-231 0 -365.5 89.5t-134.5 239.5v11q0 38 39 38h291q39 0 39 -10v-12q0 -34 36 -54t93 -20q45 0 72.5 13.5t27.5 37.5q0 22 -24 35.5t-67 21t-92 14.5t-111.5 23t-112.5 40q-177 87 -177 270q0 166 129 263t340 97q217 0 347.5 -101.5t130.5 -268.5
q0 -23 -39 -23h-281q-39 0 -39 12v11q0 34 -30 53.5t-82 19.5q-46 0 -76.5 -15t-30.5 -42q0 -34 51 -48.5t153.5 -29t170.5 -37.5q111 -39 169 -107.5t58 -178.5q0 -167 -131.5 -254.5t-353.5 -87.5z" />
    <glyph glyph-name="t" unicode="t" horiz-adv-x="800" 
d="M764 797q0 -39 -39 -39h-156q-16 0 -16 -17v-303q0 -102 74 -102h67q39 0 39 -39v-248q0 -36 -37 -39q-80 -6 -147 -6q-91 0 -154 11.5t-112.5 41t-73.5 84.5t-25 138v462q0 17 -16 17h-96q-39 0 -39 39v229q0 39 39 39h96q16 0 16 16v232q0 39 39 39h291q39 0 39 -39
v-232q0 -16 16 -16h156q39 0 39 -39v-229z" />
    <glyph glyph-name="u" unicode="u" 
d="M678 1026q0 39 39 39h307q39 0 39 -39v-987q0 -39 -39 -39h-307q-39 0 -39 39v49q0 11 -6.5 13t-12.5 -7q-82 -110 -256 -110q-156 0 -248 101t-92 282v659q0 39 39 39h308q39 0 39 -39v-575q0 -62 31.5 -100t82.5 -38q42 0 73 27t40 72q2 8 2 20v594z" />
    <glyph glyph-name="v" unicode="v" horiz-adv-x="1126" 
d="M391 0q-35 0 -45 33l-307 987q-6 21 3 33t30 12h336q37 0 43 -35l102 -483q2 -7 6 -9.5t8 0t6 9.5l103 483q6 35 43 35l338 -4q42 0 30 -43l-305 -985q-10 -33 -45 -33h-346z" />
    <glyph glyph-name="w" unicode="w" horiz-adv-x="1689" 
d="M373 0q-35 0 -45 33l-291 989q-12 43 33 43h317q35 0 41 -35l96 -471q2 -7 6 -9.5t8.5 0t6.5 9.5l104 469q6 35 43 35h279q35 0 43 -35l112 -473q2 -7 6 -9.5t8.5 0t6.5 9.5l113 475q8 35 43 35l317 -4q45 0 33 -43l-297 -985q-10 -33 -45 -33h-320q-33 0 -43 33
l-108 385q-2 7 -6 9t-7.5 -1t-5.5 -10l-86 -381q-6 -35 -43 -35h-319z" />
    <glyph glyph-name="x" unicode="x" horiz-adv-x="1183" 
d="M74 0q-23 0 -30 13.5t5 33.5l309 473q6 12 0 25l-309 473q-12 20 -5 33.5t30 13.5h327q33 0 48 -27l118 -194q5 -9 13 -9t12 9l119 194q15 27 47 27h352q23 0 30 -13.5t-5 -33.5l-310 -473q-6 -13 0 -25l310 -473q12 -20 5 -33.5t-30 -13.5h-328q-32 0 -47 27l-119 194
q-4 9 -12 9t-12 -9l-119 -194q-15 -27 -47 -27h-352z" />
    <glyph glyph-name="y" unicode="y" horiz-adv-x="1093" 
d="M90 -408q-14 0 -14 39v238q0 39 12 39h10q133 0 190 15.5t64 66.5q2 8 -2 20l-317 1010q-6 21 3 33t30 12h327q37 0 43 -35l103 -469q3 -10 10 -9.5t10 11.5l96 467q6 35 43 35h330q21 0 30 -12t3 -33l-332 -1024q-26 -78 -49 -129t-57.5 -101t-76.5 -79t-104.5 -52.5
t-145 -33t-192.5 -9.5h-14z" />
    <glyph glyph-name="z" unicode="z" horiz-adv-x="962" 
d="M76 0q-39 0 -39 39v280q0 28 20 48l367 329q8 8 5 14.5t-13 6.5h-326q-39 0 -39 39v270q0 39 39 39h774q39 0 39 -39v-281q0 -28 -22 -47l-383 -329q-8 -7 -5 -14t13 -7h375q39 0 39 -39v-270q0 -39 -39 -39h-805z" />
    <glyph glyph-name="braceleft" unicode="{" horiz-adv-x="870" 
d="M545 -336q-149 0 -228 69t-79 197v410q0 85 -30.5 129t-96.5 53q-37 3 -37 39v225q0 36 37 39q66 9 96.5 53t30.5 128v403q0 128 79 197t228 69h213q39 0 39 -39v-252q0 -38 -33 -38h-35q-45 0 -75.5 -33t-30.5 -82v-285q0 -103 -30.5 -166.5t-96.5 -95.5q-20 -10 0 -20
q127 -62 127 -265v-290q0 -49 30.5 -82t75.5 -33h29q39 0 39 -39v-252q0 -39 -39 -39h-213z" />
    <glyph glyph-name="bar" unicode="|" horiz-adv-x="466" 
d="M80 -164q-39 0 -39 39v1643q0 38 39 38h307q39 0 39 -38v-1643q0 -39 -39 -39h-307z" />
    <glyph glyph-name="braceright" unicode="}" horiz-adv-x="870" 
d="M326 -336h-213q-39 0 -39 39v252q0 18 10 28.5t25 10.5h32q45 0 76 33t31 82v290q0 203 127 265q9 4 9 9.5t-9 8.5q-66 34 -96.5 97.5t-30.5 166.5v285q0 49 -31 82t-76 33h-28q-39 0 -39 38v252q0 39 39 39h213q149 0 228 -69t79 -197v-403q0 -84 30.5 -128t96.5 -53
q37 -3 37 -39v-225q0 -36 -37 -39q-66 -9 -96.5 -53t-30.5 -129v-410q0 -128 -79 -197t-228 -69z" />
    <glyph glyph-name="asciitilde" unicode="~" horiz-adv-x="1140" 
d="M745 369q-80 0 -161 47l-13 8q-13 7 -15.5 8.5t-15.5 8.5t-18 9.5l-17 8.5t-19 8t-18.5 6t-20 5.5t-19 3t-20.5 1.5q-67 0 -113 -59q-25 -29 -55 -8l-166 114q-30 21 -19 52q38 101 134 166t204 65q81 0 170 -51q6 -3 31 -17.5t33.5 -19t27 -13t32.5 -11.5t28 -3
q55 0 102 58q23 33 53 12l197 -125q30 -20 16 -53q-41 -98 -137 -159.5t-201 -61.5z" />
    <glyph glyph-name="uni00A0" unicode="&#xa0;" horiz-adv-x="409" 
 />
    <glyph glyph-name="exclamdown" unicode="&#xa1;" horiz-adv-x="741" 
d="M367 1450q99 0 164 -62.5t65 -152.5q0 -88 -69.5 -150.5t-159.5 -62.5q-88 0 -158 63t-70 150q0 90 64.5 152.5t163.5 62.5zM215 903q0 39 41 39h227q38 0 41 -39l37 -848q3 -39 -37 -39h-307q-40 0 -37 39z" />
    <glyph glyph-name="cent" unicode="&#xa2;" horiz-adv-x="1124" 
d="M575 936q-81 0 -116 -74q-25 -55 -25 -141q0 -80 23 -141q36 -82 118 -82q85 0 119 84l4 12q2 10 15.5 23t29.5 10l304 -49q38 -7 32 -43q-4 -32 -12 -56q-39 -114 -127 -188.5t-209 -104.5q-14 -3 -14 -18l8 -123q1 -19 -9.5 -30t-29.5 -11h-240q-19 0 -29 11t-9 30
l8 129q0 16 -15 19q-109 34 -190.5 110t-124.5 186q-41 105 -41 234t41 231q41 105 122.5 179t192.5 108q15 3 15 19l-8 129q-1 19 9 30t29 11h240q19 0 29.5 -11t9.5 -30l-8 -125q0 -16 14 -19q123 -32 211.5 -108t124.5 -176q15 -44 18 -70q3 -37 -34 -43l-301 -47
q-40 -6 -43 24q-1 6 -4.5 16t-4.5 13q-11 35 -45 58.5t-78 23.5z" />
    <glyph glyph-name="sterling" unicode="&#xa3;" horiz-adv-x="1263" 
d="M627 502q0 -92 -60 -152q-6 -9 -3 -14.5t14 -5.5h591q39 0 39 -39v-252q0 -39 -39 -39h-983q-39 0 -39 39v260q0 27 25 49q42 31 56 65t14 89v41q0 16 -17 16h-106q-39 0 -39 39v231q0 39 39 39h106q17 0 17 17v88q0 223 130 347.5t349 129.5q188 4 311 -88t182 -256
q13 -40 -28 -47l-285 -49q-32 -6 -47 28q-20 47 -47.5 64.5t-65.5 17.5q-114 0 -114 -139v-96q0 -17 16 -17h344q39 0 39 -39v-231q0 -39 -39 -39h-344q-16 0 -16 -16v-41z" />
    <glyph glyph-name="currency" unicode="&#xa4;" horiz-adv-x="1249" 
d="M1100 625q0 -101 -39 -193q-6 -12 4 -22l125 -125q29 -29 -2 -56l-187 -163q-28 -25 -55 2l-115 112q-10 10 -22 4q-92 -39 -191 -39q-97 0 -184 35q-12 6 -22 -4l-109 -108q-27 -27 -55 -2l-187 163q-31 27 -2 56l117 114q10 10 4 23q-45 95 -45 203q0 102 41 192
q6 13 -4 23l-125 123q-28 28 2 55l187 164q28 25 55 -2l110 -111q10 -10 23 -4q92 39 194 39q104 0 201 -43q13 -6 23 4l116 115q27 27 56 2l186 -164q30 -27 2 -55l-133 -134q-10 -10 -4 -22q35 -84 35 -182zM774 625q-1 64 -47.5 109.5t-108.5 45.5q-63 0 -109 -45.5
t-46 -109.5q0 -63 46 -109.5t109 -46.5t108.5 45.5t47.5 110.5z" />
    <glyph glyph-name="yen" unicode="&#xa5;" horiz-adv-x="1400" 
d="M1288 1434q22 0 31 -12t0 -33l-326 -693q-7 -18 13 -18h131q39 0 39 -39v-129q0 -39 -39 -39h-222q-16 0 -16 -16v-49q0 -17 16 -17h222q39 0 39 -39v-129q0 -39 -39 -39h-222q-16 0 -16 -16v-123q0 -39 -39 -39h-305q-39 0 -39 39v123q0 16 -16 16h-219q-39 0 -39 39
v129q0 39 39 39h219q16 0 16 17v49q0 16 -16 16h-219q-39 0 -39 39v129q0 39 39 39h129q19 0 12 18l-322 693q-9 21 0 33t31 12h334q34 0 45 -31l188 -473q4 -9 10 -9t11 9l188 473q11 31 45 31h336z" />
    <glyph glyph-name="brokenbar" unicode="&#xa6;" horiz-adv-x="466" 
d="M80 829q-39 0 -39 39v650q0 38 39 38h307q39 0 39 -38v-650q0 -39 -39 -39h-307zM80 -164q-39 0 -39 39v649q0 39 39 39h307q39 0 39 -39v-649q0 -39 -39 -39h-307z" />
    <glyph glyph-name="section" unicode="&#xa7;" horiz-adv-x="1071" 
d="M520 -426q-211 0 -330 95t-127 257l-4 84q-3 39 37 39h307q39 0 39 -29v-28q0 -40 26.5 -65t70.5 -25q39 0 64.5 19.5t25.5 51.5q0 36 -37.5 59t-151.5 69q-38 15 -59 24q-108 44 -169 82t-101 94q-58 80 -58 188q0 117 64 205q32 46 100 84q20 10 2 21
q-164 103 -164 278q0 157 137 265t345 108q203 0 336 -105.5t133 -273.5v-45q0 -39 -39 -39h-308q-38 0 -38 21v20q0 42 -26 67t-67 25q-37 0 -62.5 -18.5t-25.5 -54.5q0 -13 3 -24.5t11.5 -21.5t15.5 -18t22.5 -16t25 -13.5t30 -13t31 -11l34.5 -11.5t34 -11
q93 -31 159.5 -61.5t113.5 -75.5q96 -89 96 -235q0 -102 -60 -191q-53 -80 -112 -102q-18 -6 -2 -19q91 -60 131.5 -127.5t40.5 -156.5q0 -114 -67.5 -198.5t-178 -125.5t-248.5 -41zM535 434q51 0 77 29q19 19 19 51q0 24 -15 47q-26 33 -81 33t-80 -31q-17 -20 -17 -49
q0 -32 21 -53q27 -27 76 -27z" />
    <glyph glyph-name="dieresis" unicode="&#xa8;" horiz-adv-x="827" 
d="M203 1128q-78 0 -128 50t-50 129t50 128.5t128 49.5t126 -49t48 -129t-48 -129.5t-126 -49.5zM627 1128q-79 0 -127.5 49.5t-48.5 129.5t48.5 129t127.5 49t127.5 -49t48.5 -129t-48.5 -129.5t-127.5 -49.5z" />
    <glyph glyph-name="copyright" unicode="&#xa9;" horiz-adv-x="1601" 
d="M799 -16q-157 0 -294 56t-234.5 153.5t-153.5 236.5t-56 299q0 152 56 286t153.5 229.5t234.5 150.5t294 55q211 0 380.5 -94t265 -258.5t95.5 -368.5q0 -160 -56 -299t-153.5 -236.5t-235.5 -153.5t-296 -56zM799 188q231 0 381.5 152t150.5 389q0 222 -151 369
t-381 147q-228 0 -378.5 -147t-150.5 -369q0 -237 149.5 -389t379.5 -152zM805 362q-122 0 -196 68t-74 182v219q0 115 73.5 181.5t196.5 66.5q122 0 195 -62t73 -169q0 -9 -39 -12l-119 -5q-38 -3 -38 5v6q0 34 -19.5 53.5t-52.5 19.5t-52.5 -19.5t-19.5 -53.5v-242
q0 -32 20 -52t52 -20t52 20t20 52q0 15 38 12l119 -4q39 0 39 -8v-6q0 -106 -73 -169t-195 -63z" />
    <glyph glyph-name="ordfeminine" unicode="&#xaa;" horiz-adv-x="684" 
d="M305 1165h111q16 0 16 9v8q0 42 -30.5 68t-75.5 26q-66 0 -93 -39q-7 -12 -11.5 -17.5t-12.5 -10t-19 -3.5l-124 11q-43 3 -37 40q14 84 96 138.5t197 54.5q130 0 220.5 -68t90.5 -165v-439q0 -39 -39 -39h-123q-39 0 -39 23q0 20 -18 6q-56 -41 -154 -41
q-117 0 -181.5 54t-64.5 149q0 107 79 171t212 64zM299 885q59 0 96 33.5t37 68.5v12q0 17 -16 17h-78q-121 0 -121 -68q0 -63 82 -63zM12 596q0 39 39 39h559q39 0 39 -39v-86q0 -39 -39 -39h-559q-39 0 -39 39v86z" />
    <glyph glyph-name="guillemotleft" unicode="&#xab;" horiz-adv-x="999" 
d="M545 264q9 -20 1 -32.5t-30 -12.5h-231q-34 0 -47 29l-146 301q-12 27 0 53l146 301q13 29 47 29h231q22 0 30 -12.5t-1 -32.5l-150 -301q-7 -10 0 -21zM915 264q9 -20 1.5 -32.5t-29.5 -12.5h-232q-34 0 -47 29l-145 301q-12 27 0 53l145 301q13 29 47 29h232
q22 0 29.5 -12.5t-1.5 -32.5l-149 -301q-7 -10 0 -21z" />
    <glyph glyph-name="logicalnot" unicode="&#xac;" horiz-adv-x="974" 
d="M45 723q0 39 39 39h807q39 0 39 -39v-469q0 -39 -39 -39h-250q-39 0 -39 39v164q0 16 -16 16h-502q-39 0 -39 39v250z" />
    <glyph glyph-name="uni00AD" unicode="&#xad;" horiz-adv-x="858" 
d="M84 420q-39 0 -39 39v250q0 39 39 39h690q39 0 39 -39v-250q0 -39 -39 -39h-690z" />
    <glyph glyph-name="registered" unicode="&#xae;" horiz-adv-x="901" 
d="M451 1450q184 0 305 -117.5t121 -294.5q0 -190 -120.5 -311t-305.5 -121t-305.5 121t-120.5 311q0 177 121 294.5t305 117.5zM451 745q124 0 204 81.5t80 211.5q0 117 -80.5 195t-203.5 78t-203 -78t-80 -195q0 -130 79.5 -211.5t203.5 -81.5zM606 1100q0 -65 -43 -94
q-12 -9 -8 -23l33 -96q12 -45 -33 -45h-41q-35 0 -45 32l-25 91q-4 14 -6 14q-4 0 -4 -16v-82q0 -39 -39 -39h-39q-39 0 -39 39v307q0 39 39 39h121q58 0 93.5 -36t35.5 -91zM459 1128h-8q-17 0 -17 -16v-31q0 -16 12 -16h13q13 0 21.5 10t8.5 23q0 14 -8.5 22t-21.5 8z" />
    <glyph glyph-name="macron" unicode="&#xaf;" horiz-adv-x="636" 
d="M39 1161q-39 0 -39 39v178q0 39 39 39h559q39 0 39 -39v-178q0 -39 -39 -39h-559z" />
    <glyph glyph-name="degree" unicode="&#xb0;" horiz-adv-x="763" 
d="M381 942q-149 0 -252.5 103.5t-103.5 254.5q0 149 103.5 252t252.5 103q152 0 255 -102.5t103 -252.5q0 -151 -103 -254.5t-255 -103.5zM381 1190q47 0 79 31.5t32 78.5q0 49 -31.5 81t-79.5 32q-45 0 -78 -32.5t-33 -80.5q0 -46 33 -78t78 -32z" />
    <glyph glyph-name="plusminus" unicode="&#xb1;" horiz-adv-x="974" 
d="M651 1051q0 -17 17 -17h223q39 0 39 -39v-250q0 -38 -39 -38h-223q-17 0 -17 -17v-223q0 -39 -39 -39h-250q-38 0 -38 39v223q0 17 -17 17h-223q-39 0 -39 38v250q0 39 39 39h223q17 0 17 17v223q0 39 38 39h250q39 0 39 -39v-223zM84 0q-39 0 -39 39v250q0 39 39 39h807
q39 0 39 -39v-250q0 -39 -39 -39h-807z" />
    <glyph glyph-name="uni00B2" unicode="&#xb2;" horiz-adv-x="727" 
d="M96 817q-39 0 -39 39v137q0 30 23 47q88 77 250 230q110 103 110 149q0 27 -19.5 44.5t-51.5 17.5q-34 0 -55 -18.5t-21 -47.5v-2q0 -39 -39 -39h-166q-39 0 -39 39v41q9 106 99 170t221 64q144 0 229.5 -77t85.5 -188q0 -88 -92 -198q-57 -64 -191 -181q-7 -8 -4.5 -14
t13.5 -6h243q39 0 39 -39v-129q0 -39 -39 -39h-557z" />
    <glyph glyph-name="uni00B3" unicode="&#xb3;" horiz-adv-x="665" 
d="M625 1231q22 -51 22 -123q0 -67 -24 -127q-34 -80 -111.5 -128t-177.5 -48q-101 0 -178.5 48t-114.5 132q-17 38 -23 86q-3 41 39 41h166q32 0 41 -37q8 -22 15 -35q19 -28 55 -28q34 0 53 28q19 32 19 74q0 46 -19 78q-19 31 -55 31q-25 0 -53 -17q-34 -20 -56 8l-76 95
q-27 33 9 55l141 84q9 6 7.5 13t-13.5 7h-209q-39 0 -39 39v129q0 39 39 39h514q39 0 39 -39v-137q0 -28 -25 -47l-112 -80q-16 -13 6 -22q79 -27 121 -119z" />
    <glyph glyph-name="acute" unicode="&#xb4;" horiz-adv-x="561" 
d="M78 1169q-23 0 -31 13t2 35l92 172q14 28 45 28h291q24 0 31.5 -14t-6.5 -33l-133 -176q-19 -25 -47 -25h-244z" />
    <glyph glyph-name="uni00B5" unicode="&#xb5;" horiz-adv-x="1136" 
d="M684 1026q0 39 39 39h307q39 0 39 -39v-987q0 -39 -39 -39h-307q-39 0 -39 39v49q0 11 -6 13t-12 -7q-73 -92 -197 -106q-16 -3 -16 -19v-340q0 -39 -39 -39h-308q-38 0 -38 39v1397q0 39 38 39h310q39 0 39 -39v-575q0 -62 31.5 -100t82.5 -38q42 0 73 27t40 72
q2 8 2 20v594z" />
    <glyph glyph-name="paragraph" unicode="&#xb6;" horiz-adv-x="1345" 
d="M586 1434h659q39 0 39 -39v-1766q0 -39 -39 -39h-201q-38 0 -38 39v1520q0 16 -17 16h-147q-17 0 -17 -16v-1520q0 -39 -39 -39h-200q-39 0 -39 39v869q0 15 -17 18q-225 17 -359 139.5t-134 317.5q0 208 145 334.5t404 126.5z" />
    <glyph glyph-name="periodcentered" unicode="&#xb7;" horiz-adv-x="456" 
d="M227 -16q-98 0 -162.5 62.5t-64.5 152.5q0 87 69.5 150t157.5 63q90 0 160 -63t70 -150q0 -90 -65.5 -152.5t-164.5 -62.5z" />
    <glyph glyph-name="cedilla" unicode="&#xb8;" horiz-adv-x="387" 
d="M29 -379q-28 11 -25 47l14 119q3 21 14.5 25.5t33.5 -2.5q26 -6 45.5 1t25.5 27q16 49 -71 117q-22 17 -18.5 31t30.5 14h153q30 0 48 -18q139 -118 100 -250q-17 -61 -61 -95t-97.5 -39.5t-102 1t-89.5 22.5z" />
    <glyph glyph-name="uni00B9" unicode="&#xb9;" horiz-adv-x="409" 
d="M102 1667q22 10 48 10h178q39 0 39 -39v-782q0 -39 -39 -39h-164q-39 0 -39 39v598q0 16 -16 16l-25 3q-39 0 -39 38v101q0 33 31 45z" />
    <glyph glyph-name="ordmasculine" unicode="&#xba;" horiz-adv-x="722" 
d="M365 729q-108 0 -191.5 54t-122.5 155q-28 73 -28 154q0 85 26 155q38 98 122 150.5t196 52.5q102 0 183 -51.5t120 -149.5q30 -78 30 -153q0 -88 -30 -158q-43 -99 -123 -154t-182 -55zM365 936q45 0 71 55q19 42 19 101q0 61 -17 96q-28 57 -78 57q-43 0 -75 -57
q-17 -33 -17 -96t17 -101q24 -55 80 -55zM90 471q-39 0 -39 39v86q0 39 39 39h559q39 0 39 -39v-86q0 -39 -39 -39h-559z" />
    <glyph glyph-name="guillemotright" unicode="&#xbb;" horiz-adv-x="999" 
d="M131 219q-22 0 -30 12.5t1 32.5l150 301q7 11 0 21l-150 301q-9 20 -1 32.5t30 12.5h231q35 0 48 -29l145 -301q12 -26 0 -53l-145 -301q-13 -29 -48 -29h-231zM502 219q-22 0 -30 12.5t1 32.5l150 301q7 11 0 21l-150 301q-9 20 -1 32.5t30 12.5h231q34 0 47 -29
l146 -301q12 -26 0 -53l-146 -301q-13 -29 -47 -29h-231z" />
    <glyph glyph-name="onequarter" unicode="&#xbc;" horiz-adv-x="1720" 
d="M367 612q0 -39 -39 -39h-164q-39 0 -39 39v598q0 17 -16 17l-25 2q-39 0 -39 39v100q0 33 31 45l26 10q25 11 48 11h178q39 0 39 -39v-783zM983 1407q13 27 45 27h186q23 0 30.5 -14t-3.5 -34l-756 -1359q-13 -27 -45 -27h-188q-23 0 -30.5 13.5t3.5 33.5zM1638 422
q37 0 37 -39v-141q0 -39 -37 -39h-20q-16 0 -16 -17v-147q0 -39 -39 -39h-164q-39 0 -39 39v147q0 17 -17 17h-356q-39 0 -39 39v110q0 20 10 47l187 430q12 31 45 31h172q22 0 30.5 -12.5t0.5 -32.5l-158 -375q-6 -18 12 -18h96q17 0 17 16v86q0 39 39 39h164q39 0 39 -39
v-86q0 -16 16 -16h20z" />
    <glyph glyph-name="onehalf" unicode="&#xbd;" horiz-adv-x="1650" 
d="M367 612q0 -39 -39 -39h-164q-39 0 -39 39v598q0 17 -16 17l-25 2q-39 0 -39 39v100q0 33 31 45l26 10q25 11 48 11h178q39 0 39 -39v-783zM983 1407q13 27 45 27h186q23 0 30.5 -14t-3.5 -34l-756 -1359q-13 -27 -45 -27h-188q-23 0 -30.5 13.5t3.5 33.5zM1325 227
q-7 -7 -5 -13.5t13 -6.5h244q39 0 39 -39v-129q0 -39 -39 -39h-557q-39 0 -39 39v137q0 30 23 47q74 65 249 230q111 104 111 149q0 27 -20 44.5t-52 17.5q-34 0 -54.5 -18.5t-20.5 -47.5v-2q0 -39 -39 -39h-166q-39 0 -39 39v41q9 106 98.5 169.5t220.5 63.5q144 0 230 -77
t86 -187q0 -88 -92 -198q-57 -64 -191 -181z" />
    <glyph glyph-name="threequarters" unicode="&#xbe;" horiz-adv-x="1896" 
d="M623 739q-34 -80 -111.5 -128t-177.5 -48q-101 0 -178.5 48t-114.5 132q-17 38 -23 86q-3 41 39 41h166q32 0 41 -36q8 -23 15 -35q19 -29 55 -29q34 0 53 29q19 32 19 73q0 46 -19 78q-19 31 -55 31q-26 0 -53 -16q-34 -20 -56 8l-76 94q-27 33 9 55l141 84
q9 6 7.5 13.5t-13.5 7.5h-209q-39 0 -39 39v129q0 39 39 39h514q39 0 39 -39v-138q0 -28 -25 -47l-112 -80q-17 -14 4 -20q81 -31 123 -121q22 -51 22 -123q0 -67 -24 -127zM1159 1407q13 27 45 27h187q23 0 30 -14t-4 -34l-755 -1359q-14 -27 -46 -27h-188
q-23 0 -30.5 13.5t3.5 33.5zM1815 422q36 0 36 -39v-141q0 -39 -36 -39h-21q-16 0 -16 -17v-147q0 -39 -39 -39h-164q-39 0 -39 39v147q0 17 -16 17h-357q-39 0 -39 39v110q0 18 11 47l186 430q12 31 45 31h172q22 0 30.5 -12.5t0.5 -32.5l-158 -375q-6 -18 12 -18h97
q16 0 16 16v86q0 39 39 39h164q39 0 39 -39v-86q0 -16 16 -16h21z" />
    <glyph glyph-name="questiondown" unicode="&#xbf;" horiz-adv-x="1150" 
d="M596 1034q87 0 148 -57t61 -137q0 -83 -62 -141t-149 -58q-84 0 -146.5 58t-62.5 139t62 138.5t149 57.5zM764 541q39 0 39 -29v-29q0 -70 -27.5 -127.5t-68.5 -93t-89.5 -68.5t-89.5 -57t-68.5 -56.5t-27.5 -68.5q0 -42 38 -67t101 -25q70 0 112 30t42 75q0 39 39 36
l307 -14q39 -3 39 -12v-10q0 -203 -152.5 -329t-396.5 -126q-235 0 -376.5 116.5t-141.5 307.5q0 69 21 125.5t54 94t73 68.5t80.5 56t73.5 49t54 54.5t21 66.5q0 33 39 33h305z" />
    <glyph glyph-name="Agrave" unicode="&#xc0;" horiz-adv-x="1462" 
d="M881 1585q10 -22 2 -34.5t-31 -12.5h-244q-28 0 -47 25l-133 176q-14 19 -6.5 33t31.5 14h290q31 0 45 -29zM1047 0q-34 0 -43 33l-41 147q-4 15 -19 15h-426q-14 0 -18 -15l-41 -147q-9 -33 -43 -33h-332q-21 0 -30 12t-3 33l426 1356q10 33 43 33h422q33 0 43 -33
l426 -1356q6 -21 -3 -33t-30 -12h-331zM590 508q-2 -8 2.5 -13.5t11.5 -5.5h254q7 0 11.5 5.5t2.5 13.5l-131 473q-2 7 -6 9.5t-8 0t-6 -9.5z" />
    <glyph glyph-name="Aacute" unicode="&#xc1;" horiz-adv-x="1462" 
d="M997 1786q24 0 31.5 -14t-6.5 -33l-133 -176q-19 -25 -47 -25h-244q-23 0 -31 12.5t2 34.5l93 172q14 29 45 29h290zM1047 0q-34 0 -43 33l-41 147q-4 15 -19 15h-426q-14 0 -18 -15l-41 -147q-9 -33 -43 -33h-332q-21 0 -30 12t-3 33l426 1356q10 33 43 33h422
q33 0 43 -33l426 -1356q6 -21 -3 -33t-30 -12h-331zM590 508q-2 -8 2.5 -13.5t11.5 -5.5h254q7 0 11.5 5.5t2.5 13.5l-131 473q-2 7 -6 9.5t-8 0t-6 -9.5z" />
    <glyph glyph-name="Acircumflex" unicode="&#xc2;" horiz-adv-x="1462" 
d="M739 1645q-4 7 -11.5 7t-12.5 -7l-45 -80q-15 -27 -45 -27h-213q-23 0 -30.5 13.5t5.5 33.5l137 193q16 24 47 24h306q33 0 49 -24l139 -193q13 -20 5.5 -33.5t-30.5 -13.5h-211q-30 0 -45 27zM1047 0q-34 0 -43 33l-41 147q-4 15 -19 15h-426q-14 0 -18 -15l-41 -147
q-9 -33 -43 -33h-332q-21 0 -30 12t-3 33l426 1356q10 33 43 33h422q33 0 43 -33l426 -1356q6 -21 -3 -33t-30 -12h-331zM590 508q-2 -8 2.5 -13.5t11.5 -5.5h254q7 0 11.5 5.5t2.5 13.5l-131 473q-2 7 -6 9.5t-8 0t-6 -9.5z" />
    <glyph glyph-name="Atilde" unicode="&#xc3;" horiz-adv-x="1462" 
d="M655 1599q-38 0 -61 -26q-25 -31 -53 -12l-101 71q-28 19 -16 54q29 75 84 116t121 41q26 0 51.5 -7.5t42.5 -16t45 -25.5q55 -31 94 -31q34 0 56 25q25 31 53 12l102 -71q28 -22 14 -54q-39 -78 -97.5 -116.5t-119.5 -38.5q-63 0 -141 51q-44 28 -74 28zM1047 0
q-34 0 -43 33l-41 147q-4 15 -19 15h-426q-14 0 -18 -15l-41 -147q-9 -33 -43 -33h-332q-21 0 -30 12t-3 33l426 1356q10 33 43 33h422q33 0 43 -33l426 -1356q6 -21 -3 -33t-30 -12h-331zM590 508q-2 -8 2.5 -13.5t11.5 -5.5h254q7 0 11.5 5.5t2.5 13.5l-131 473
q-2 7 -6 9.5t-8 0t-6 -9.5z" />
    <glyph glyph-name="Adieresis" unicode="&#xc4;" horiz-adv-x="1462" 
d="M516 1497q-78 0 -128 49.5t-50 128.5t50 128.5t128 49.5t126 -49t48 -129t-48 -129t-126 -49zM940 1497q-79 0 -127.5 49t-48.5 129t48.5 129t127.5 49t127.5 -49t48.5 -129t-48.5 -129t-127.5 -49zM1047 0q-34 0 -43 33l-41 147q-4 15 -19 15h-426q-14 0 -18 -15
l-41 -147q-9 -33 -43 -33h-332q-21 0 -30 12t-3 33l426 1356q10 33 43 33h422q33 0 43 -33l426 -1356q6 -21 -3 -33t-30 -12h-331zM590 508q-2 -8 2.5 -13.5t11.5 -5.5h254q7 0 11.5 5.5t2.5 13.5l-131 473q-2 7 -6 9.5t-8 0t-6 -9.5z" />
    <glyph glyph-name="Aring" unicode="&#xc5;" horiz-adv-x="1462" 
d="M727 1503q-101 0 -170.5 69.5t-69.5 170.5q0 100 69.5 168.5t170.5 68.5t170.5 -68.5t69.5 -168.5q0 -101 -69.5 -170.5t-170.5 -69.5zM727 1819q-31 0 -52.5 -22t-21.5 -54q0 -31 21.5 -52.5t52.5 -21.5t52.5 21.5t21.5 52.5q0 32 -21.5 54t-52.5 22zM1047 0
q-34 0 -43 33l-41 147q-4 15 -19 15h-426q-14 0 -18 -15l-41 -147q-9 -33 -43 -33h-332q-21 0 -30 12t-3 33l426 1356q10 33 43 33h422q33 0 43 -33l426 -1356q6 -21 -3 -33t-30 -12h-331zM590 508q-2 -8 2.5 -13.5t11.5 -5.5h254q7 0 11.5 5.5t2.5 13.5l-131 473
q-2 7 -6 9.5t-8 0t-6 -9.5z" />
    <glyph glyph-name="AE" unicode="&#xc6;" horiz-adv-x="2019" 
d="M1970 1143q0 -39 -39 -39h-604q-16 0 -16 -17v-180q0 -16 16 -16h371q39 0 39 -39v-250q0 -39 -39 -39h-371q-16 0 -16 -16v-201q0 -16 16 -16h604q39 0 39 -39v-252q0 -39 -39 -39h-966q-39 0 -39 39v139q0 17 -17 17h-342q-13 0 -20 -13l-72 -153q-13 -29 -47 -29h-340
q-22 0 -30 12.5t1 32.5l668 1360q16 29 45 29h1159q39 0 39 -39v-252zM698 508q-3 -8 0.5 -13.5t12.5 -5.5h198q17 0 17 17v438q0 12 -7 13.5t-12 -9.5z" />
    <glyph glyph-name="Ccedilla" unicode="&#xc7;" horiz-adv-x="1247" 
d="M1192 946q0 -9 -37 -12l-307 -21q-18 -1 -29.5 2.5t-11.5 8.5v12q0 83 -49 133.5t-131 50.5t-131.5 -50.5t-49.5 -133.5v-440q0 -82 49.5 -132.5t131.5 -50.5q81 0 130.5 50.5t49.5 132.5q0 11 11.5 17t29.5 5l307 -16q37 -3 37 -10v-11q0 -194 -119 -325t-321 -162
q-10 -1 -12.5 -8t3.5 -13q94 -108 64 -217q-14 -49 -46 -80.5t-70.5 -43.5t-83 -12.5t-81.5 7t-69 19.5q-28 11 -25 47l14 119q3 21 14.5 25t33.5 -3q25 -6 45 1.5t26 27.5q17 51 -94 133q-8 6 -18 8q-182 46 -287 180.5t-105 327.5v414q0 236 155.5 380t410.5 144
t410 -135.5t155 -358.5v-10z" />
    <glyph glyph-name="Egrave" unicode="&#xc8;" horiz-adv-x="1167" 
d="M750 1612q10 -22 2 -34.5t-31 -12.5h-244q-29 0 -47 24l-133 176q-14 19 -6.5 33t31.5 14h290q31 0 45 -28zM1118 1143q0 -39 -39 -39h-598q-16 0 -16 -17v-180q0 -16 16 -16h365q39 0 39 -39v-250q0 -39 -39 -39h-365q-16 0 -16 -16v-201q0 -16 16 -16h598q39 0 39 -39
v-252q0 -39 -39 -39h-960q-39 0 -39 39v1356q0 39 39 39h960q39 0 39 -39v-252z" />
    <glyph glyph-name="Eacute" unicode="&#xc9;" horiz-adv-x="1167" 
d="M866 1812q24 0 31.5 -14t-6.5 -33l-133 -176q-18 -24 -47 -24h-244q-23 0 -31 12.5t2 34.5l92 172q14 28 45 28h291zM1118 1143q0 -39 -39 -39h-598q-16 0 -16 -17v-180q0 -16 16 -16h365q39 0 39 -39v-250q0 -39 -39 -39h-365q-16 0 -16 -16v-201q0 -16 16 -16h598
q39 0 39 -39v-252q0 -39 -39 -39h-960q-39 0 -39 39v1356q0 39 39 39h960q39 0 39 -39v-252z" />
    <glyph glyph-name="Ecircumflex" unicode="&#xca;" horiz-adv-x="1167" 
d="M608 1671q-4 7 -12 7t-12 -7l-45 -80q-14 -26 -45 -26h-213q-23 0 -30.5 13.5t5.5 33.5l137 192q17 25 47 25h305q33 0 50 -25l139 -192q13 -20 5.5 -33.5t-30.5 -13.5h-211q-31 0 -45 26zM1118 1143q0 -39 -39 -39h-598q-16 0 -16 -17v-180q0 -16 16 -16h365
q39 0 39 -39v-250q0 -39 -39 -39h-365q-16 0 -16 -16v-201q0 -16 16 -16h598q39 0 39 -39v-252q0 -39 -39 -39h-960q-39 0 -39 39v1356q0 39 39 39h960q39 0 39 -39v-252z" />
    <glyph glyph-name="Edieresis" unicode="&#xcb;" horiz-adv-x="1167" 
d="M385 1524q-78 0 -128 49.5t-50 128.5t50 128.5t128 49.5t126 -49t48 -129t-48 -129t-126 -49zM809 1524q-79 0 -127.5 49t-48.5 129t48.5 129t127.5 49t127.5 -49t48.5 -129t-48.5 -129t-127.5 -49zM1118 1143q0 -39 -39 -39h-598q-16 0 -16 -17v-180q0 -16 16 -16h365
q39 0 39 -39v-250q0 -39 -39 -39h-365q-16 0 -16 -16v-201q0 -16 16 -16h598q39 0 39 -39v-252q0 -39 -39 -39h-960q-39 0 -39 39v1356q0 39 39 39h960q39 0 39 -39v-252z" />
    <glyph glyph-name="Igrave" unicode="&#xcc;" horiz-adv-x="544" 
d="M426 1612q10 -22 2 -34.5t-31 -12.5h-243q-30 0 -48 24l-133 176q-14 19 -6.5 33t31.5 14h291q31 0 45 -28zM119 0q-39 0 -39 39v1356q0 39 39 39h307q39 0 39 -39v-1356q0 -39 -39 -39h-307z" />
    <glyph glyph-name="Iacute" unicode="&#xcd;" horiz-adv-x="544" 
d="M143 1565q-23 0 -30.5 12.5t2.5 34.5l92 172q14 28 45 28h291q24 0 31 -14t-7 -33l-133 -176q-18 -24 -47 -24h-244zM119 0q-39 0 -39 39v1356q0 39 39 39h307q39 0 39 -39v-1356q0 -39 -39 -39h-307z" />
    <glyph glyph-name="Icircumflex" unicode="&#xce;" horiz-adv-x="544" 
d="M-43 1565q-23 0 -30.5 13.5t5.5 33.5l138 192q17 25 47 25h305q32 0 49 -25l139 -192q13 -20 6 -33.5t-30 -13.5h-211q-31 0 -45 26l-45 80q-5 7 -12.5 7t-12.5 -7l-45 -80q-14 -26 -45 -26h-213zM119 0q-39 0 -39 39v1356q0 39 39 39h307q39 0 39 -39v-1356
q0 -39 -39 -39h-307z" />
    <glyph glyph-name="Idieresis" unicode="&#xcf;" horiz-adv-x="544" 
d="M61 1524q-78 0 -128 49.5t-50 128.5t50 128.5t128 49.5t126.5 -49.5t48.5 -128.5t-48.5 -128.5t-126.5 -49.5zM485 1524q-79 0 -127.5 49t-48.5 129t48.5 129t127.5 49t128 -49t49 -129t-49 -129t-128 -49zM119 0q-39 0 -39 39v1356q0 39 39 39h307q39 0 39 -39v-1356
q0 -39 -39 -39h-307z" />
    <glyph glyph-name="Eth" unicode="&#xd0;" horiz-adv-x="1351" 
d="M723 1434q252 0 406.5 -127t154.5 -334v-512q0 -207 -154.5 -334t-406.5 -127h-518q-39 0 -39 39v551q0 16 -16 16h-31q-39 0 -39 39v178q0 39 39 39h31q16 0 16 17v516q0 39 39 39h518zM899 526v381q0 89 -45 143t-119 54h-168q-16 0 -16 -17v-208q0 -17 16 -17h92
q39 0 39 -39v-178q0 -39 -39 -39h-92q-16 0 -16 -16v-244q0 -16 16 -16h170q69 0 114 53.5t48 142.5z" />
    <glyph glyph-name="Ntilde" unicode="&#xd1;" horiz-adv-x="1347" 
d="M795 1546q-64 0 -142 51q-45 29 -73 29q-38 0 -62 -27q-25 -31 -53 -12l-100 72q-29 19 -17 53q29 75 84 116.5t121 41.5q26 0 51.5 -7.5t42.5 -16t45 -25.5q55 -31 94 -31q34 0 56 25q25 31 53 12l102 -72q29 -23 4 -69q-38 -69 -93.5 -104.5t-112.5 -35.5zM119 0
q-39 0 -39 39v1356q0 39 39 39h295q32 0 47 -27l403 -678q6 -9 13.5 -7.5t7.5 13.5l-2 660q0 39 39 39h307q39 0 39 -39v-1356q0 -39 -39 -39h-295q-32 0 -47 27l-406 690q-6 11 -13 9.5t-7 -13.5l4 -674q0 -39 -39 -39h-307z" />
    <glyph glyph-name="Ograve" unicode="&#xd2;" horiz-adv-x="1271" 
d="M788 1602q11 -22 3 -35t-31 -13h-244q-28 0 -47 25l-133 176q-14 19 -7 33t31 14h291q31 0 45 -28zM635 -25q-258 0 -416 151t-158 398v385q0 243 158 392t416 149q259 0 417 -149t158 -392v-385q0 -248 -158 -398.5t-417 -150.5zM635 305q86 0 138 56.5t52 150.5v401
q0 94 -52 150.5t-138 56.5q-85 0 -137 -56.5t-52 -150.5v-401q0 -94 52 -150.5t137 -56.5z" />
    <glyph glyph-name="Oacute" unicode="&#xd3;" horiz-adv-x="1271" 
d="M506 1554q-23 0 -31 13t2 35l92 172q14 28 45 28h291q24 0 31.5 -14t-6.5 -33l-133 -176q-19 -25 -47 -25h-244zM635 -25q-258 0 -416 151t-158 398v385q0 243 158 392t416 149q259 0 417 -149t158 -392v-385q0 -248 -158 -398.5t-417 -150.5zM635 305q86 0 138 56.5
t52 150.5v401q0 94 -52 150.5t-138 56.5q-85 0 -137 -56.5t-52 -150.5v-401q0 -94 52 -150.5t137 -56.5z" />
    <glyph glyph-name="Ocircumflex" unicode="&#xd4;" horiz-adv-x="1271" 
d="M319 1554q-23 0 -30 14t6 34l137 192q17 25 47 25h305q33 0 50 -25l139 -192q13 -20 5.5 -34t-30.5 -14h-211q-30 0 -45 27l-45 80q-4 7 -11.5 7t-12.5 -7l-45 -80q-15 -27 -46 -27h-213zM635 -25q-258 0 -416 151t-158 398v385q0 243 158 392t416 149q259 0 417 -149
t158 -392v-385q0 -248 -158 -398.5t-417 -150.5zM635 305q86 0 138 56.5t52 150.5v401q0 94 -52 150.5t-138 56.5q-85 0 -137 -56.5t-52 -150.5v-401q0 -94 52 -150.5t137 -56.5z" />
    <glyph glyph-name="Otilde" unicode="&#xd5;" horiz-adv-x="1271" 
d="M778 1536q-63 0 -141 51q-45 29 -74 29q-37 0 -61 -27q-25 -31 -53 -12l-101 72q-28 19 -16 53q29 75 84 116.5t121 41.5q26 0 52 -8t42 -16.5t45 -25.5q54 -30 94 -30q34 0 55 24q26 33 54 13l102 -72q30 -23 4 -70q-38 -69 -94 -104t-113 -35zM635 -25q-258 0 -416 151
t-158 398v385q0 243 158 392t416 149q259 0 417 -149t158 -392v-385q0 -248 -158 -398.5t-417 -150.5zM635 305q86 0 138 56.5t52 150.5v401q0 94 -52 150.5t-138 56.5q-85 0 -137 -56.5t-52 -150.5v-401q0 -94 52 -150.5t137 -56.5z" />
    <glyph glyph-name="Odieresis" unicode="&#xd6;" horiz-adv-x="1271" 
d="M424 1513q-78 0 -128 50t-50 129t50 128.5t128 49.5t126 -49t48 -129t-48 -129.5t-126 -49.5zM848 1513q-79 0 -127.5 49.5t-48.5 129.5t48.5 129t127.5 49t127.5 -49t48.5 -129t-48.5 -129.5t-127.5 -49.5zM635 -25q-258 0 -416 151t-158 398v385q0 243 158 392t416 149
q259 0 417 -149t158 -392v-385q0 -248 -158 -398.5t-417 -150.5zM635 305q86 0 138 56.5t52 150.5v401q0 94 -52 150.5t-138 56.5q-85 0 -137 -56.5t-52 -150.5v-401q0 -94 52 -150.5t137 -56.5z" />
    <glyph glyph-name="multiply" unicode="&#xd7;" horiz-adv-x="946" 
d="M874 860q26 -26 0 -53l-157 -158q-5 -5 -5 -12t5 -12l157 -158q26 -27 0 -53l-178 -178q-12 -13 -26.5 -14t-26.5 11l-158 158q-5 5 -12 5t-12 -5l-158 -158q-12 -12 -26.5 -11t-26.5 14l-178 178q-26 26 0 53l157 158q5 5 5 12t-5 12l-157 158q-26 27 0 53l178 178
q26 26 53 0l158 -157q5 -5 12 -5t12 5l158 157q27 26 53 0z" />
    <glyph glyph-name="Oslash" unicode="&#xd8;" horiz-adv-x="1271" 
d="M1034 1335q-4 -11 4 -22q83 -73 127.5 -176t44.5 -228v-385q0 -248 -158 -398.5t-417 -150.5q-137 0 -252 45q-17 7 -23 -8l-22 -45q-14 -28 -45 -28h-100q-22 0 -29.5 12.5t2.5 34.5l59 116q5 12 -4 23q-160 151 -160 399v385q0 243 158 392t416 149q127 0 239 -39
q15 -6 21 8l25 47q16 29 45 29h100q22 0 29.5 -12.5t-2.5 -34.5zM446 913v-331q0 -12 8 -13.5t13 9.5l256 505q6 16 -6 21q-40 16 -82 16q-85 0 -137 -56.5t-52 -150.5zM825 512v369q0 12 -7.5 13.5t-12.5 -9.5l-273 -533q-8 -15 9 -22q42 -25 94 -25q86 0 138 56.5
t52 150.5z" />
    <glyph glyph-name="Ugrave" unicode="&#xd9;" horiz-adv-x="1263" 
d="M786 1612q10 -22 2.5 -34.5t-30.5 -12.5h-244q-29 0 -47 24l-133 176q-14 19 -7 33t31 14h291q31 0 45 -28zM633 -16q-252 0 -406.5 141t-154.5 373v897q0 39 39 39h307q39 0 39 -39v-897q0 -83 48.5 -134t127.5 -51q78 0 126 51t48 134v897q0 39 39 39h307q39 0 39 -39
v-897q0 -232 -153.5 -373t-405.5 -141z" />
    <glyph glyph-name="Uacute" unicode="&#xda;" horiz-adv-x="1263" 
d="M504 1565q-23 0 -31 12.5t2 34.5l92 172q14 28 45 28h291q24 0 31.5 -14t-6.5 -33l-133 -176q-18 -24 -47 -24h-244zM633 -16q-252 0 -406.5 141t-154.5 373v897q0 39 39 39h307q39 0 39 -39v-897q0 -83 48.5 -134t127.5 -51q78 0 126 51t48 134v897q0 39 39 39h307
q39 0 39 -39v-897q0 -232 -153.5 -373t-405.5 -141z" />
    <glyph glyph-name="Ucircumflex" unicode="&#xdb;" horiz-adv-x="1263" 
d="M317 1565q-23 0 -30 13.5t6 33.5l137 192q17 25 47 25h305q32 0 49 -25l140 -192q13 -20 5.5 -33.5t-30.5 -13.5h-211q-31 0 -45 26l-45 80q-5 7 -12 7t-12 -7l-46 -80q-14 -26 -45 -26h-213zM633 -16q-252 0 -406.5 141t-154.5 373v897q0 39 39 39h307q39 0 39 -39v-897
q0 -83 48.5 -134t127.5 -51q78 0 126 51t48 134v897q0 39 39 39h307q39 0 39 -39v-897q0 -232 -153.5 -373t-405.5 -141z" />
    <glyph glyph-name="Udieresis" unicode="&#xdc;" horiz-adv-x="1263" 
d="M422 1524q-78 0 -128 49.5t-50 128.5t50 128.5t128 49.5t126 -49t48 -129t-48 -129t-126 -49zM846 1524q-79 0 -127.5 49t-48.5 129t48.5 129t127.5 49t127.5 -49t48.5 -129t-48.5 -129t-127.5 -49zM633 -16q-252 0 -406.5 141t-154.5 373v897q0 39 39 39h307
q39 0 39 -39v-897q0 -83 48.5 -134t127.5 -51q78 0 126 51t48 134v897q0 39 39 39h307q39 0 39 -39v-897q0 -232 -153.5 -373t-405.5 -141z" />
    <glyph glyph-name="Yacute" unicode="&#xdd;" horiz-adv-x="1333" 
d="M537 1538q-23 0 -31 12.5t2 34.5l92 172q14 29 45 29h291q24 0 31.5 -14t-6.5 -33l-134 -176q-19 -25 -47 -25h-243zM512 4q-39 0 -39 39v440q0 9 -4 21l-412 885q-9 21 0 33t31 12h334q34 0 45 -31l188 -473q5 -9 11 -9t10 9l188 473q11 31 45 31h336q22 0 31 -12t0 -33
l-416 -885q-4 -12 -4 -21v-440q0 -39 -39 -39h-305z" />
    <glyph glyph-name="Thorn" unicode="&#xde;" horiz-adv-x="1208" 
d="M684 1174q218 0 352.5 -128t134.5 -333q0 -133 -68 -237t-183 -160t-254 -56h-191q-16 0 -16 -16v-205q0 -39 -39 -39h-307q-39 0 -39 39v1356q0 39 39 39h307q39 0 39 -39v-205q0 -16 16 -16h209zM621 569q76 0 121.5 34.5t45.5 101.5q0 68 -45.5 103.5t-121.5 35.5
h-146q-16 0 -16 -17v-241q0 -17 16 -17h146z" />
    <glyph glyph-name="germandbls" unicode="&#xdf;" horiz-adv-x="1277" 
d="M113 2q-39 0 -39 39v915q0 234 143.5 364t405.5 130q260 0 415.5 -110.5t155.5 -301.5q0 -156 -121 -239q-16 -13 0 -23q67 -49 108.5 -139.5t41.5 -200.5q0 -210 -156.5 -323t-468.5 -113h-16q-39 0 -39 39v250q0 39 39 39h73q84 0 133.5 39.5t49.5 109.5t-49.5 110
t-133.5 40h-73q-39 0 -39 39v221q0 39 39 39h84q61 0 102 31t41 71q0 35 -35.5 64.5t-120.5 29.5q-75 0 -134.5 -34.5t-59.5 -94.5v-954q0 -39 -39 -39z" />
    <glyph glyph-name="agrave" unicode="&#xe0;" horiz-adv-x="1105" 
d="M692 1233q10 -22 2.5 -34.5t-30.5 -12.5h-244q-29 0 -47 24l-133 176q-14 19 -7 33.5t31 14.5h291q31 0 45 -29zM530 1081q213 0 360.5 -103t147.5 -251v-688q0 -39 -39 -39h-307q-39 0 -39 39v37q0 11 -5.5 13t-12.5 -7q-68 -98 -250 -98q-168 0 -264 76.5t-96 224.5
q0 155 109 239t319 84h184q16 0 16 17v30q0 43 -31.5 70t-84.5 27q-77 0 -103 -41q-9 -12 -13 -16.5t-12.5 -8t-19.5 -2.5l-315 41q-38 3 -35 31q14 140 151.5 232.5t339.5 92.5zM504 250q66 0 107.5 34.5t41.5 94.5v20q0 17 -16 17h-96q-129 0 -129 -84q0 -36 23.5 -59
t68.5 -23z" />
    <glyph glyph-name="aacute" unicode="&#xe1;" horiz-adv-x="1105" 
d="M809 1434q24 0 31.5 -14.5t-6.5 -33.5l-134 -176q-18 -24 -47 -24h-243q-23 0 -31 12.5t2 34.5l92 172q15 29 45 29h291zM530 1081q213 0 360.5 -103t147.5 -251v-688q0 -39 -39 -39h-307q-39 0 -39 39v37q0 11 -5.5 13t-12.5 -7q-68 -98 -250 -98q-168 0 -264 76.5
t-96 224.5q0 155 109 239t319 84h184q16 0 16 17v30q0 43 -31.5 70t-84.5 27q-77 0 -103 -41q-9 -12 -13 -16.5t-12.5 -8t-19.5 -2.5l-315 41q-38 3 -35 31q14 140 151.5 232.5t339.5 92.5zM504 250q66 0 107.5 34.5t41.5 94.5v20q0 17 -16 17h-96q-129 0 -129 -84
q0 -36 23.5 -59t68.5 -23z" />
    <glyph glyph-name="acircumflex" unicode="&#xe2;" horiz-adv-x="1105" 
d="M551 1292q-4 8 -12.5 8t-12.5 -8l-45 -80q-14 -26 -45 -26h-213q-23 0 -30 13.5t6 33.5l137 192q17 25 47 25h305q32 0 49 -25l140 -192q13 -20 5.5 -33.5t-30.5 -13.5h-211q-31 0 -45 26zM530 1081q213 0 360.5 -103t147.5 -251v-688q0 -39 -39 -39h-307q-39 0 -39 39
v37q0 11 -5.5 13t-12.5 -7q-68 -98 -250 -98q-168 0 -264 76.5t-96 224.5q0 155 109 239t319 84h184q16 0 16 17v30q0 43 -31.5 70t-84.5 27q-77 0 -103 -41q-9 -12 -13 -16.5t-12.5 -8t-19.5 -2.5l-315 41q-38 3 -35 31q14 140 151.5 232.5t339.5 92.5zM504 250
q66 0 107.5 34.5t41.5 94.5v20q0 17 -16 17h-96q-129 0 -129 -84q0 -36 23.5 -59t68.5 -23z" />
    <glyph glyph-name="atilde" unicode="&#xe3;" horiz-adv-x="1105" 
d="M467 1247q-38 0 -61 -26q-26 -32 -54 -13l-100 72q-28 19 -16 53q29 75 83.5 116.5t120.5 41.5q58 0 140 -49q55 -31 94 -31q33 0 55 25q25 31 53 12l103 -72q28 -22 14 -53q-39 -78 -97.5 -117t-119.5 -39q-62 0 -141 52q-44 28 -74 28zM530 1081q213 0 360.5 -103
t147.5 -251v-688q0 -39 -39 -39h-307q-39 0 -39 39v37q0 11 -5.5 13t-12.5 -7q-68 -98 -250 -98q-168 0 -264 76.5t-96 224.5q0 155 109 239t319 84h184q16 0 16 17v30q0 43 -31.5 70t-84.5 27q-77 0 -103 -41q-9 -12 -13 -16.5t-12.5 -8t-19.5 -2.5l-315 41q-38 3 -35 31
q14 140 151.5 232.5t339.5 92.5zM504 250q66 0 107.5 34.5t41.5 94.5v20q0 17 -16 17h-96q-129 0 -129 -84q0 -36 23.5 -59t68.5 -23z" />
    <glyph glyph-name="adieresis" unicode="&#xe4;" horiz-adv-x="1105" 
d="M328 1145q-78 0 -128 49.5t-50 128.5t50 128.5t128 49.5t126 -49t48 -129t-48 -129t-126 -49zM752 1145q-79 0 -128 49t-49 129t49 129t128 49t127.5 -49t48.5 -129t-48.5 -129t-127.5 -49zM530 1081q213 0 360.5 -103t147.5 -251v-688q0 -39 -39 -39h-307q-39 0 -39 39
v37q0 11 -5.5 13t-12.5 -7q-68 -98 -250 -98q-168 0 -264 76.5t-96 224.5q0 155 109 239t319 84h184q16 0 16 17v30q0 43 -31.5 70t-84.5 27q-77 0 -103 -41q-9 -12 -13 -16.5t-12.5 -8t-19.5 -2.5l-315 41q-38 3 -35 31q14 140 151.5 232.5t339.5 92.5zM504 250
q66 0 107.5 34.5t41.5 94.5v20q0 17 -16 17h-96q-129 0 -129 -84q0 -36 23.5 -59t68.5 -23z" />
    <glyph glyph-name="aring" unicode="&#xe5;" horiz-adv-x="1105" 
d="M539 1151q-101 0 -170.5 69.5t-69.5 170.5q0 100 69.5 168.5t170.5 68.5t170 -68.5t69 -168.5q0 -101 -69 -170.5t-170 -69.5zM539 1466q-31 0 -52.5 -21.5t-21.5 -53.5q0 -31 21.5 -52.5t52.5 -21.5t52 21.5t21 52.5q0 32 -21 53.5t-52 21.5zM530 1081q213 0 360.5 -103
t147.5 -251v-688q0 -39 -39 -39h-307q-39 0 -39 39v37q0 11 -5.5 13t-12.5 -7q-68 -98 -250 -98q-168 0 -264 76.5t-96 224.5q0 155 109 239t319 84h184q16 0 16 17v30q0 43 -31.5 70t-84.5 27q-77 0 -103 -41q-9 -12 -13 -16.5t-12.5 -8t-19.5 -2.5l-315 41q-38 3 -35 31
q14 140 151.5 232.5t339.5 92.5zM504 250q66 0 107.5 34.5t41.5 94.5v20q0 17 -16 17h-96q-129 0 -129 -84q0 -36 23.5 -59t68.5 -23z" />
    <glyph glyph-name="ae" unicode="&#xe6;" horiz-adv-x="1728" 
d="M438 -16q-187 0 -300 85.5t-113 237.5q0 146 109 232t317 86h184q16 0 16 16v14q0 43 -31.5 70t-84.5 27q-77 0 -103 -41q-9 -12 -13 -16.5t-12.5 -8t-19.5 -2.5l-315 41q-38 3 -35 41q20 132 157 223.5t306 91.5q113 0 209 -41t145 -104q14 -14 23 2q43 58 126.5 100.5
t184.5 42.5q146 0 280.5 -87.5t186.5 -231.5q37 -108 39 -295q0 -41 -39 -41h-588q-8 0 -12.5 -4.5t-1.5 -11.5q0 -3 4 -15q36 -90 190 -90q125 0 191 51q30 21 53 -4l129 -157q24 -30 -2 -56q-169 -155 -393 -155q-127 0 -226 48t-139 120q-10 17 -16 8
q-45 -76 -153.5 -126t-252.5 -50zM1049 643q-6 -18 14 -18h217q20 0 14 18q-6 22 -8 27q-33 82 -115 82q-40 0 -70 -22t-44 -60q-3 -5 -8 -27zM508 246q58 0 100.5 37.5t42.5 93.5v33q0 16 -16 16h-96q-62 0 -95.5 -24.5t-33.5 -65.5q0 -36 24 -63t74 -27z" />
    <glyph glyph-name="ccedilla" unicode="&#xe7;" horiz-adv-x="1124" 
d="M575 752q-81 0 -116 -74q-25 -55 -25 -141q0 -81 23 -142q36 -82 118 -82q85 0 119 84l4 13q2 10 15.5 22.5t29.5 9.5l304 -49q38 -7 32 -43q-4 -30 -12 -55q-40 -115 -129.5 -190t-212.5 -105q-19 -3 -6 -20q107 -110 72 -224q-14 -49 -46 -80.5t-70.5 -43.5
t-83.5 -12.5t-82 7t-69 19.5q-27 11 -24 47l14 119q3 21 14 25t33 -3q25 -6 45.5 1.5t26.5 27.5q19 52 -86 127q-8 5 -19 8q-126 28 -219 107.5t-139 199.5q-41 105 -41 234t41 231q57 146 188.5 228.5t303.5 82.5q175 0 308.5 -86.5t180.5 -218.5q15 -44 18 -69
q3 -37 -34 -43l-301 -48q-40 -6 -43 25q-1 6 -4.5 16t-4.5 13q-11 35 -45 58.5t-78 23.5z" />
    <glyph glyph-name="egrave" unicode="&#xe8;" horiz-adv-x="1138" 
d="M719 1233q10 -22 2 -34.5t-31 -12.5h-244q-29 0 -47 24l-133 176q-14 19 -6.5 33.5t31.5 14.5h291q30 0 45 -29zM647 309q121 7 184 58q32 26 54 -5l139 -192q20 -29 -4 -53q-144 -133 -406 -133q-153 0 -271 54.5t-191 154.5q-103 144 -103 348q0 85 23 172
q46 165 184.5 266.5t321.5 101.5q210 0 341.5 -136.5t172.5 -371.5q9 -50 12 -98q0 -39 -39 -39h-608q-18 0 -15 -18q10 -25 11 -27q42 -89 194 -82zM569 752q-84 0 -116 -82q-4 -8 -7 -17q-3 -8 2 -13t13 -5h221q20 0 14 18q-1 3 -3 8.5t-3 8.5q-33 82 -121 82z" />
    <glyph glyph-name="eacute" unicode="&#xe9;" horiz-adv-x="1138" 
d="M836 1434q24 0 31 -14.5t-7 -33.5l-133 -176q-18 -24 -47 -24h-244q-23 0 -30.5 12.5t2.5 34.5l92 172q14 29 45 29h291zM647 309q121 7 184 58q32 26 54 -5l139 -192q20 -29 -4 -53q-144 -133 -406 -133q-153 0 -271 54.5t-191 154.5q-103 144 -103 348q0 85 23 172
q46 165 184.5 266.5t321.5 101.5q210 0 341.5 -136.5t172.5 -371.5q9 -50 12 -98q0 -39 -39 -39h-608q-18 0 -15 -18q10 -25 11 -27q42 -89 194 -82zM569 752q-84 0 -116 -82q-4 -8 -7 -17q-3 -8 2 -13t13 -5h221q20 0 14 18q-1 3 -3 8.5t-3 8.5q-33 82 -121 82z" />
    <glyph glyph-name="ecircumflex" unicode="&#xea;" horiz-adv-x="1138" 
d="M578 1292q-4 8 -12 8t-13 -8l-45 -80q-14 -26 -45 -26h-213q-23 0 -30.5 13.5t5.5 33.5l137 192q17 25 48 25h305q32 0 49 -25l139 -192q13 -20 6 -33.5t-30 -13.5h-211q-31 0 -45 26zM647 309q121 7 184 58q32 26 54 -5l139 -192q20 -29 -4 -53q-144 -133 -406 -133
q-153 0 -271 54.5t-191 154.5q-103 144 -103 348q0 85 23 172q46 165 184.5 266.5t321.5 101.5q210 0 341.5 -136.5t172.5 -371.5q9 -50 12 -98q0 -39 -39 -39h-608q-18 0 -15 -18q10 -25 11 -27q42 -89 194 -82zM569 752q-84 0 -116 -82q-4 -8 -7 -17q-3 -8 2 -13t13 -5
h221q20 0 14 18q-1 3 -3 8.5t-3 8.5q-33 82 -121 82z" />
    <glyph glyph-name="edieresis" unicode="&#xeb;" horiz-adv-x="1138" 
d="M354 1145q-78 0 -128 49.5t-50 128.5t50 128.5t128 49.5t126 -49t48 -129t-48 -129t-126 -49zM778 1145q-79 0 -127.5 49t-48.5 129t48.5 129t127.5 49t127.5 -49t48.5 -129t-48.5 -129t-127.5 -49zM647 309q121 7 184 58q32 26 54 -5l139 -192q20 -29 -4 -53
q-144 -133 -406 -133q-153 0 -271 54.5t-191 154.5q-103 144 -103 348q0 85 23 172q46 165 184.5 266.5t321.5 101.5q210 0 341.5 -136.5t172.5 -371.5q9 -50 12 -98q0 -39 -39 -39h-608q-18 0 -15 -18q10 -25 11 -27q42 -89 194 -82zM569 752q-84 0 -116 -82q-4 -8 -7 -17
q-3 -8 2 -13t13 -5h221q20 0 14 18q-1 3 -3 8.5t-3 8.5q-33 82 -121 82z" />
    <glyph glyph-name="igrave" unicode="&#xec;" horiz-adv-x="522" 
d="M403 1241q10 -22 2.5 -34.5t-30.5 -12.5h-244q-28 0 -47 25l-133 176q-14 19 -7 33t31 14h291q30 0 45 -29zM104 0q-38 0 -38 39v987q0 39 38 39h308q39 0 39 -39v-987q0 -39 -39 -39h-308z" />
    <glyph glyph-name="iacute" unicode="&#xed;" horiz-adv-x="522" 
d="M121 1194q-23 0 -31 12.5t2 34.5l92 172q14 29 45 29h291q24 0 31.5 -14t-6.5 -33l-133 -176q-19 -25 -47 -25h-244zM104 0q-38 0 -38 39v987q0 39 38 39h308q39 0 39 -39v-987q0 -39 -39 -39h-308z" />
    <glyph glyph-name="icircumflex" unicode="&#xee;" horiz-adv-x="522" 
d="M-66 1194q-23 0 -30 13.5t6 33.5l137 193q16 24 47 24h305q34 0 50 -24l139 -193q13 -20 5.5 -33.5t-30.5 -13.5h-211q-30 0 -45 27l-45 79q-4 8 -11.5 8t-12.5 -8l-45 -79q-15 -27 -46 -27h-213zM104 0q-38 0 -38 39v987q0 39 38 39h308q39 0 39 -39v-987q0 -39 -39 -39
h-308z" />
    <glyph glyph-name="idieresis" unicode="&#xef;" horiz-adv-x="522" 
d="M39 1153q-78 0 -128 49.5t-50 128.5t50 128.5t128 49.5t126 -49t48 -129t-48 -129t-126 -49zM463 1153q-79 0 -127.5 49t-48.5 129t48.5 129t127.5 49t127.5 -49t48.5 -129t-48.5 -129t-127.5 -49zM104 0q-38 0 -38 39v987q0 39 38 39h308q39 0 39 -39v-987
q0 -39 -39 -39h-308z" />
    <glyph glyph-name="eth" unicode="&#xf0;" horiz-adv-x="1128" 
d="M1024 764q37 -136 37 -297q0 -116 -41 -203q-58 -126 -186 -203t-293 -77t-293 75t-187 205q-41 89 -41 201q0 111 41 201q54 116 162 184q60 36 174.5 54t186.5 1q9 -2 12.5 3t-0.5 14q-19 41 -53 100q-6 12 -21 8l-198 -47q-39 -9 -48 27l-30 125q-9 36 28 45l119 28
q18 6 8 23q-47 56 -135 155q-17 19 -9.5 33.5t32.5 14.5h317q30 0 47 -25l76 -104q7 -11 23 -7l161 39q39 9 48 -26l30 -125q9 -38 -28 -47l-84 -21q-18 -4 -5 -26q108 -171 150 -328zM645 342q27 52 27 113q0 54 -27 106q-38 68 -104 68q-72 0 -107 -68q-24 -49 -24 -106
q0 -59 26 -113q37 -72 105 -72q64 0 104 72z" />
    <glyph glyph-name="ntilde" unicode="&#xf1;" 
d="M510 1231q-37 0 -61 -27q-25 -32 -54 -12l-100 72q-28 19 -16 53q29 75 83.5 116.5t120.5 41.5q37 0 67.5 -12.5t72.5 -37.5q54 -30 94 -30q34 0 55 24q26 32 53 13l103 -72q28 -22 14 -53q-39 -78 -97.5 -117t-119.5 -39q-63 0 -141 51q-45 29 -74 29zM707 1081
q157 0 259.5 -102.5t102.5 -280.5v-659q0 -39 -39 -39h-307q-39 0 -39 39v575q0 61 -32 99.5t-83 38.5q-52 0 -84 -38t-32 -100v-575q0 -39 -39 -39h-308q-38 0 -38 39v987q0 39 38 39h308q39 0 39 -39v-53q0 -11 5 -14t11 6q76 116 238 116z" />
    <glyph glyph-name="ograve" unicode="&#xf2;" horiz-adv-x="1142" 
d="M725 1233q10 -22 2 -34.5t-31 -12.5h-243q-29 0 -47 24l-134 176q-14 19 -6.5 33.5t31.5 14.5h291q30 0 45 -29zM571 -16q-194 0 -328 105t-177 282q-21 77 -21 164q0 96 25 182q48 169 180.5 266.5t322.5 97.5t321 -97t179 -263q25 -89 25 -182q0 -73 -17 -156
q-42 -184 -176.5 -291.5t-333.5 -107.5zM571 313q103 0 131 131q9 44 9 93q0 41 -11 94q-29 121 -129 121q-102 0 -129 -121q-10 -36 -10 -94q0 -54 8 -93q30 -131 131 -131z" />
    <glyph glyph-name="oacute" unicode="&#xf3;" horiz-adv-x="1142" 
d="M442 1186q-23 0 -30.5 12.5t2.5 34.5l92 172q14 29 45 29h291q24 0 31 -14.5t-7 -33.5l-133 -176q-18 -24 -47 -24h-244zM571 -16q-194 0 -328 105t-177 282q-21 77 -21 164q0 96 25 182q48 169 180.5 266.5t322.5 97.5t321 -97t179 -263q25 -89 25 -182q0 -73 -17 -156
q-42 -184 -176.5 -291.5t-333.5 -107.5zM571 313q103 0 131 131q9 44 9 93q0 41 -11 94q-29 121 -129 121q-102 0 -129 -121q-10 -36 -10 -94q0 -54 8 -93q30 -131 131 -131z" />
    <glyph glyph-name="ocircumflex" unicode="&#xf4;" horiz-adv-x="1142" 
d="M256 1186q-23 0 -30.5 13.5t5.5 33.5l138 192q17 25 47 25h305q32 0 49 -25l139 -192q13 -20 6 -33.5t-30 -13.5h-211q-31 0 -45 26l-45 80q-4 8 -12 8t-13 -8l-45 -80q-14 -26 -45 -26h-213zM571 -16q-194 0 -328 105t-177 282q-21 77 -21 164q0 96 25 182
q48 169 180.5 266.5t322.5 97.5t321 -97t179 -263q25 -89 25 -182q0 -73 -17 -156q-42 -184 -176.5 -291.5t-333.5 -107.5zM571 313q103 0 131 131q9 44 9 93q0 41 -11 94q-29 121 -129 121q-102 0 -129 -121q-10 -36 -10 -94q0 -54 8 -93q30 -131 131 -131z" />
    <glyph glyph-name="otilde" unicode="&#xf5;" horiz-adv-x="1142" 
d="M715 1167q-63 0 -142 52q-44 28 -73 28q-39 0 -62 -26q-26 -32 -53 -13l-100 72q-29 19 -17 53q29 75 84 116.5t121 41.5q26 0 51.5 -7.5t42.5 -16t45 -25.5q55 -31 95 -31q33 0 55 25q25 31 53 12l103 -72q29 -23 4 -69q-38 -69 -94 -104.5t-113 -35.5zM571 -16
q-194 0 -328 105t-177 282q-21 77 -21 164q0 96 25 182q48 169 180.5 266.5t322.5 97.5t321 -97t179 -263q25 -89 25 -182q0 -73 -17 -156q-42 -184 -176.5 -291.5t-333.5 -107.5zM571 313q103 0 131 131q9 44 9 93q0 41 -11 94q-29 121 -129 121q-102 0 -129 -121
q-10 -36 -10 -94q0 -54 8 -93q30 -131 131 -131z" />
    <glyph glyph-name="odieresis" unicode="&#xf6;" horiz-adv-x="1142" 
d="M360 1145q-78 0 -128 49.5t-50 128.5t50 128.5t128 49.5t126.5 -49.5t48.5 -128.5t-48.5 -128.5t-126.5 -49.5zM784 1145q-79 0 -127.5 49t-48.5 129t48.5 129t127.5 49t128 -49t49 -129t-49 -129t-128 -49zM571 -16q-194 0 -328 105t-177 282q-21 77 -21 164
q0 96 25 182q48 169 180.5 266.5t322.5 97.5t321 -97t179 -263q25 -89 25 -182q0 -73 -17 -156q-42 -184 -176.5 -291.5t-333.5 -107.5zM571 313q103 0 131 131q9 44 9 93q0 41 -11 94q-29 121 -129 121q-102 0 -129 -121q-10 -36 -10 -94q0 -54 8 -93q30 -131 131 -131z
" />
    <glyph glyph-name="divide" unicode="&#xf7;" horiz-adv-x="974" 
d="M487 823q-67 0 -115 48t-48 116q0 66 48 114t115 48q66 0 114 -48t48 -114q0 -67 -48 -115.5t-114 -48.5zM84 455q-39 0 -39 39v249q0 39 39 39h807q39 0 39 -39v-249q0 -39 -39 -39h-807zM487 98q-67 0 -115 48t-48 116q0 66 48 114t115 48q66 0 114 -48t48 -114
q0 -67 -48 -115.5t-114 -48.5z" />
    <glyph glyph-name="oslash" unicode="&#xf8;" horiz-adv-x="1142" 
d="M1073 721q25 -89 25 -182q0 -73 -17 -156q-42 -184 -176.5 -291.5t-333.5 -107.5q-128 0 -231 47q-14 6 -23 -6l-57 -80q-21 -34 -53 -8l-53 38q-31 22 -9 54l56 77q9 12 -2 23q-96 92 -133 242q-21 77 -21 164q0 96 25 182q48 169 180.5 266.5t322.5 97.5q143 0 254 -57
q14 -6 23 6l63 88q21 34 54 8l53 -39q30 -21 8 -53l-63 -92q-7 -15 0 -22q74 -83 108 -199zM432 537q0 -42 4 -62q1 -10 8 -11.5t13 7.5l174 246q10 16 -4 22q-26 13 -56 13q-102 0 -129 -121q-10 -36 -10 -94zM702 444q9 44 9 93v10q0 12 -7.5 13.5t-13.5 -7.5l-151 -215
q-12 -20 6 -23q8 -2 26 -2q103 0 131 131z" />
    <glyph glyph-name="ugrave" unicode="&#xf9;" 
d="M715 1217q10 -22 2 -35t-31 -13h-244q-28 0 -47 25l-133 176q-14 19 -6.5 33t31.5 14h291q31 0 45 -28zM678 1026q0 39 39 39h307q39 0 39 -39v-987q0 -39 -39 -39h-307q-39 0 -39 39v49q0 11 -6.5 13t-12.5 -7q-82 -110 -256 -110q-156 0 -248 101t-92 282v659
q0 39 39 39h308q39 0 39 -39v-575q0 -62 31.5 -100t82.5 -38q42 0 73 27t40 72q2 8 2 20v594z" />
    <glyph glyph-name="uacute" unicode="&#xfa;" 
d="M831 1417q24 0 31.5 -14t-6.5 -33l-133 -176q-19 -25 -47 -25h-244q-23 0 -31 13t2 35l93 172q14 28 45 28h290zM678 1026q0 39 39 39h307q39 0 39 -39v-987q0 -39 -39 -39h-307q-39 0 -39 39v49q0 11 -6.5 13t-12.5 -7q-82 -110 -256 -110q-156 0 -248 101t-92 282v659
q0 39 39 39h308q39 0 39 -39v-575q0 -62 31.5 -100t82.5 -38q42 0 73 27t40 72q2 8 2 20v594z" />
    <glyph glyph-name="ucircumflex" unicode="&#xfb;" 
d="M573 1276q-5 8 -12 8t-12 -8l-45 -80q-15 -27 -45 -27h-213q-23 0 -30.5 14t5.5 34l137 192q17 25 48 25h305q32 0 49 -25l139 -192q13 -20 5.5 -34t-30.5 -14h-210q-31 0 -46 27zM678 1026q0 39 39 39h307q39 0 39 -39v-987q0 -39 -39 -39h-307q-39 0 -39 39v49
q0 11 -6.5 13t-12.5 -7q-82 -110 -256 -110q-156 0 -248 101t-92 282v659q0 39 39 39h308q39 0 39 -39v-575q0 -62 31.5 -100t82.5 -38q42 0 73 27t40 72q2 8 2 20v594z" />
    <glyph glyph-name="udieresis" unicode="&#xfc;" 
d="M350 1128q-78 0 -128 50t-50 129t50 128.5t128 49.5t126 -49t48 -129t-48 -129.5t-126 -49.5zM774 1128q-79 0 -127.5 49.5t-48.5 129.5t48.5 129t127.5 49t127.5 -49t48.5 -129t-48.5 -129.5t-127.5 -49.5zM678 1026q0 39 39 39h307q39 0 39 -39v-987q0 -39 -39 -39
h-307q-39 0 -39 39v49q0 11 -6.5 13t-12.5 -7q-82 -110 -256 -110q-156 0 -248 101t-92 282v659q0 39 39 39h308q39 0 39 -39v-575q0 -62 31.5 -100t82.5 -38q42 0 73 27t40 72q2 8 2 20v594z" />
    <glyph glyph-name="yacute" unicode="&#xfd;" horiz-adv-x="1093" 
d="M416 1196q-23 0 -31 12.5t2 34.5l92 172q15 29 45 29h291q24 0 31.5 -14t-6.5 -33l-133 -176q-19 -25 -48 -25h-243zM90 -408q-14 0 -14 39v238q0 39 12 39h10q133 0 190 15.5t64 66.5q2 8 -2 20l-317 1010q-6 21 3 33t30 12h327q37 0 43 -35l103 -469q3 -10 10 -9.5
t10 11.5l96 467q6 35 43 35h330q21 0 30 -12t3 -33l-332 -1024q-26 -78 -49 -129t-57.5 -101t-76.5 -79t-104.5 -52.5t-145 -33t-192.5 -9.5h-14z" />
    <glyph glyph-name="thorn" unicode="&#xfe;" horiz-adv-x="1124" 
d="M1059 799q45 -115 45 -262q0 -128 -31 -230q-45 -149 -154.5 -236t-246.5 -87q-123 0 -195 63q-18 14 -18 -8v-410q0 -39 -39 -39h-307q-39 0 -39 39v1766q0 39 39 39h307q39 0 39 -39v-355q0 -9 5.5 -11.5t12.5 3.5q71 49 178 49q145 0 250 -79t154 -203zM670 381
q30 59 30 149q0 96 -30 154q-36 68 -109 68q-59 0 -96 -50q-6 -9 -6 -18v-301q0 -9 6 -21q36 -49 96 -49q71 0 109 68z" />
    <glyph glyph-name="ydieresis" unicode="&#xff;" horiz-adv-x="1093" 
d="M334 1155q-78 0 -128 49.5t-50 128.5t50 128.5t128 49.5t126 -49t48 -129t-48 -129t-126 -49zM758 1155q-79 0 -127.5 49t-48.5 129t48.5 129t127.5 49t127.5 -49t48.5 -129t-48.5 -129t-127.5 -49zM90 -408q-14 0 -14 39v238q0 39 12 39h10q133 0 190 15.5t64 66.5
q2 8 -2 20l-317 1010q-6 21 3 33t30 12h327q37 0 43 -35l103 -469q3 -10 10 -9.5t10 11.5l96 467q6 35 43 35h330q21 0 30 -12t3 -33l-332 -1024q-26 -78 -49 -129t-57.5 -101t-76.5 -79t-104.5 -52.5t-145 -33t-192.5 -9.5h-14z" />
    <glyph glyph-name="Amacron" unicode="&#x100;" horiz-adv-x="1462" 
d="M1008 1786q39 0 39 -39v-178q0 -39 -39 -39h-559q-39 0 -39 39v178q0 39 39 39h559zM1047 0q-34 0 -43 33l-41 147q-4 15 -19 15h-426q-14 0 -18 -15l-41 -147q-9 -33 -43 -33h-332q-21 0 -30 12t-3 33l426 1356q10 33 43 33h422q33 0 43 -33l426 -1356q6 -21 -3 -33
t-30 -12h-331zM590 508q-2 -8 2.5 -13.5t11.5 -5.5h254q7 0 11.5 5.5t2.5 13.5l-131 473q-2 7 -6 9.5t-8 0t-6 -9.5z" />
    <glyph glyph-name="amacron" unicode="&#x101;" horiz-adv-x="1105" 
d="M819 1434q39 0 39 -39v-178q0 -39 -39 -39h-559q-39 0 -39 39v178q0 39 39 39h559zM530 1081q213 0 360.5 -103t147.5 -251v-688q0 -39 -39 -39h-307q-39 0 -39 39v37q0 11 -5.5 13t-12.5 -7q-68 -98 -250 -98q-168 0 -264 76.5t-96 224.5q0 155 109 239t319 84h184
q16 0 16 17v30q0 43 -31.5 70t-84.5 27q-77 0 -103 -41q-9 -12 -13 -16.5t-12.5 -8t-19.5 -2.5l-315 41q-38 3 -35 31q14 140 151.5 232.5t339.5 92.5zM504 250q66 0 107.5 34.5t41.5 94.5v20q0 17 -16 17h-96q-129 0 -129 -84q0 -36 23.5 -59t68.5 -23z" />
    <glyph glyph-name="Abreve" unicode="&#x102;" horiz-adv-x="1462" 
d="M727 1481q-105 0 -182.5 63t-91.5 158q-6 41 36 41h117q31 0 43 -35q7 -29 28.5 -46t49.5 -17t49.5 17t28.5 46q12 35 43 35h117q19 0 29.5 -10.5t9.5 -28.5q-15 -96 -93.5 -159.5t-183.5 -63.5zM1047 0q-34 0 -43 33l-41 147q-4 15 -19 15h-426q-14 0 -18 -15l-41 -147
q-9 -33 -43 -33h-332q-21 0 -30 12t-3 33l426 1356q10 33 43 33h422q33 0 43 -33l426 -1356q6 -21 -3 -33t-30 -12h-331zM590 508q-2 -8 2.5 -13.5t11.5 -5.5h254q7 0 11.5 5.5t2.5 13.5l-131 473q-2 7 -6 9.5t-8 0t-6 -9.5z" />
    <glyph glyph-name="abreve" unicode="&#x103;" horiz-adv-x="1105" 
d="M539 1128q-105 0 -183 63t-92 159q-3 20 7.5 30.5t29.5 10.5h117q31 0 43 -35q7 -29 28.5 -46.5t49.5 -17.5t48.5 17.5t28.5 46.5q12 35 43 35h117q19 0 29.5 -10.5t9.5 -28.5q-15 -96 -93 -160t-183 -64zM530 1081q213 0 360.5 -103t147.5 -251v-688q0 -39 -39 -39h-307
q-39 0 -39 39v37q0 11 -5.5 13t-12.5 -7q-68 -98 -250 -98q-168 0 -264 76.5t-96 224.5q0 155 109 239t319 84h184q16 0 16 17v30q0 43 -31.5 70t-84.5 27q-77 0 -103 -41q-9 -12 -13 -16.5t-12.5 -8t-19.5 -2.5l-315 41q-38 3 -35 31q14 140 151.5 232.5t339.5 92.5z
M504 250q66 0 107.5 34.5t41.5 94.5v20q0 17 -16 17h-96q-129 0 -129 -84q0 -36 23.5 -59t68.5 -23z" />
    <glyph glyph-name="Aogonek" unicode="&#x104;" horiz-adv-x="1462" 
d="M1337 0q-8 0 -20 -6q-149 -95 -127 -156q6 -20 26 -27t46 -1q22 7 33 2.5t14 -25.5l14 -119q3 -36 -25 -47q-41 -16 -89.5 -22.5t-102 -1t-97.5 39.5t-61 95q-38 129 96 248q18 16 15 20h-12q-34 0 -43 33l-41 147q-4 15 -19 15h-426q-14 0 -18 -15l-41 -147
q-9 -33 -43 -33h-332q-21 0 -30 12t-3 33l426 1356q10 33 43 33h422q33 0 43 -33l426 -1356q6 -21 -3 -33t-30 -12h-41zM590 508q-2 -8 2.5 -13.5t11.5 -5.5h254q7 0 11.5 5.5t2.5 13.5l-131 473q-2 7 -6 9.5t-8 0t-6 -9.5z" />
    <glyph glyph-name="aogonek" unicode="&#x105;" horiz-adv-x="1228" 
d="M926 -162q6 -20 25.5 -27t45.5 -1q22 7 33 2.5t14 -25.5l15 -119q3 -36 -25 -47q-41 -16 -89.5 -22.5t-102 -1t-97.5 39.5t-61 95q-38 129 96 248q9 8 7 14t-13 6h-82q-39 0 -39 39v37q0 11 -5.5 13t-12.5 -7q-68 -98 -250 -98q-168 0 -264 76.5t-96 224.5q0 155 109 239
t319 84h184q16 0 16 17v30q0 43 -31.5 70t-84.5 27q-77 0 -103 -41q-9 -12 -13 -16.5t-12.5 -8t-19.5 -2.5l-315 41q-38 3 -35 41q21 135 157.5 225t333.5 90q213 0 360.5 -103t147.5 -251v-717q0 -14 -4 -18q-2 -2 -32 -29.5t-50 -48.5q-39 -45 -26 -76zM504 250
q66 0 107.5 34.5t41.5 94.5v20q0 17 -16 17h-96q-129 0 -129 -84q0 -36 23.5 -59t68.5 -23z" />
    <glyph glyph-name="Cacute" unicode="&#x106;" horiz-adv-x="1247" 
d="M498 1554q-23 0 -31 13t2 35l92 172q14 28 45 28h291q24 0 31.5 -14t-6.5 -33l-134 -176q-19 -25 -47 -25h-243zM627 -16q-255 0 -410.5 145t-155.5 383v414q0 236 155.5 380t410.5 144t410 -135.5t155 -358.5q0 -19 -37 -22l-307 -21q-18 -1 -29.5 2.5t-11.5 8.5v12
q0 83 -49 133.5t-131 50.5t-131.5 -50.5t-49.5 -133.5v-440q0 -82 49.5 -132.5t131.5 -50.5q81 0 130.5 50.5t49.5 132.5q0 11 11.5 17t29.5 5l307 -16q37 -3 37 -10v-11q0 -224 -155 -360.5t-410 -136.5z" />
    <glyph glyph-name="cacute" unicode="&#x107;" horiz-adv-x="1124" 
d="M440 1186q-23 0 -30.5 12.5t2.5 34.5l92 172q14 29 45 29h291q24 0 31 -14.5t-7 -33.5l-133 -176q-18 -24 -47 -24h-244zM578 -16q-173 0 -303 85t-189 236q-41 105 -41 234t41 231q57 146 188.5 228.5t303.5 82.5q175 0 308.5 -86.5t180.5 -218.5q15 -44 18 -69
q3 -37 -34 -43l-301 -48q-40 -6 -43 25q-1 6 -4.5 16t-4.5 13q-11 35 -45 58.5t-78 23.5q-81 0 -116 -74q-25 -55 -25 -141q0 -81 23 -142q36 -82 118 -82q85 0 119 84l4 13q2 10 15.5 22.5t29.5 9.5l304 -49q38 -7 32 -43q-4 -30 -12 -55q-53 -149 -185 -230t-304 -81z" />
    <glyph glyph-name="Cdotaccent" unicode="&#x10a;" horiz-adv-x="1247" 
d="M627 1513q-72 0 -116 45t-44 117q0 73 44 117.5t116 44.5t114.5 -44t42.5 -118q0 -73 -43 -117.5t-114 -44.5zM627 -16q-255 0 -410.5 145t-155.5 383v414q0 236 155.5 380t410.5 144t410 -135.5t155 -358.5q0 -19 -37 -22l-307 -21q-18 -1 -29.5 2.5t-11.5 8.5v12
q0 83 -49 133.5t-131 50.5t-131.5 -50.5t-49.5 -133.5v-440q0 -82 49.5 -132.5t131.5 -50.5q81 0 130.5 50.5t49.5 132.5q0 11 11.5 17t29.5 5l307 -16q37 -3 37 -10v-11q0 -224 -155 -360.5t-410 -136.5z" />
    <glyph glyph-name="cdotaccent" unicode="&#x10b;" horiz-adv-x="1124" 
d="M569 1145q-72 0 -115.5 45t-43.5 117q0 73 43.5 117t115.5 44t115 -44t43 -117q0 -72 -43 -117t-115 -45zM578 -16q-173 0 -303 85t-189 236q-41 105 -41 234t41 231q57 146 188.5 228.5t303.5 82.5q175 0 308.5 -86.5t180.5 -218.5q15 -44 18 -69q3 -37 -34 -43
l-301 -48q-40 -6 -43 25q-1 6 -4.5 16t-4.5 13q-11 35 -45 58.5t-78 23.5q-81 0 -116 -74q-25 -55 -25 -141q0 -81 23 -142q36 -82 118 -82q85 0 119 84l4 13q2 10 15.5 22.5t29.5 9.5l304 -49q38 -7 32 -43q-4 -30 -12 -55q-53 -149 -185 -230t-304 -81z" />
    <glyph glyph-name="Ccaron" unicode="&#x10c;" horiz-adv-x="1247" 
d="M455 1542q-32 0 -47 27l-117 190q-12 20 -4.5 33.5t30.5 13.5h207q31 0 45 -26l45 -80q5 -8 12.5 -8t12.5 8l45 80q14 26 45 26h205q23 0 29.5 -13.5t-5.5 -33.5l-120 -190q-17 -27 -47 -27h-336zM627 -16q-255 0 -410.5 145t-155.5 383v414q0 236 155.5 380t410.5 144
t410 -135.5t155 -358.5q0 -19 -37 -22l-307 -21q-18 -1 -29.5 2.5t-11.5 8.5v12q0 83 -49 133.5t-131 50.5t-131.5 -50.5t-49.5 -133.5v-440q0 -82 49.5 -132.5t131.5 -50.5q81 0 130.5 50.5t49.5 132.5q0 11 11.5 17t29.5 5l307 -16q37 -3 37 -10v-11q0 -224 -155 -360.5
t-410 -136.5z" />
    <glyph glyph-name="ccaron" unicode="&#x10d;" horiz-adv-x="1124" 
d="M397 1174q-33 0 -47 26l-117 191q-12 20 -4 33.5t31 13.5h207q30 0 45 -27l45 -80q5 -7 13 -7t12 7l45 80q15 27 45 27h205q23 0 29.5 -13.5t-5.5 -33.5l-121 -191q-16 -26 -47 -26h-336zM578 -16q-173 0 -303 85t-189 236q-41 105 -41 234t41 231q57 146 188.5 228.5
t303.5 82.5q175 0 308.5 -86.5t180.5 -218.5q15 -44 18 -69q3 -37 -34 -43l-301 -48q-40 -6 -43 25q-1 6 -4.5 16t-4.5 13q-11 35 -45 58.5t-78 23.5q-81 0 -116 -74q-25 -55 -25 -141q0 -81 23 -142q36 -82 118 -82q85 0 119 84l4 13q2 10 15.5 22.5t29.5 9.5l304 -49
q38 -7 32 -43q-4 -30 -12 -55q-53 -149 -185 -230t-304 -81z" />
    <glyph glyph-name="Dcaron" unicode="&#x10e;" horiz-adv-x="1265" 
d="M428 1536q-32 0 -47 27l-117 190q-12 20 -4 33.5t31 13.5h207q31 0 45 -26l45 -80q4 -8 12 -8t12 8l45 80q14 26 45 26h205q23 0 30 -13.5t-5 -33.5l-121 -190q-17 -27 -47 -27h-336zM119 0q-39 0 -39 39v1356q0 39 39 39h518q252 0 406.5 -127t154.5 -334v-512
q0 -207 -154.5 -334t-406.5 -127h-518zM465 346q0 -16 16 -16h170q69 0 114 53.5t48 142.5v381q0 89 -45 143t-119 54h-168q-16 0 -16 -17v-741z" />
    <glyph glyph-name="dcaron" unicode="&#x10f;" horiz-adv-x="1556" 
d="M1538 1417q24 0 31.5 -14t-6.5 -33l-133 -176q-19 -25 -48 -25h-278q-17 0 -17 -16v-1114q0 -39 -38 -39h-308q-39 0 -39 39v43q0 10 -6 11.5t-12 -7.5q-79 -102 -231 -102q-137 0 -247 87t-155 236q-31 102 -31 230q0 145 46 262q49 125 153.5 203.5t249.5 78.5t215 -86
q8 -7 13 -4.5t5 13.5v391q0 39 39 39h308q38 0 38 -39v-181q0 -12 7.5 -13.5t13.5 9.5l94 179q14 28 45 28h291zM672 383q30 58 30 147q0 101 -32 158q-38 64 -107 64q-72 0 -108 -68q-31 -60 -31 -154q0 -89 31 -149q38 -68 108 -68q72 0 109 70z" />
    <glyph glyph-name="Dcroat" unicode="&#x110;" horiz-adv-x="1351" 
d="M723 1434q252 0 406.5 -127t154.5 -334v-512q0 -207 -154.5 -334t-406.5 -127h-518q-39 0 -39 39v551q0 16 -16 16h-31q-39 0 -39 39v178q0 39 39 39h31q16 0 16 17v516q0 39 39 39h518zM899 526v381q0 89 -45 143t-119 54h-168q-16 0 -16 -17v-208q0 -17 16 -17h92
q39 0 39 -39v-178q0 -39 -39 -39h-92q-16 0 -16 -16v-244q0 -16 16 -16h170q69 0 114 53.5t48 142.5z" />
    <glyph glyph-name="dcroat" unicode="&#x111;" horiz-adv-x="1228" 
d="M1145 1348q39 0 39 -39v-148q0 -39 -39 -39h-41q-17 0 -17 -16v-1067q0 -39 -38 -39h-308q-39 0 -39 39v43q0 10 -6 11.5t-12 -7.5q-79 -102 -231 -102q-137 0 -247 87t-155 236q-31 102 -31 230q0 145 46 262q49 125 153.5 203.5t249.5 78.5t215 -86q8 -7 13 -4.5
t5 13.5v102q0 16 -16 16h-237q-39 0 -39 39v148q0 39 39 39h237q16 0 16 16v31q0 39 39 39h308q38 0 38 -39v-31q0 -16 17 -16h41zM672 383q30 58 30 147q0 101 -32 158q-38 64 -107 64q-72 0 -108 -68q-31 -60 -31 -154q0 -89 31 -149q38 -68 108 -68q72 0 109 70z" />
    <glyph glyph-name="Emacron" unicode="&#x112;" horiz-adv-x="1167" 
d="M877 1812q38 0 38 -38v-179q0 -39 -38 -39h-560q-38 0 -38 39v179q0 38 38 38h560zM1118 1143q0 -39 -39 -39h-598q-16 0 -16 -17v-180q0 -16 16 -16h365q39 0 39 -39v-250q0 -39 -39 -39h-365q-16 0 -16 -16v-201q0 -16 16 -16h598q39 0 39 -39v-252q0 -39 -39 -39h-960
q-39 0 -39 39v1356q0 39 39 39h960q39 0 39 -39v-252z" />
    <glyph glyph-name="emacron" unicode="&#x113;" horiz-adv-x="1138" 
d="M846 1434q39 0 39 -39v-178q0 -39 -39 -39h-559q-39 0 -39 39v178q0 39 39 39h559zM647 309q121 7 184 58q32 26 54 -5l139 -192q20 -29 -4 -53q-144 -133 -406 -133q-153 0 -271 54.5t-191 154.5q-103 144 -103 348q0 85 23 172q46 165 184.5 266.5t321.5 101.5
q210 0 341.5 -136.5t172.5 -371.5q9 -50 12 -98q0 -39 -39 -39h-608q-18 0 -15 -18q10 -25 11 -27q42 -89 194 -82zM569 752q-84 0 -116 -82q-4 -8 -7 -17q-3 -8 2 -13t13 -5h221q20 0 14 18q-1 3 -3 8.5t-3 8.5q-33 82 -121 82z" />
    <glyph glyph-name="Edotaccent" unicode="&#x116;" horiz-adv-x="1167" 
d="M596 1524q-72 0 -116 45t-44 117q0 73 44 117t116 44t115 -44t43 -117q0 -72 -43 -117t-115 -45zM1118 1143q0 -39 -39 -39h-598q-16 0 -16 -17v-180q0 -16 16 -16h365q39 0 39 -39v-250q0 -39 -39 -39h-365q-16 0 -16 -16v-201q0 -16 16 -16h598q39 0 39 -39v-252
q0 -39 -39 -39h-960q-39 0 -39 39v1356q0 39 39 39h960q39 0 39 -39v-252z" />
    <glyph glyph-name="edotaccent" unicode="&#x117;" horiz-adv-x="1138" 
d="M565 1145q-72 0 -115.5 45t-43.5 117q0 73 43.5 117t115.5 44t115 -44t43 -117q0 -72 -43 -117t-115 -45zM647 309q121 7 184 58q32 26 54 -5l139 -192q20 -29 -4 -53q-144 -133 -406 -133q-153 0 -271 54.5t-191 154.5q-103 144 -103 348q0 85 23 172
q46 165 184.5 266.5t321.5 101.5q210 0 341.5 -136.5t172.5 -371.5q9 -50 12 -98q0 -39 -39 -39h-608q-18 0 -15 -18q10 -25 11 -27q42 -89 194 -82zM569 752q-84 0 -116 -82q-4 -8 -7 -17q-3 -8 2 -13t13 -5h221q20 0 14 18q-1 3 -3 8.5t-3 8.5q-33 82 -121 82z" />
    <glyph glyph-name="Eogonek" unicode="&#x118;" horiz-adv-x="1167" 
d="M1118 1143q0 -39 -39 -39h-598q-16 0 -16 -17v-180q0 -16 16 -16h365q39 0 39 -39v-250q0 -39 -39 -39h-365q-16 0 -16 -16v-201q0 -16 16 -16h598q39 0 39 -39v-252q0 -39 -39 -39h-346q-11 0 -22 -8q-89 -73 -72 -117q6 -20 26.5 -27.5t45.5 -1.5q22 7 33 3t14 -25
l14 -119q3 -36 -24 -47q-41 -16 -89.5 -22.5t-102.5 -1t-98 39.5t-61 95q-30 108 62 211q13 20 -8 20h-332q-39 0 -39 39v1356q0 39 39 39h960q39 0 39 -39v-252z" />
    <glyph glyph-name="eogonek" unicode="&#x119;" horiz-adv-x="1138" 
d="M647 309q121 7 184 58q32 26 54 -5l139 -192q20 -29 -4 -53q-106 -97 -277 -123q-10 -2 -18 -8q-111 -79 -92 -131q6 -20 26.5 -27.5t45.5 -1.5q22 7 33 2.5t14 -25.5l14 -118q3 -36 -25 -47q-32 -12 -69 -19.5t-81.5 -7t-83 12.5t-70.5 43.5t-46 80.5q-35 116 78 229
q14 18 -6 21q-199 46 -311 195q-103 144 -103 348q0 85 23 172q46 165 184.5 266.5t321.5 101.5q210 0 341.5 -136.5t172.5 -371.5q9 -50 12 -98q0 -39 -39 -39h-608q-18 0 -15 -18q10 -25 11 -27q42 -89 194 -82zM569 752q-84 0 -116 -82q-4 -8 -7 -17q-3 -8 2 -13t13 -5
h221q20 0 14 18q-1 3 -3 8.5t-3 8.5q-33 82 -121 82z" />
    <glyph glyph-name="Ecaron" unicode="&#x11a;" horiz-adv-x="1167" 
d="M807 1579q-17 -27 -47 -27h-336q-32 0 -47 27l-117 190q-12 20 -4 34t31 14h207q30 0 45 -27l45 -80q5 -8 12.5 -8t11.5 8l45 80q15 27 45 27h205q23 0 30 -14t-5 -34zM1118 1143q0 -39 -39 -39h-598q-16 0 -16 -17v-180q0 -16 16 -16h365q39 0 39 -39v-250
q0 -39 -39 -39h-365q-16 0 -16 -16v-201q0 -16 16 -16h598q39 0 39 -39v-252q0 -39 -39 -39h-960q-39 0 -39 39v1356q0 39 39 39h960q39 0 39 -39v-252z" />
    <glyph glyph-name="ecaron" unicode="&#x11b;" horiz-adv-x="1138" 
d="M776 1200q-16 -26 -47 -26h-336q-33 0 -47 26l-117 191q-12 20 -4 33.5t31 13.5h207q30 0 45 -27l45 -80q5 -7 13 -7t12 7l45 80q15 27 45 27h204q23 0 30 -13.5t-5 -33.5zM647 309q121 7 184 58q32 26 54 -5l139 -192q20 -29 -4 -53q-144 -133 -406 -133
q-153 0 -271 54.5t-191 154.5q-103 144 -103 348q0 85 23 172q46 165 184.5 266.5t321.5 101.5q210 0 341.5 -136.5t172.5 -371.5q9 -50 12 -98q0 -39 -39 -39h-608q-18 0 -15 -18q10 -25 11 -27q42 -89 194 -82zM569 752q-84 0 -116 -82q-4 -8 -7 -17q-3 -8 2 -13t13 -5
h221q20 0 14 18q-1 3 -3 8.5t-3 8.5q-33 82 -121 82z" />
    <glyph glyph-name="Gbreve" unicode="&#x11e;" horiz-adv-x="1245" 
d="M627 1497q-106 0 -183.5 63t-91.5 158q-3 20 7.5 30.5t29.5 10.5h117q31 0 43 -35q7 -29 28.5 -46t49.5 -17t49.5 17t28.5 46q12 35 43 35h116q19 0 29.5 -10.5t9.5 -28.5q-15 -96 -93 -159.5t-183 -63.5zM627 -16q-255 0 -410.5 148.5t-155.5 391.5v387q0 243 155.5 391
t410.5 148q124 0 230 -38t178.5 -103.5t113.5 -153.5t41 -186q0 -33 -39 -33h-305q-39 0 -39 10v8q0 69 -48 117.5t-132 48.5q-82 0 -131.5 -54.5t-49.5 -143.5v-410q0 -88 57 -143.5t140 -55.5q76 0 124 42t48 116v21q0 16 -16 16h-166q-39 0 -39 39v229q0 39 39 39h518
q39 0 39 -39v-272q0 -231 -155 -375.5t-408 -144.5z" />
    <glyph glyph-name="gbreve" unicode="&#x11f;" horiz-adv-x="1165" 
d="M612 1130q-105 0 -182.5 63t-91.5 159q-3 20 7.5 30.5t29.5 10.5h117q31 0 43 -35q8 -29 28.5 -46.5t48.5 -17.5t49.5 17.5t28.5 46.5q12 35 43 35h117q19 0 29.5 -10.5t9.5 -28.5q-15 -96 -93.5 -160t-183.5 -64zM713 1026q0 39 39 39h307q39 0 39 -39v-887
q0 -109 -27 -197t-73 -146.5t-110 -100t-134.5 -62.5t-151.5 -29t-155.5 -4t-151.5 17q-36 6 -33 43l12 260q3 43 45 31q69 -16 131 -18t116 10t91 46t50 87q3 10 -7.5 15t-19.5 -1q-69 -53 -184 -53q-327 0 -418 266q-35 101 -35 240q0 151 43 258q50 128 155 204t242 76
t211 -77q8 -8 13.5 -6t5.5 12v16zM692 403q21 55 21 142q0 80 -23 133q-36 74 -117 74q-69 0 -108 -72q-33 -56 -33 -141q0 -81 27 -133q39 -72 119 -72q82 0 114 69z" />
    <glyph glyph-name="Gdotaccent" unicode="&#x120;" horiz-adv-x="1245" 
d="M627 1513q-72 0 -116 45t-44 117q0 73 44 117.5t116 44.5t114.5 -44t42.5 -118q0 -73 -43 -117.5t-114 -44.5zM627 -16q-255 0 -410.5 148.5t-155.5 391.5v387q0 243 155.5 391t410.5 148q124 0 230 -38t178.5 -103.5t113.5 -153.5t41 -186q0 -33 -39 -33h-305
q-39 0 -39 10v8q0 69 -48 117.5t-132 48.5q-82 0 -131.5 -54.5t-49.5 -143.5v-410q0 -88 57 -143.5t140 -55.5q76 0 124 42t48 116v21q0 16 -16 16h-166q-39 0 -39 39v229q0 39 39 39h518q39 0 39 -39v-272q0 -231 -155 -375.5t-408 -144.5z" />
    <glyph glyph-name="gdotaccent" unicode="&#x121;" horiz-adv-x="1165" 
d="M612 1147q-72 0 -115.5 45t-43.5 117q0 73 43.5 117t115.5 44t115 -44t43 -117q0 -72 -43 -117t-115 -45zM713 1026q0 39 39 39h307q39 0 39 -39v-887q0 -109 -27 -197t-73 -146.5t-110 -100t-134.5 -62.5t-151.5 -29t-155.5 -4t-151.5 17q-36 6 -33 43l12 260
q3 43 45 31q69 -16 131 -18t116 10t91 46t50 87q3 10 -7.5 15t-19.5 -1q-69 -53 -184 -53q-327 0 -418 266q-35 101 -35 240q0 151 43 258q50 128 155 204t242 76t211 -77q8 -8 13.5 -6t5.5 12v16zM692 403q21 55 21 142q0 80 -23 133q-36 74 -117 74q-69 0 -108 -72
q-33 -56 -33 -141q0 -81 27 -133q39 -72 119 -72q82 0 114 69z" />
    <glyph glyph-name="uni0122" unicode="&#x122;" horiz-adv-x="1245" 
d="M627 -16q-255 0 -410.5 148.5t-155.5 391.5v387q0 243 155.5 391t410.5 148q124 0 230 -38t178.5 -103.5t113.5 -153.5t41 -186q0 -33 -39 -33h-305q-39 0 -39 10v8q0 69 -48 117.5t-132 48.5q-82 0 -131.5 -54.5t-49.5 -143.5v-410q0 -88 57 -143.5t140 -55.5
q76 0 124 42t48 116v21q0 16 -16 16h-166q-39 0 -39 39v229q0 39 39 39h518q39 0 39 -39v-272q0 -231 -155 -375.5t-408 -144.5zM395 -367q-23 0 -31 13t3 35l92 172q14 28 45 28h291q24 0 31 -14t-7 -33l-133 -176q-19 -25 -47 -25h-244z" />
    <glyph glyph-name="uni0123" unicode="&#x123;" horiz-adv-x="1165" 
d="M844 1434q23 0 31 -13t-3 -35l-92 -172q-14 -28 -45 -28h-291q-24 0 -31 14t7 33l133 176q19 25 47 25h244zM713 1026q0 39 39 39h307q39 0 39 -39v-887q0 -109 -27 -197t-73 -146.5t-110 -100t-134.5 -62.5t-151.5 -29t-155.5 -4t-151.5 17q-36 6 -33 43l12 260
q3 43 45 31q69 -16 131 -18t116 10t91 46t50 87q3 10 -7.5 15t-19.5 -1q-69 -53 -184 -53q-327 0 -418 266q-35 101 -35 240q0 151 43 258q50 128 155 204t242 76t211 -77q8 -8 13.5 -6t5.5 12v16zM692 403q21 55 21 142q0 80 -23 133q-36 74 -117 74q-69 0 -108 -72
q-33 -56 -33 -141q0 -81 27 -133q39 -72 119 -72q82 0 114 69z" />
    <glyph glyph-name="Hbar" unicode="&#x126;" horiz-adv-x="1251" 
d="M1266 1292q39 0 39 -39v-178q0 -39 -39 -39h-60q-16 0 -16 -16v-981q0 -39 -39 -39h-307q-39 0 -39 39v506q0 16 -17 16h-307q-16 0 -16 -16v-506q0 -39 -39 -39h-307q-39 0 -39 39v981q0 16 -17 16h-59q-39 0 -39 39v178q0 39 39 39h59q17 0 17 17v86q0 39 39 39h307
q39 0 39 -39v-86q0 -17 16 -17h307q17 0 17 17v86q0 39 39 39h307q39 0 39 -39v-86q0 -17 16 -17h60zM788 891q17 0 17 16v113q0 16 -17 16h-307q-16 0 -16 -16v-113q0 -16 16 -16h307z" />
    <glyph glyph-name="hbar" unicode="&#x127;" 
d="M707 1081q157 0 259.5 -102.5t102.5 -280.5v-659q0 -39 -39 -39h-307q-39 0 -39 39v575q0 61 -32 99.5t-83 38.5q-52 0 -84 -38t-32 -100v-575q0 -39 -39 -39h-308q-38 0 -38 39v1057q0 16 -17 16h-59q-39 0 -39 39v147q0 39 39 39h59q17 0 17 17v41q0 39 38 39h308
q39 0 39 -39v-41q0 -17 16 -17h219q39 0 39 -39v-147q0 -39 -39 -39h-219q-16 0 -16 -16v-123q0 -11 5 -14t11 6q76 116 238 116z" />
    <glyph glyph-name="Imacron" unicode="&#x12a;" horiz-adv-x="544" 
d="M-6 1556q-39 0 -39 39v179q0 38 39 38h559q39 0 39 -38v-179q0 -39 -39 -39h-559zM119 0q-39 0 -39 39v1356q0 39 39 39h307q39 0 39 -39v-1356q0 -39 -39 -39h-307z" />
    <glyph glyph-name="imacron" unicode="&#x12b;" horiz-adv-x="522" 
d="M-29 1186q-39 0 -39 39v178q0 39 39 39h559q39 0 39 -39v-178q0 -39 -39 -39h-559zM104 0q-38 0 -38 39v987q0 39 38 39h308q39 0 39 -39v-987q0 -39 -39 -39h-308z" />
    <glyph glyph-name="Iogonek" unicode="&#x12e;" horiz-adv-x="546" 
d="M330 -162q6 -20 25.5 -27t45.5 -1q22 7 33.5 2.5t14.5 -25.5l14 -119q3 -36 -25 -47q-41 -16 -89.5 -22.5t-102 -1t-97.5 39.5t-61 95q-38 129 96 248q9 8 7 14t-13 6h-59q-39 0 -39 39v1356q0 39 39 39h307q39 0 39 -39v-1395q-18 -10 -57 -41q-93 -72 -78 -121z" />
    <glyph glyph-name="iogonek" unicode="&#x12f;" horiz-adv-x="501" 
d="M246 1153q-72 0 -116 45t-44 117q0 73 44 117.5t116 44.5t114.5 -44t42.5 -118q0 -73 -43 -117.5t-114 -44.5zM61 1026q0 39 39 39h308q38 0 38 -39v-987l-2 -39h-2q-76 -47 -112 -89t-25 -73q6 -20 26 -27t46 -1q22 7 33 2.5t14 -25.5l14 -119q3 -36 -24 -47
q-41 -16 -89.5 -22.5t-102.5 -1t-98 39.5t-61 95q-38 128 97 248q9 8 7 14t-13 6h-54q-39 0 -39 39v987z" />
    <glyph glyph-name="Idotaccent" unicode="&#x130;" horiz-adv-x="544" 
d="M272 1524q-72 0 -115.5 45t-43.5 117q0 73 43.5 117t115.5 44t115 -44t43 -117q0 -72 -43 -117t-115 -45zM119 0q-39 0 -39 39v1356q0 39 39 39h307q39 0 39 -39v-1356q0 -39 -39 -39h-307z" />
    <glyph glyph-name="dotlessi" unicode="&#x131;" horiz-adv-x="522" 
d="M104 0q-38 0 -38 39v987q0 39 38 39h308q39 0 39 -39v-987q0 -39 -39 -39h-308z" />
    <glyph glyph-name="ij" unicode="&#x133;" horiz-adv-x="1054" 
d="M276 1108q-99 0 -160 59.5t-61 155.5t61 155.5t160 59.5q100 0 161 -59t61 -156t-61 -156t-161 -59zM795 1098q-98 0 -160 62t-62 153q0 88 67 151.5t155 63.5q86 0 153.5 -63.5t67.5 -151.5q0 -90 -62.5 -152.5t-158.5 -62.5zM123 0q-39 0 -39 39v987q0 39 39 39h307
q39 0 39 -39v-987q0 -39 -39 -39h-307zM397 -414q-39 3 -39 41v242q0 39 43 39q119 -7 160 23t41 122v973q0 39 39 39h307q39 0 39 -39v-967q0 -99 -10.5 -169t-38 -125.5t-69.5 -89t-110 -55t-154.5 -29t-207.5 -5.5z" />
    <glyph glyph-name="uni0136" unicode="&#x136;" horiz-adv-x="1302" 
d="M119 0q-39 0 -39 39v1356q0 39 39 39h307q39 0 39 -39v-469q0 -11 7 -13t13 7l346 489q17 25 48 25h348q23 0 29.5 -14t-7.5 -34l-413 -577q-8 -12 -2 -23l434 -739q11 -20 3.5 -33.5t-30.5 -13.5h-346q-31 0 -45 27l-277 491q-5 9 -11 8.5t-11 -8.5l-80 -121
q-6 -12 -6 -20v-338q0 -39 -39 -39h-307zM395 -350q-23 0 -30.5 12.5t2.5 34.5l92 172q15 29 45 29h291q24 0 31 -14.5t-7 -33.5l-133 -176q-18 -24 -47 -24h-244z" />
    <glyph glyph-name="uni0137" unicode="&#x137;" horiz-adv-x="1136" 
d="M106 0q-38 0 -38 39v1356q0 39 38 39h308q39 0 39 -39v-568q0 -11 7 -13t13 7l162 219q19 25 47 25h350q25 0 32 -13.5t-7 -33.5l-252 -342q-8 -12 -2 -23l295 -608q9 -20 1 -32.5t-30 -12.5h-321q-34 0 -46 31l-159 379q-3 9 -10.5 10t-12.5 -8l-61 -103q-6 -12 -6 -20
v-250q0 -39 -39 -39h-308zM346 -350q-23 0 -31 12.5t2 34.5l93 172q14 29 45 29h290q24 0 31.5 -14.5t-6.5 -33.5l-133 -176q-18 -24 -47 -24h-244z" />
    <glyph glyph-name="Lacute" unicode="&#x139;" horiz-adv-x="1175" 
d="M141 1538q-23 0 -30.5 12.5t2.5 34.5l92 172q15 29 45 29h291q24 0 31 -14t-7 -33l-133 -176q-19 -25 -47 -25h-244zM119 0q-39 0 -39 39v1356q0 39 39 39h307q39 0 39 -39v-1049q0 -16 16 -16h619q39 0 39 -39v-252q0 -39 -39 -39h-981z" />
    <glyph glyph-name="lacute" unicode="&#x13a;" horiz-adv-x="532" 
d="M139 1538q-23 0 -30.5 12.5t2.5 34.5l92 172q15 29 45 29h291q24 0 31 -14t-7 -33l-133 -176q-19 -25 -47 -25h-244zM113 0q-39 0 -39 39v1356q0 39 39 39h307q39 0 39 -39v-1356q0 -39 -39 -39h-307z" />
    <glyph glyph-name="uni013B" unicode="&#x13b;" horiz-adv-x="1175" 
d="M119 0q-39 0 -39 39v1356q0 39 39 39h307q39 0 39 -39v-1049q0 -16 16 -16h619q39 0 39 -39v-252q0 -39 -39 -39h-981zM330 -350q-23 0 -31 12.5t2 34.5l92 172q15 29 45 29h291q24 0 31.5 -14.5t-6.5 -33.5l-133 -176q-18 -24 -48 -24h-243z" />
    <glyph glyph-name="uni013C" unicode="&#x13c;" horiz-adv-x="538" 
d="M113 0q-39 0 -39 39v1356q0 39 39 39h307q39 0 39 -39v-1356q0 -39 -39 -39h-307zM6 -350q-23 0 -31 12.5t2 34.5l93 172q14 29 45 29h291q24 0 31 -14.5t-7 -33.5l-133 -176q-18 -24 -47 -24h-244z" />
    <glyph glyph-name="Lcaron" unicode="&#x13d;" horiz-adv-x="1175" 
d="M98 1526q-33 0 -47 26l-117 191q-12 20 -4 33.5t31 13.5h207q30 0 45 -27l45 -80q4 -7 12.5 -7t12.5 7l45 80q15 27 45 27h205q23 0 29.5 -13.5t-5.5 -33.5l-121 -191q-16 -26 -47 -26h-336zM119 0q-39 0 -39 39v1356q0 39 39 39h307q39 0 39 -39v-1049q0 -16 16 -16h619
q39 0 39 -39v-252q0 -39 -39 -39h-981z" />
    <glyph glyph-name="lcaron" unicode="&#x13e;" horiz-adv-x="532" 
d="M96 1526q-33 0 -47 26l-117 191q-12 20 -4 33.5t31 13.5h207q30 0 45 -27l45 -80q4 -7 12.5 -7t12.5 7l45 80q15 27 45 27h204q23 0 30 -13.5t-5 -33.5l-121 -191q-16 -26 -47 -26h-336zM113 0q-39 0 -39 39v1356q0 39 39 39h307q39 0 39 -39v-1356q0 -39 -39 -39h-307z
" />
    <glyph glyph-name="Lslash" unicode="&#x141;" horiz-adv-x="1175" 
d="M465 346q0 -16 16 -16h619q39 0 39 -39v-252q0 -39 -39 -39h-981q-39 0 -39 39v270q0 11 -7 14t-14 -4l-100 -88q-30 -27 -53 2l-139 160q-25 31 4 56l301 264q8 5 8 20v662q0 39 39 39h307q39 0 39 -39v-310q0 -11 6.5 -13t13.5 5l303 266q32 28 56 -2l137 -159
q24 -29 -4 -54l-504 -444q-8 -8 -8 -20v-318z" />
    <glyph glyph-name="lslash" unicode="&#x142;" horiz-adv-x="532" 
d="M776 856q18 -35 -16 -53l-289 -154q-12 -6 -12 -18v-592q0 -39 -39 -39h-307q-39 0 -39 39v377q0 9 -7 13t-14 -1l-78 -43q-35 -18 -53 16l-90 174q-15 35 16 54l213 116q13 7 13 19v631q0 39 39 39h307q39 0 39 -39v-414q0 -9 6.5 -13t13.5 1l146 80q31 19 53 -17z" />
    <glyph glyph-name="Nacute" unicode="&#x143;" horiz-adv-x="1347" 
d="M522 1565q-23 0 -30.5 12.5t2.5 34.5l92 172q14 28 45 28h291q24 0 31 -14t-7 -33l-133 -176q-18 -24 -47 -24h-244zM119 0q-39 0 -39 39v1356q0 39 39 39h295q32 0 47 -27l403 -678q6 -9 13.5 -7.5t7.5 13.5l-2 660q0 39 39 39h307q39 0 39 -39v-1356q0 -39 -39 -39
h-295q-32 0 -47 27l-406 690q-6 11 -13 9.5t-7 -13.5l4 -674q0 -39 -39 -39h-307z" />
    <glyph glyph-name="nacute" unicode="&#x144;" 
d="M852 1417q24 0 31.5 -14t-6.5 -33l-134 -176q-19 -25 -47 -25h-243q-23 0 -31 13t2 35l92 172q14 28 45 28h291zM707 1081q157 0 259.5 -102.5t102.5 -280.5v-659q0 -39 -39 -39h-307q-39 0 -39 39v575q0 61 -32 99.5t-83 38.5q-52 0 -84 -38t-32 -100v-575
q0 -39 -39 -39h-308q-38 0 -38 39v987q0 39 38 39h308q39 0 39 -39v-53q0 -11 5 -14t11 6q76 116 238 116z" />
    <glyph glyph-name="uni0145" unicode="&#x145;" horiz-adv-x="1347" 
d="M119 0q-39 0 -39 39v1356q0 39 39 39h295q32 0 47 -27l403 -678q6 -9 13.5 -7.5t7.5 13.5l-2 660q0 39 39 39h307q39 0 39 -39v-1356q0 -39 -39 -39h-295q-32 0 -47 27l-406 690q-6 11 -13 9.5t-7 -13.5l4 -674q0 -39 -39 -39h-307zM440 -350q-23 0 -30.5 12.5t2.5 34.5
l92 172q14 29 45 29h291q24 0 31 -14.5t-7 -33.5l-133 -176q-18 -24 -47 -24h-244z" />
    <glyph glyph-name="uni0146" unicode="&#x146;" 
d="M707 1081q157 0 259.5 -102.5t102.5 -280.5v-659q0 -39 -39 -39h-307q-39 0 -39 39v575q0 61 -32 99.5t-83 38.5q-52 0 -84 -38t-32 -100v-575q0 -39 -39 -39h-308q-38 0 -38 39v987q0 39 38 39h308q39 0 39 -39v-53q0 -11 5 -14t11 6q76 116 238 116zM340 -350
q-23 0 -31 12.5t2 34.5l92 172q15 29 46 29h290q24 0 31.5 -14.5t-6.5 -33.5l-133 -176q-18 -24 -47 -24h-244z" />
    <glyph glyph-name="Ncaron" unicode="&#x147;" horiz-adv-x="1347" 
d="M479 1552q-32 0 -47 27l-117 190q-12 20 -4 34t31 14h207q30 0 45 -27l45 -80q5 -8 13 -8t12 8l45 80q15 27 45 27h204q23 0 30 -14t-5 -34l-121 -190q-17 -27 -47 -27h-336zM119 0q-39 0 -39 39v1356q0 39 39 39h295q32 0 47 -27l403 -678q6 -9 13.5 -7.5t7.5 13.5
l-2 660q0 39 39 39h307q39 0 39 -39v-1356q0 -39 -39 -39h-295q-32 0 -47 27l-406 690q-6 11 -13 9.5t-7 -13.5l4 -674q0 -39 -39 -39h-307z" />
    <glyph glyph-name="ncaron" unicode="&#x148;" 
d="M793 1184q-17 -27 -48 -27h-335q-33 0 -48 27l-116 190q-12 20 -4.5 33.5t30.5 13.5h207q31 0 45 -26l45 -80q5 -7 13 -7t12 7l45 80q14 26 45 26h205q23 0 29.5 -13.5t-5.5 -33.5zM707 1081q157 0 259.5 -102.5t102.5 -280.5v-659q0 -39 -39 -39h-307q-39 0 -39 39v575
q0 61 -32 99.5t-83 38.5q-52 0 -84 -38t-32 -100v-575q0 -39 -39 -39h-308q-38 0 -38 39v987q0 39 38 39h308q39 0 39 -39v-53q0 -11 5 -14t11 6q76 116 238 116z" />
    <glyph glyph-name="Eng" unicode="&#x14a;" horiz-adv-x="1347" 
d="M883 1395q0 39 39 39h307q39 0 39 -39v-1370v-25h-2q-5 -129 -33.5 -208t-98.5 -127.5t-177 -65.5t-279 -13q-39 3 -39 41v242q0 40 43 37q109 -6 152 19.5t49 99.5q0 8 -6 20l-396 672q-6 11 -13 9.5t-7 -13.5l4 -674q0 -39 -39 -39h-307q-39 0 -39 39v1356q0 39 39 39
h295q32 0 47 -27l401 -674q6 -9 13.5 -7.5t7.5 13.5v326h2z" />
    <glyph glyph-name="eng" unicode="&#x14b;" horiz-adv-x="1132" 
d="M1069 461l2 -10v-392q0 -68 -3.5 -118.5t-14 -99t-28 -82t-46 -63.5t-68 -48.5t-94 -32.5t-123.5 -20.5t-157 -6.5q-41 0 -41 39v228q0 38 39 41q79 5 111 27.5t38 80.5v610q0 61 -32 99.5t-83 38.5q-52 0 -84 -38t-32 -100v-575q0 -39 -39 -39h-308q-38 0 -38 39v987
q0 39 38 39h308q39 0 39 -39v-53q0 -11 6 -13t12 7q77 114 236 114q157 0 259.5 -102.5t102.5 -280.5v-237z" />
    <glyph glyph-name="Omacron" unicode="&#x14c;" horiz-adv-x="1271" 
d="M356 1546q-39 0 -39 39v178q0 39 39 39h559q39 0 39 -39v-178q0 -39 -39 -39h-559zM635 -25q-258 0 -416 151t-158 398v385q0 243 158 392t416 149q259 0 417 -149t158 -392v-385q0 -248 -158 -398.5t-417 -150.5zM635 305q86 0 138 56.5t52 150.5v401q0 94 -52 150.5
t-138 56.5q-85 0 -137 -56.5t-52 -150.5v-401q0 -94 52 -150.5t137 -56.5z" />
    <glyph glyph-name="omacron" unicode="&#x14d;" horiz-adv-x="1142" 
d="M293 1178q-39 0 -39 39v178q0 39 39 39h559q39 0 39 -39v-178q0 -39 -39 -39h-559zM571 -16q-194 0 -328 105t-177 282q-21 77 -21 164q0 96 25 182q48 169 180.5 266.5t322.5 97.5t321 -97t179 -263q25 -89 25 -182q0 -73 -17 -156q-42 -184 -176.5 -291.5
t-333.5 -107.5zM571 313q103 0 131 131q9 44 9 93q0 41 -11 94q-29 121 -129 121q-102 0 -129 -121q-10 -36 -10 -94q0 -54 8 -93q30 -131 131 -131z" />
    <glyph glyph-name="Ohungarumlaut" unicode="&#x150;" horiz-adv-x="1271" 
d="M340 1550q-22 0 -30.5 12.5t-0.5 32.5l74 172q12 31 45 31h264q22 0 30 -12.5t-1 -32.5l-88 -174q-16 -29 -45 -29h-248zM727 1550q-22 0 -29.5 12.5t2.5 34.5l88 172q14 29 46 29h247q22 0 29.5 -12.5t-2.5 -34.5l-90 -172q-14 -29 -45 -29h-246zM635 -25
q-258 0 -416 151t-158 398v385q0 243 158 392t416 149q259 0 417 -149t158 -392v-385q0 -248 -158 -398.5t-417 -150.5zM635 305q86 0 138 56.5t52 150.5v401q0 94 -52 150.5t-138 56.5q-85 0 -137 -56.5t-52 -150.5v-401q0 -94 52 -150.5t137 -56.5z" />
    <glyph glyph-name="ohungarumlaut" unicode="&#x151;" horiz-adv-x="1142" 
d="M276 1182q-22 0 -30 12.5t0 32.5l73 172q12 31 46 31h264q22 0 29.5 -13t-1.5 -33l-88 -174q-16 -28 -45 -28h-248zM664 1182q-22 0 -29.5 12.5t2.5 34.5l88 172q15 29 45 29h248q22 0 29 -13t-3 -35l-90 -172q-14 -28 -45 -28h-245zM571 -16q-194 0 -328 105t-177 282
q-21 77 -21 164q0 96 25 182q48 169 180.5 266.5t322.5 97.5t321 -97t179 -263q25 -89 25 -182q0 -73 -17 -156q-42 -184 -176.5 -291.5t-333.5 -107.5zM571 313q103 0 131 131q9 44 9 93q0 41 -11 94q-29 121 -129 121q-102 0 -129 -121q-10 -36 -10 -94q0 -54 8 -93
q30 -131 131 -131z" />
    <glyph glyph-name="OE" unicode="&#x152;" horiz-adv-x="1918" 
d="M1870 1143q0 -39 -39 -39h-604q-17 0 -17 -17v-180q0 -16 17 -16h370q39 0 39 -39v-250q0 -39 -39 -39h-370q-17 0 -17 -16v-201q0 -16 17 -16h604q39 0 39 -39v-252q0 -39 -39 -39h-967q-18 0 -28.5 8.5t-10.5 22.5v8q0 20 -20 10q-129 -74 -273 -74q-125 0 -232 67.5
t-173 194.5t-66 287v385q0 118 38.5 220.5t103 172t150.5 109t179 39.5q145 0 273 -70q6 -4 10.5 -4.5t7 1.5t2.5 5v13q0 39 39 39h967q39 0 39 -39v-252zM635 305q86 0 138 56.5t52 150.5v401q0 94 -52 150.5t-138 56.5q-85 0 -137 -56.5t-52 -150.5v-401q0 -94 52 -150.5
t137 -56.5z" />
    <glyph glyph-name="oe" unicode="&#x153;" horiz-adv-x="1802" 
d="M1323 305q122 0 188 51q31 22 54 -4l129 -157q24 -30 -2 -56q-166 -155 -420 -155q-211 0 -359 135q-12 9 -24 0q-145 -135 -326 -135q-168 0 -294 85.5t-183 235.5q-41 106 -41 230q0 130 41 235q56 145 182.5 228t296.5 83q183 0 326 -133q12 -9 24 0q143 133 326 133
q171 0 303.5 -88.5t184.5 -228.5q35 -101 38 -287q0 -41 -38 -41h-592q-8 0 -12 -5.5t-1 -12.5q4 -15 9 -23q20 -47 65.5 -68.5t124.5 -21.5zM664 377q30 55 30 160q0 101 -30 153q-30 62 -101 62q-67 0 -102 -62q-29 -56 -29 -153q0 -100 29 -160q34 -64 102 -64
q71 0 101 64zM1245 752q-79 0 -112 -82q-2 -4 -5.5 -13.5t-5.5 -13.5q-3 -18 15 -18h217q20 0 14 18q-6 22 -8 27q-33 82 -115 82z" />
    <glyph glyph-name="Racute" unicode="&#x154;" horiz-adv-x="1259" 
d="M840 1786q24 0 31 -14t-7 -33l-133 -176q-19 -25 -47 -25h-244q-23 0 -30.5 12.5t2.5 34.5l92 172q14 29 45 29h291zM842 0q-33 0 -45 29l-222 510q-5 12 -20 12h-74q-16 0 -16 -16v-496q0 -39 -39 -39h-307q-39 0 -39 39v1356q0 39 39 39h612q211 0 339 -125.5
t128 -331.5q0 -134 -64.5 -233.5t-179.5 -149.5q-15 -6 -8 -21l250 -528q9 -22 1 -33.5t-30 -11.5h-325zM481 1104q-16 0 -16 -17v-227q0 -16 16 -16h187q66 0 106.5 35.5t40.5 93.5q0 59 -40.5 95t-106.5 36h-187z" />
    <glyph glyph-name="racute" unicode="&#x155;" horiz-adv-x="811" 
d="M707 1419q24 0 31 -14t-7 -33l-133 -176q-19 -25 -47 -25h-244q-23 0 -31 13t3 35l92 172q14 28 45 28h291zM666 1079q62 0 104 -22q27 -15 21 -49l-50 -301q-6 -36 -45 -27q-54 11 -114 0q-53 -11 -91 -44.5t-38 -90.5v-506q0 -39 -39 -39h-308q-38 0 -38 39v987
q0 39 38 39h308q39 0 39 -39v-29q0 -11 5 -14t11 4q76 92 197 92z" />
    <glyph glyph-name="uni0156" unicode="&#x156;" horiz-adv-x="1259" 
d="M481 551q-16 0 -16 -16v-496q0 -39 -39 -39h-307q-39 0 -39 39v1356q0 39 39 39h612q211 0 339 -125.5t128 -331.5q0 -134 -64.5 -233.5t-179.5 -149.5q-15 -6 -8 -21l250 -528q9 -22 1 -33.5t-30 -11.5h-325q-33 0 -45 29l-222 510q-5 12 -20 12h-74zM668 1104h-187
q-16 0 -16 -17v-227q0 -16 16 -16h187q66 0 106.5 35.5t40.5 93.5q0 59 -40.5 95t-106.5 36zM367 -350q-23 0 -31 12.5t2 34.5l92 172q14 29 45 29h291q24 0 31.5 -14.5t-6.5 -33.5l-134 -176q-18 -24 -47 -24h-243z" />
    <glyph glyph-name="uni0157" unicode="&#x157;" horiz-adv-x="819" 
d="M666 1079q62 0 104 -22q27 -15 21 -49l-50 -301q-6 -36 -45 -27q-54 11 -114 0q-53 -11 -91 -44.5t-38 -90.5v-506q0 -39 -39 -39h-308q-38 0 -38 39v987q0 39 38 39h308q39 0 39 -39v-29q0 -11 5 -14t11 4q76 92 197 92zM-12 -350q-23 0 -31 12.5t2 34.5l92 172
q15 29 45 29h291q24 0 31.5 -14.5t-6.5 -33.5l-133 -176q-18 -24 -48 -24h-243z" />
    <glyph glyph-name="Rcaron" unicode="&#x158;" horiz-adv-x="1259" 
d="M780 1552q-16 -26 -47 -26h-336q-33 0 -47 26l-117 191q-12 20 -4 33.5t31 13.5h207q30 0 45 -27l45 -80q5 -7 13 -7t12 7l45 80q15 27 45 27h205q23 0 29.5 -13.5t-5.5 -33.5zM842 0q-33 0 -45 29l-222 510q-5 12 -20 12h-74q-16 0 -16 -16v-496q0 -39 -39 -39h-307
q-39 0 -39 39v1356q0 39 39 39h612q211 0 339 -125.5t128 -331.5q0 -134 -64.5 -233.5t-179.5 -149.5q-15 -6 -8 -21l250 -528q9 -22 1 -33.5t-30 -11.5h-325zM481 1104q-16 0 -16 -17v-227q0 -16 16 -16h187q66 0 106.5 35.5t40.5 93.5q0 59 -40.5 95t-106.5 36h-187z" />
    <glyph glyph-name="rcaron" unicode="&#x159;" horiz-adv-x="811" 
d="M647 1186q-17 -27 -47 -27h-336q-32 0 -47 27l-117 190q-12 20 -4 33.5t31 13.5h207q31 0 45 -26l45 -80q4 -7 12 -7t13 7l45 80q14 26 45 26h204q23 0 30 -13.5t-5 -33.5zM453 995q0 -10 6 -12t12 6q77 90 195 90q62 0 104 -22q27 -15 21 -49l-50 -301q-6 -36 -45 -27
q-54 11 -114 0q-53 -11 -91 -44.5t-38 -90.5v-506q0 -39 -39 -39h-308q-38 0 -38 39v987q0 39 38 39h308q39 0 39 -39v-31z" />
    <glyph glyph-name="Sacute" unicode="&#x15a;" horiz-adv-x="1222" 
d="M475 1554q-23 0 -31 13t2 35l93 172q14 28 45 28h290q24 0 31.5 -14t-6.5 -33l-133 -176q-19 -25 -47 -25h-244zM612 -16q-253 0 -406 124.5t-153 333.5v21q0 39 39 39h301q39 0 39 -21v-22q0 -56 59 -101t150 -45q77 0 109 32t32 71q0 16 -5 29.5t-19 24.5t-26 19
t-39.5 17.5t-44.5 14.5t-56 16.5t-60 17.5q-48 14 -87 28t-90 37t-91 47.5t-80.5 61t-67.5 77t-44 95t-17 115.5q0 195 151.5 314.5t383.5 119.5q160 0 289.5 -58.5t204.5 -167.5t75 -249v-10q0 -39 -39 -39h-301q-39 0 -39 16v16q0 61 -56 111.5t-149 50.5
q-66 0 -103.5 -27t-37.5 -73q0 -52 58 -84.5t231 -87.5q131 -42 156 -52q232 -92 277 -272q11 -46 11 -98q0 -200 -153 -321t-402 -121z" />
    <glyph glyph-name="sacute" unicode="&#x15b;" horiz-adv-x="1060" 
d="M397 1186q-23 0 -30.5 12.5t2.5 34.5l92 172q15 29 45 29h291q24 0 31 -14.5t-7 -33.5l-133 -176q-18 -24 -47 -24h-244zM545 -16q-231 0 -365.5 89.5t-134.5 239.5v11q0 38 39 38h291q39 0 39 -10v-12q0 -34 36 -54t93 -20q45 0 72.5 13.5t27.5 37.5q0 22 -24 35.5
t-67 21t-92 14.5t-111.5 23t-112.5 40q-177 87 -177 270q0 166 129 263t340 97q217 0 347.5 -101.5t130.5 -268.5q0 -23 -39 -23h-281q-39 0 -39 12v11q0 34 -30 53.5t-82 19.5q-46 0 -76.5 -15t-30.5 -42q0 -34 51 -48.5t153.5 -29t170.5 -37.5q111 -39 169 -107.5
t58 -178.5q0 -167 -131.5 -254.5t-353.5 -87.5z" />
    <glyph glyph-name="Scedilla" unicode="&#x15e;" horiz-adv-x="1222" 
d="M1167 426q0 -166 -107 -279t-292 -149q-20 -3 -6 -21q100 -106 69 -221q-14 -49 -46 -80.5t-70.5 -43.5t-83 -12.5t-81.5 7t-69 19.5q-27 11 -24 47l14 119q3 21 14 25t33 -3q25 -6 45.5 1.5t26.5 27.5q18 47 -78 121q-8 6 -18 8q-203 28 -322 148t-119 302v21
q0 39 39 39h301q39 0 39 -21v-22q0 -56 59 -101t150 -45q77 0 109 32t32 71q0 16 -5 29.5t-19 24.5t-26 19t-39.5 17.5t-44.5 14.5t-56 16.5t-60 17.5q-48 14 -87 28t-90 37t-91 47.5t-80.5 61t-67.5 77t-44 95t-17 115.5q0 195 151.5 314.5t383.5 119.5q160 0 289.5 -58.5
t204.5 -167.5t75 -249v-10q0 -39 -39 -39h-301q-39 0 -39 16v16q0 61 -56 111.5t-149 50.5q-66 0 -103.5 -27t-37.5 -73q0 -52 58 -84.5t231 -87.5q131 -42 156 -52q232 -92 277 -272q11 -46 11 -98z" />
    <glyph glyph-name="scedilla" unicode="&#x15f;" horiz-adv-x="1060" 
d="M1030 326q0 -135 -86.5 -218t-241.5 -110q-20 -3 -6 -21q99 -108 68 -221q-14 -49 -46 -80.5t-70.5 -43.5t-83 -12.5t-81.5 7t-69 19.5q-28 11 -25 47l14 119q3 21 14.5 25t33.5 -3q25 -6 45 1.5t26 27.5q18 46 -76 121q-8 6 -18 8q-180 22 -281.5 107t-101.5 214v11
q0 38 39 38h291q39 0 39 -10v-12q0 -34 36 -54t93 -20q45 0 72.5 13.5t27.5 37.5q0 22 -24 35.5t-67 21t-92 14.5t-111.5 23t-112.5 40q-177 87 -177 270q0 166 129 263t340 97q217 0 347.5 -101.5t130.5 -268.5q0 -23 -39 -23h-281q-39 0 -39 12v11q0 34 -30 53.5t-82 19.5
q-46 0 -76.5 -15t-30.5 -42q0 -34 51 -48.5t153.5 -29t170.5 -37.5q111 -39 169 -107.5t58 -178.5z" />
    <glyph glyph-name="Scaron" unicode="&#x160;" horiz-adv-x="1222" 
d="M432 1542q-32 0 -47 27l-117 190q-12 20 -4 33.5t31 13.5h207q31 0 45 -26l45 -80q5 -8 12.5 -8t11.5 8l46 80q14 26 45 26h204q23 0 30 -13.5t-5 -33.5l-121 -190q-17 -27 -47 -27h-336zM612 -16q-253 0 -406 124.5t-153 333.5v21q0 39 39 39h301q39 0 39 -21v-22
q0 -56 59 -101t150 -45q77 0 109 32t32 71q0 16 -5 29.5t-19 24.5t-26 19t-39.5 17.5t-44.5 14.5t-56 16.5t-60 17.5q-48 14 -87 28t-90 37t-91 47.5t-80.5 61t-67.5 77t-44 95t-17 115.5q0 195 151.5 314.5t383.5 119.5q160 0 289.5 -58.5t204.5 -167.5t75 -249v-10
q0 -39 -39 -39h-301q-39 0 -39 16v16q0 61 -56 111.5t-149 50.5q-66 0 -103.5 -27t-37.5 -73q0 -52 58 -84.5t231 -87.5q131 -42 156 -52q232 -92 277 -272q11 -46 11 -98q0 -200 -153 -321t-402 -121z" />
    <glyph glyph-name="scaron" unicode="&#x161;" horiz-adv-x="1060" 
d="M354 1174q-33 0 -47 26l-117 191q-12 20 -4 33.5t31 13.5h207q30 0 45 -27l45 -80q5 -7 12.5 -7t12.5 7l45 80q15 27 45 27h205q23 0 29.5 -13.5t-5.5 -33.5l-121 -191q-16 -26 -47 -26h-336zM545 -16q-231 0 -365.5 89.5t-134.5 239.5v11q0 38 39 38h291q39 0 39 -10
v-12q0 -34 36 -54t93 -20q45 0 72.5 13.5t27.5 37.5q0 22 -24 35.5t-67 21t-92 14.5t-111.5 23t-112.5 40q-177 87 -177 270q0 166 129 263t340 97q217 0 347.5 -101.5t130.5 -268.5q0 -23 -39 -23h-281q-39 0 -39 12v11q0 34 -30 53.5t-82 19.5q-46 0 -76.5 -15t-30.5 -42
q0 -34 51 -48.5t153.5 -29t170.5 -37.5q111 -39 169 -107.5t58 -178.5q0 -167 -131.5 -254.5t-353.5 -87.5z" />
    <glyph glyph-name="uni0162" unicode="&#x162;" horiz-adv-x="1259" 
d="M813 1102q-16 0 -16 -17v-1046q0 -39 -17 -39q-11 0 2 -14q2 -3 6 -6q135 -120 97 -248q-17 -61 -61 -95t-97.5 -39.5t-102 1t-89.5 22.5q-28 11 -25 47l14 119q3 21 14 25.5t33 -2.5q26 -6 46 1t26 27q22 61 -127 156q-12 6 -20 6h-45q-39 0 -39 39v1046q0 17 -17 17
h-319q-39 0 -39 39v254q0 39 39 39h1067q39 0 39 -39v-254q0 -39 -39 -39h-330z" />
    <glyph glyph-name="uni0163" unicode="&#x163;" horiz-adv-x="800" 
d="M764 797q0 -39 -39 -39h-156q-16 0 -16 -17v-303q0 -102 74 -102h67q39 0 39 -39v-248q0 -33 -26 -39q-13 0 -21 -2q-2 -1 -3.5 -2.5t-4.5 -7t2 -10.5q94 -104 63 -215q-17 -61 -61 -95t-97.5 -39.5t-102 1t-89.5 22.5q-27 11 -24 47l14 119q3 21 14 25t33 -3
q25 -6 45.5 1.5t26.5 27.5q18 49 -88 129q-8 5 -19 8q-106 20 -158 80t-53 183v462q0 17 -16 17h-96q-39 0 -39 39v229q0 39 39 39h96q16 0 16 16v232q0 39 39 39h291q39 0 39 -39v-232q0 -16 16 -16h156q39 0 39 -39v-229z" />
    <glyph glyph-name="Tcaron" unicode="&#x164;" horiz-adv-x="1218" 
d="M821 1552q-16 -26 -47 -26h-336q-33 0 -47 26l-117 191q-12 20 -4 33.5t31 13.5h207q30 0 45 -27l45 -80q5 -7 13 -7t12 7l45 80q15 27 45 27h205q23 0 29.5 -13.5t-5.5 -33.5zM1143 1434q39 0 39 -39v-254q0 -39 -39 -39h-330q-16 0 -16 -17v-1046q0 -39 -39 -39h-307
q-39 0 -39 39v1046q0 17 -17 17h-319q-39 0 -39 39v254q0 39 39 39h1067z" />
    <glyph glyph-name="tcaron" unicode="&#x165;" horiz-adv-x="800" 
d="M592 1470q-16 -26 -47 -26h-336q-33 0 -47 26l-117 191q-12 20 -4 33.5t31 13.5h207q30 0 45 -27l45 -79q5 -8 12 -8t12 8l45 79q15 27 45 27h205q23 0 30 -13.5t-5 -33.5zM764 797q0 -39 -39 -39h-156q-16 0 -16 -17v-303q0 -102 74 -102h67q39 0 39 -39v-248
q0 -36 -37 -39q-80 -6 -147 -6q-91 0 -154 11.5t-112.5 41t-73.5 84.5t-25 138v462q0 17 -16 17h-96q-39 0 -39 39v229q0 39 39 39h96q16 0 16 16v232q0 39 39 39h291q39 0 39 -39v-232q0 -16 16 -16h156q39 0 39 -39v-229z" />
    <glyph glyph-name="Tbar" unicode="&#x166;" horiz-adv-x="1228" 
d="M1182 1141q0 -39 -39 -39h-330q-16 0 -16 -17v-243q0 -17 16 -17h158q39 0 39 -39v-147q0 -39 -39 -39h-158q-16 0 -16 -16v-545q0 -39 -39 -39h-307q-39 0 -39 39v545q0 16 -17 16h-121q-38 0 -38 39v147q0 39 38 39h121q17 0 17 17v243q0 17 -17 17h-319q-39 0 -39 39
v254q0 39 39 39h1067q39 0 39 -39v-254z" />
    <glyph glyph-name="tbar" unicode="&#x167;" horiz-adv-x="1228" 
d="M766 524q0 -39 -39 -39h-158q-16 0 -16 -16v-31q0 -102 74 -102h67q39 0 39 -39v-248q0 -36 -37 -39q-80 -6 -147 -6q-91 0 -154 11.5t-112.5 41t-73.5 84.5t-25 138v190q0 16 -16 16h-96q-39 0 -39 39v148q0 39 39 39h96q16 0 16 16v14q0 17 -16 17h-96q-39 0 -39 39
v229q0 39 39 39h96q16 0 16 16v232q0 39 39 39h291q39 0 39 -39v-232q0 -16 16 -16h156q39 0 39 -39v-229q0 -39 -39 -39h-156q-16 0 -16 -17v-14q0 -16 16 -16h158q39 0 39 -39v-148z" />
    <glyph glyph-name="Umacron" unicode="&#x16a;" horiz-adv-x="1263" 
d="M354 1556q-39 0 -39 39v179q0 38 39 38h559q39 0 39 -38v-179q0 -39 -39 -39h-559zM633 -16q-252 0 -406.5 141t-154.5 373v897q0 39 39 39h307q39 0 39 -39v-897q0 -83 48.5 -134t127.5 -51q78 0 126 51t48 134v897q0 39 39 39h307q39 0 39 -39v-897q0 -232 -153.5 -373
t-405.5 -141z" />
    <glyph glyph-name="umacron" unicode="&#x16b;" 
d="M842 1417q39 0 39 -39v-178q0 -39 -39 -39h-559q-39 0 -39 39v178q0 39 39 39h559zM678 1026q0 39 39 39h307q39 0 39 -39v-987q0 -39 -39 -39h-307q-39 0 -39 39v49q0 11 -6.5 13t-12.5 -7q-82 -110 -256 -110q-156 0 -248 101t-92 282v659q0 39 39 39h308q39 0 39 -39
v-575q0 -62 31.5 -100t82.5 -38q42 0 73 27t40 72q2 8 2 20v594z" />
    <glyph glyph-name="Uring" unicode="&#x16e;" horiz-adv-x="1263" 
d="M633 1530q-101 0 -170.5 69t-69.5 170q0 100 69.5 169t170.5 69t170 -69t69 -169q0 -101 -69 -170t-170 -69zM633 1696q31 0 52.5 21t21.5 52q0 32 -21.5 54t-52.5 22t-52.5 -22t-21.5 -54q0 -31 21.5 -52t52.5 -21zM633 -16q-252 0 -406.5 141t-154.5 373v897
q0 39 39 39h307q39 0 39 -39v-897q0 -83 48.5 -134t127.5 -51q78 0 126 51t48 134v897q0 39 39 39h307q39 0 39 -39v-897q0 -232 -153.5 -373t-405.5 -141z" />
    <glyph glyph-name="uring" unicode="&#x16f;" 
d="M561 1135q-101 0 -170 69t-69 170q0 100 69 169t170 69t170.5 -69t69.5 -169q0 -101 -69.5 -170t-170.5 -69zM561 1450q-31 0 -52.5 -22t-21.5 -54q0 -31 21.5 -52.5t52.5 -21.5t52.5 21.5t21.5 52.5q0 32 -21.5 54t-52.5 22zM678 1026q0 39 39 39h307q39 0 39 -39v-987
q0 -39 -39 -39h-307q-39 0 -39 39v49q0 11 -6.5 13t-12.5 -7q-82 -110 -256 -110q-156 0 -248 101t-92 282v659q0 39 39 39h308q39 0 39 -39v-575q0 -62 31.5 -100t82.5 -38q42 0 73 27t40 72q2 8 2 20v594z" />
    <glyph glyph-name="Uhungarumlaut" unicode="&#x170;" horiz-adv-x="1263" 
d="M338 1561q-22 0 -30.5 12.5t-0.5 32.5l74 172q12 30 45 30h264q22 0 30 -12.5t-1 -32.5l-88 -174q-16 -28 -45 -28h-248zM725 1561q-22 0 -29.5 12.5t2.5 34.5l88 172q14 28 45 28h248q22 0 29.5 -12.5t-2.5 -34.5l-90 -172q-14 -28 -45 -28h-246zM633 -16
q-252 0 -406.5 141t-154.5 373v897q0 39 39 39h307q39 0 39 -39v-897q0 -83 48.5 -134t127.5 -51q78 0 126 51t48 134v897q0 39 39 39h307q39 0 39 -39v-897q0 -232 -153.5 -373t-405.5 -141z" />
    <glyph glyph-name="uhungarumlaut" unicode="&#x171;" 
d="M618 1413q22 0 30 -12.5t-1 -32.5l-88 -174q-16 -29 -45 -29h-248q-22 0 -30 12.5t0 32.5l73 172q12 31 45 31h264zM944 1194q-14 -29 -45 -29h-246q-22 0 -29 12.5t3 34.5l88 172q15 29 45 29h248q22 0 29 -12.5t-3 -34.5zM678 1026q0 39 39 39h307q39 0 39 -39v-987
q0 -39 -39 -39h-307q-39 0 -39 39v49q0 11 -6.5 13t-12.5 -7q-82 -110 -256 -110q-156 0 -248 101t-92 282v659q0 39 39 39h308q39 0 39 -39v-575q0 -62 31.5 -100t82.5 -38q42 0 73 27t40 72q2 8 2 20v594z" />
    <glyph glyph-name="Uogonek" unicode="&#x172;" horiz-adv-x="1263" 
d="M807 1395q0 39 39 39h307q39 0 39 -39v-897q0 -204 -123 -340.5t-330 -165.5q-11 -3 -18 -10q-77 -64 -62 -107q6 -20 26.5 -27.5t45.5 -1.5q22 7 33 3t14 -25l15 -119q3 -36 -25 -47q-41 -16 -89.5 -22.5t-102 -1t-97.5 39.5t-61 95q-31 108 59 211q17 17 -6 20
q-184 42 -291.5 174.5t-107.5 323.5v897q0 39 39 39h307q39 0 39 -39v-897q0 -83 48.5 -134t127.5 -51q78 0 126 51t48 134v897z" />
    <glyph glyph-name="uogonek" unicode="&#x173;" 
d="M928 -162q6 -20 25.5 -27t45.5 -1q22 7 33.5 2.5t14.5 -25.5l14 -119q3 -36 -25 -47q-41 -16 -89.5 -22.5t-102 -1t-97.5 39.5t-61 95q-38 129 96 248q9 8 7 14t-13 6h-59q-39 0 -39 39v49q0 11 -6.5 13t-12.5 -7q-82 -110 -256 -110q-156 0 -248 101t-92 282v659
q0 39 39 39h308q39 0 39 -39v-575q0 -62 31.5 -100t82.5 -38q42 0 73 27t40 72q2 8 2 20v594q0 39 39 39h307q39 0 39 -39v-1026q-18 -10 -57 -41q-93 -72 -78 -121z" />
    <glyph glyph-name="Wcircumflex" unicode="&#x174;" horiz-adv-x="1755" 
d="M563 1538q-23 0 -30 13.5t6 33.5l137 193q16 24 47 24h305q33 0 49 -24l140 -193q13 -20 5.5 -33.5t-30.5 -13.5h-211q-30 0 -45 27l-45 80q-5 7 -13 7t-12 -7l-45 -80q-15 -27 -45 -27h-213zM414 0q-35 0 -45 33l-402 1358q-12 43 33 43h332q34 0 43 -33l168 -647
q2 -7 6 -9.5t8 0t6 9.5l156 645q9 35 43 35h239q34 0 43 -33l164 -647q2 -7 6 -9.5t8.5 0t6.5 9.5l151 645q8 35 43 35h332q20 0 29 -11.5t4 -31.5l-358 -1358q-9 -33 -44 -33h-313q-37 0 -43 35l-141 678q-2 7 -6 10t-8 0.5t-5 -10.5l-125 -678q-6 -35 -40 -35h-291z" />
    <glyph glyph-name="wcircumflex" unicode="&#x175;" horiz-adv-x="1689" 
d="M502 1169q-23 0 -30.5 14t5.5 34l137 192q17 25 48 25h305q32 0 49 -25l139 -192q13 -20 5.5 -34t-30.5 -14h-210q-31 0 -46 27l-45 80q-4 8 -11.5 8t-12.5 -8l-45 -80q-15 -27 -45 -27h-213zM373 0q-35 0 -45 33l-291 989q-12 43 33 43h317q35 0 41 -35l96 -471
q2 -7 6 -9.5t8.5 0t6.5 9.5l104 469q6 35 43 35h279q35 0 43 -35l112 -473q2 -7 6 -9.5t8.5 0t6.5 9.5l113 475q8 35 43 35l317 -4q45 0 33 -43l-297 -985q-10 -33 -45 -33h-320q-33 0 -43 33l-108 385q-2 7 -6 9t-7.5 -1t-5.5 -10l-86 -381q-6 -35 -43 -35h-319z" />
    <glyph glyph-name="Ycircumflex" unicode="&#x176;" horiz-adv-x="1333" 
d="M350 1538q-23 0 -30 13.5t6 33.5l137 193q16 24 47 24h305q33 0 49 -24l140 -193q13 -20 5.5 -33.5t-30.5 -13.5h-211q-30 0 -45 27l-45 80q-4 7 -12 7t-13 -7l-45 -80q-15 -27 -45 -27h-213zM512 4q-39 0 -39 39v440q0 9 -4 21l-412 885q-9 21 0 33t31 12h334
q34 0 45 -31l188 -473q5 -9 11 -9t10 9l188 473q11 31 45 31h336q22 0 31 -12t0 -33l-416 -885q-4 -12 -4 -21v-440q0 -39 -39 -39h-305z" />
    <glyph glyph-name="ycircumflex" unicode="&#x177;" horiz-adv-x="1093" 
d="M229 1196q-23 0 -30 13.5t6 33.5l137 193q16 24 47 24h305q33 0 49 -24l140 -193q13 -20 5.5 -33.5t-30.5 -13.5h-211q-30 0 -45 27l-45 80q-4 7 -12.5 7t-12.5 -7l-45 -80q-15 -27 -45 -27h-213zM90 -408q-14 0 -14 39v238q0 39 12 39h10q133 0 190 15.5t64 66.5
q2 8 -2 20l-317 1010q-6 21 3 33t30 12h327q37 0 43 -35l103 -469q3 -10 10 -9.5t10 11.5l96 467q6 35 43 35h330q21 0 30 -12t3 -33l-332 -1024q-26 -78 -49 -129t-57.5 -101t-76.5 -79t-104.5 -52.5t-145 -33t-192.5 -9.5h-14z" />
    <glyph glyph-name="Ydieresis" unicode="&#x178;" horiz-adv-x="1333" 
d="M455 1497q-78 0 -128.5 49.5t-50.5 128.5t50.5 128.5t128.5 49.5t126 -49t48 -129t-48 -129t-126 -49zM879 1497q-79 0 -128 49t-49 129t49 129t128 49t127.5 -49t48.5 -129t-48.5 -129t-127.5 -49zM512 4q-39 0 -39 39v440q0 9 -4 21l-412 885q-9 21 0 33t31 12h334
q34 0 45 -31l188 -473q5 -9 11 -9t10 9l188 473q11 31 45 31h336q22 0 31 -12t0 -33l-416 -885q-4 -12 -4 -21v-440q0 -39 -39 -39h-305z" />
    <glyph glyph-name="Zacute" unicode="&#x179;" horiz-adv-x="1150" 
d="M453 1565q-23 0 -31 12.5t2 34.5l92 172q14 28 45 28h291q24 0 31.5 -14t-6.5 -33l-134 -176q-18 -24 -47 -24h-243zM88 0q-39 0 -39 39v283q0 24 17 47l587 714q6 7 2.5 14t-12.5 7h-555q-39 0 -39 39v252q0 39 39 39h969q39 0 39 -39v-283q0 -24 -17 -47l-592 -715
q-6 -8 -2 -14t13 -6h559q39 0 39 -39v-252q0 -39 -39 -39h-969z" />
    <glyph glyph-name="zacute" unicode="&#x17a;" horiz-adv-x="962" 
d="M346 1196q-23 0 -31 12.5t2 34.5l93 172q14 29 45 29h290q24 0 31.5 -14t-6.5 -33l-133 -176q-19 -25 -47 -25h-244zM76 0q-39 0 -39 39v280q0 28 20 48l367 329q8 8 5 14.5t-13 6.5h-326q-39 0 -39 39v270q0 39 39 39h774q39 0 39 -39v-281q0 -28 -22 -47l-383 -329
q-8 -7 -5 -14t13 -7h375q39 0 39 -39v-270q0 -39 -39 -39h-805z" />
    <glyph glyph-name="Zdotaccent" unicode="&#x17b;" horiz-adv-x="1150" 
d="M582 1524q-72 0 -116 45t-44 117q0 73 44 117t116 44t114.5 -43.5t42.5 -117.5q0 -73 -43 -117.5t-114 -44.5zM88 0q-39 0 -39 39v283q0 24 17 47l587 714q6 7 2.5 14t-12.5 7h-555q-39 0 -39 39v252q0 39 39 39h969q39 0 39 -39v-283q0 -24 -17 -47l-592 -715
q-6 -8 -2 -14t13 -6h559q39 0 39 -39v-252q0 -39 -39 -39h-969z" />
    <glyph glyph-name="zdotaccent" unicode="&#x17c;" horiz-adv-x="962" 
d="M475 1155q-72 0 -116 45t-44 117q0 73 44 117.5t116 44.5t115 -44t43 -118q0 -72 -43 -117t-115 -45zM76 0q-39 0 -39 39v280q0 28 20 48l367 329q8 8 5 14.5t-13 6.5h-326q-39 0 -39 39v270q0 39 39 39h774q39 0 39 -39v-281q0 -28 -22 -47l-383 -329q-8 -7 -5 -14
t13 -7h375q39 0 39 -39v-270q0 -39 -39 -39h-805z" />
    <glyph glyph-name="Zcaron" unicode="&#x17d;" horiz-adv-x="1150" 
d="M410 1552q-33 0 -48 27l-116 190q-12 20 -4.5 34t30.5 14h207q30 0 45 -27l45 -80q5 -8 13 -8t12 8l45 80q15 27 45 27h205q23 0 29.5 -14t-5.5 -34l-120 -190q-17 -27 -48 -27h-335zM88 0q-39 0 -39 39v283q0 24 17 47l587 714q6 7 2.5 14t-12.5 7h-555q-39 0 -39 39
v252q0 39 39 39h969q39 0 39 -39v-283q0 -24 -17 -47l-592 -715q-6 -8 -2 -14t13 -6h559q39 0 39 -39v-252q0 -39 -39 -39h-969z" />
    <glyph glyph-name="zcaron" unicode="&#x17e;" horiz-adv-x="962" 
d="M303 1184q-33 0 -47 26l-117 191q-12 20 -4 33.5t31 13.5h207q30 0 45 -27l45 -80q5 -7 12 -7t12 7l45 80q15 27 46 27h204q23 0 30 -13.5t-5 -33.5l-121 -191q-16 -26 -47 -26h-336zM76 0q-39 0 -39 39v280q0 28 20 48l367 329q8 8 5 14.5t-13 6.5h-326q-39 0 -39 39
v270q0 39 39 39h774q39 0 39 -39v-281q0 -28 -22 -47l-383 -329q-8 -7 -5 -14t13 -7h375q39 0 39 -39v-270q0 -39 -39 -39h-805z" />
    <glyph glyph-name="florin" unicode="&#x192;" horiz-adv-x="1144" 
d="M946 1178q-73 -8 -88 -95l-31 -184q-3 -18 17 -18h106q39 0 39 -39v-230q0 -39 -39 -39h-159q-13 0 -17 -14l-108 -674q-29 -189 -157 -254.5t-429 -42.5q-39 0 -39 39v180q0 39 39 39h110q27 0 58 24t39 71l100 614q3 18 -16 18h-95q-38 0 -38 39v230q0 39 38 39h148
q12 0 16 14l39 244q16 103 53 165t105 97t172.5 40.5t255.5 -3.5q39 -3 39 -41v-180q0 -39 -39 -39h-119z" />
    <glyph glyph-name="uni01CD" unicode="&#x1cd;" horiz-adv-x="1462" 
d="M938 1552q-16 -26 -47 -26h-336q-33 0 -47 26l-117 191q-12 20 -4 33.5t31 13.5h207q30 0 45 -27l45 -80q5 -7 12 -7t12 7l45 80q15 27 45 27h205q23 0 30 -13.5t-5 -33.5zM1047 0q-34 0 -43 33l-41 147q-4 15 -19 15h-426q-14 0 -18 -15l-41 -147q-9 -33 -43 -33h-332
q-21 0 -30 12t-3 33l426 1356q10 33 43 33h422q33 0 43 -33l426 -1356q6 -21 -3 -33t-30 -12h-331zM590 508q-2 -8 2.5 -13.5t11.5 -5.5h254q7 0 11.5 5.5t2.5 13.5l-131 473q-2 7 -6 9.5t-8 0t-6 -9.5z" />
    <glyph glyph-name="uni01CE" unicode="&#x1ce;" horiz-adv-x="1105" 
d="M750 1200q-16 -26 -48 -26h-335q-34 0 -48 26l-116 191q-12 20 -4.5 33.5t30.5 13.5h207q30 0 45 -27l45 -80q5 -7 12.5 -7t12.5 7l45 80q15 27 45 27h205q23 0 29.5 -13.5t-5.5 -33.5zM530 1081q213 0 360.5 -103t147.5 -251v-688q0 -39 -39 -39h-307q-39 0 -39 39v37
q0 11 -5.5 13t-12.5 -7q-68 -98 -250 -98q-168 0 -264 76.5t-96 224.5q0 155 109 239t319 84h184q16 0 16 17v30q0 43 -31.5 70t-84.5 27q-77 0 -103 -41q-9 -12 -13 -16.5t-12.5 -8t-19.5 -2.5l-315 41q-38 3 -35 31q14 140 151.5 232.5t339.5 92.5zM504 250
q66 0 107.5 34.5t41.5 94.5v20q0 17 -16 17h-96q-129 0 -129 -84q0 -36 23.5 -59t68.5 -23z" />
    <glyph glyph-name="uni0218" unicode="&#x218;" horiz-adv-x="1222" 
d="M612 -16q-253 0 -406 124.5t-153 333.5v21q0 39 39 39h301q39 0 39 -21v-22q0 -56 59 -101t150 -45q77 0 109 32t32 71q0 16 -5 29.5t-19 24.5t-26 19t-39.5 17.5t-44.5 14.5t-56 16.5t-60 17.5q-48 14 -87 28t-90 37t-91 47.5t-80.5 61t-67.5 77t-44 95t-17 115.5
q0 195 151.5 314.5t383.5 119.5q160 0 289.5 -58.5t204.5 -167.5t75 -249v-10q0 -39 -39 -39h-301q-39 0 -39 16v16q0 61 -56 111.5t-149 50.5q-66 0 -103.5 -27t-37.5 -73q0 -52 58 -84.5t231 -87.5q131 -42 156 -52q232 -92 277 -272q11 -46 11 -98q0 -200 -153 -321
t-402 -121zM379 -367q-23 0 -31 13t2 35l92 172q14 28 45 28h291q24 0 31.5 -14t-6.5 -33l-133 -176q-19 -25 -47 -25h-244z" />
    <glyph glyph-name="uni0219" unicode="&#x219;" horiz-adv-x="1060" 
d="M545 -16q-231 0 -365.5 89.5t-134.5 239.5v11q0 38 39 38h291q39 0 39 -10v-12q0 -34 36 -54t93 -20q45 0 72.5 13.5t27.5 37.5q0 22 -24 35.5t-67 21t-92 14.5t-111.5 23t-112.5 40q-177 87 -177 270q0 166 129 263t340 97q217 0 347.5 -101.5t130.5 -268.5
q0 -23 -39 -23h-281q-39 0 -39 12v11q0 34 -30 53.5t-82 19.5q-46 0 -76.5 -15t-30.5 -42q0 -34 51 -48.5t153.5 -29t170.5 -37.5q111 -39 169 -107.5t58 -178.5q0 -167 -131.5 -254.5t-353.5 -87.5zM311 -367q-23 0 -31 13t3 35l92 172q14 28 45 28h291q24 0 31 -14t-7 -33
l-133 -176q-19 -25 -47 -25h-244z" />
    <glyph glyph-name="uni021A" unicode="&#x21a;" horiz-adv-x="1259" 
d="M37 1395q0 39 39 39h1067q39 0 39 -39v-254q0 -39 -39 -39h-330q-16 0 -16 -17v-1046q0 -39 -39 -39h-307q-39 0 -39 39v1046q0 17 -17 17h-319q-39 0 -39 39v254zM350 -350q-23 0 -30.5 12.5t2.5 34.5l92 172q14 29 45 29h291q24 0 31 -14.5t-7 -33.5l-133 -176
q-18 -24 -47 -24h-244z" />
    <glyph glyph-name="uni021B" unicode="&#x21b;" horiz-adv-x="800" 
d="M553 1081q0 -16 16 -16h156q39 0 39 -39v-229q0 -39 -39 -39h-156q-16 0 -16 -17v-303q0 -102 74 -102h67q39 0 39 -39v-248q0 -36 -37 -39q-80 -6 -147 -6q-91 0 -154 11.5t-112.5 41t-73.5 84.5t-25 138v462q0 17 -16 17h-96q-39 0 -39 39v229q0 39 39 39h96
q16 0 16 16v232q0 39 39 39h291q39 0 39 -39v-232zM291 -555q-23 0 -31 12.5t2 34.5l92 172q14 29 45 29h291q24 0 31.5 -14t-6.5 -33l-133 -176q-19 -25 -47 -25h-244z" />
    <glyph glyph-name="uni0228" unicode="&#x228;" horiz-adv-x="1167" 
d="M1118 1143q0 -39 -39 -39h-598q-16 0 -16 -17v-180q0 -16 16 -16h365q39 0 39 -39v-250q0 -39 -39 -39h-365q-16 0 -16 -16v-201q0 -16 16 -16h598q39 0 39 -39v-252q0 -39 -39 -39h-293q-21 0 -8 -20q88 -102 58 -207q-17 -61 -61 -95t-98 -39.5t-102.5 1t-89.5 22.5
q-27 11 -24 47l14 119q3 21 14 25t33 -3q25 -6 45.5 1.5t26.5 27.5q15 46 -68 113q-11 8 -22 8h-385q-39 0 -39 39v1356q0 39 39 39h960q39 0 39 -39v-252z" />
    <glyph glyph-name="uni0229" unicode="&#x229;" horiz-adv-x="1138" 
d="M647 309q121 7 184 58q32 26 54 -5l139 -192q20 -29 -4 -53q-97 -90 -256 -119q-20 -3 -6 -21q106 -112 71 -225q-14 -49 -46 -80.5t-70.5 -43.5t-83 -12.5t-81.5 7t-69 19.5q-27 11 -24 47l14 118q3 21 14 25.5t33 -2.5q25 -6 45.5 1.5t26.5 27.5q18 49 -88 129
q-8 5 -19 8q-216 41 -329 197q-103 144 -103 348q0 85 23 172q46 165 184.5 266.5t321.5 101.5q210 0 341.5 -136.5t172.5 -371.5q9 -50 12 -98q0 -39 -39 -39h-608q-18 0 -15 -18q10 -25 11 -27q42 -89 194 -82zM569 752q-84 0 -116 -82q-4 -8 -7 -17q-3 -8 2 -13t13 -5
h221q20 0 14 18q-1 3 -3 8.5t-3 8.5q-33 82 -121 82z" />
    <glyph glyph-name="circumflex" unicode="&#x2c6;" horiz-adv-x="745" 
d="M57 1169q-23 0 -30 14t6 34l137 192q17 25 47 25h305q32 0 49 -25l140 -192q13 -20 5.5 -34t-30.5 -14h-211q-30 0 -45 27l-45 80q-4 8 -12.5 8t-12.5 -8l-45 -80q-15 -27 -45 -27h-213z" />
    <glyph glyph-name="caron" unicode="&#x2c7;" horiz-adv-x="776" 
d="M217 1157q-32 0 -47 27l-117 190q-12 20 -4 33.5t31 13.5h207q31 0 45 -26l45 -80q5 -7 12 -7t12 7l45 80q14 26 46 26h204q23 0 30 -13.5t-5 -33.5l-121 -190q-17 -27 -47 -27h-336z" />
    <glyph glyph-name="uni02C9" unicode="&#x2c9;" horiz-adv-x="636" 
d="M39 1161q-39 0 -39 39v178q0 39 39 39h559q39 0 39 -39v-178q0 -39 -39 -39h-559z" />
    <glyph glyph-name="breve" unicode="&#x2d8;" horiz-adv-x="606" 
d="M303 1112q-105 0 -182.5 63t-91.5 158q-3 20 7.5 30.5t29.5 10.5h116q31 0 43 -35q7 -29 28.5 -46t49.5 -17t49.5 17t28.5 46q12 35 43 35h117q19 0 29.5 -10.5t9.5 -28.5q-15 -96 -93.5 -159.5t-183.5 -63.5z" />
    <glyph glyph-name="dotaccent" unicode="&#x2d9;" horiz-adv-x="366" 
d="M184 1128q-72 0 -115.5 45t-43.5 117q0 73 43.5 117.5t115.5 44.5t115 -44t43 -118q0 -72 -43 -117t-115 -45z" />
    <glyph glyph-name="ring" unicode="&#x2da;" horiz-adv-x="528" 
d="M264 1135q-101 0 -170 69t-69 170q0 100 69 169t170 69t170.5 -69t69.5 -169q0 -101 -69.5 -170t-170.5 -69zM264 1300q31 0 52.5 21.5t21.5 52.5q0 32 -21.5 54t-52.5 22t-52.5 -22t-21.5 -54q0 -31 21.5 -52.5t52.5 -21.5z" />
    <glyph glyph-name="ogonek" unicode="&#x2db;" horiz-adv-x="387" 
d="M383 -332q3 -36 -25 -47q-41 -16 -89.5 -22.5t-102 -1t-97.5 39.5t-61 95q-39 131 101 250q18 18 47 18h153q28 0 31.5 -14t-18.5 -31q-87 -69 -72 -117q6 -20 26 -27t46 -1q22 7 33 2.5t14 -25.5z" />
    <glyph glyph-name="tilde" unicode="&#x2dc;" horiz-adv-x="737" 
d="M481 1151q-63 0 -141 51q-45 29 -74 29q-37 0 -61 -27q-25 -31 -53 -12l-101 72q-28 19 -16 53q29 75 84 116.5t121 41.5q26 0 52 -8t42 -16.5t45 -25.5q54 -30 94 -30q34 0 55 24q26 33 54 13l102 -72q30 -23 4 -70q-38 -69 -94 -104t-113 -35z" />
    <glyph glyph-name="hungarumlaut" unicode="&#x2dd;" horiz-adv-x="956" 
d="M76 1186q-22 0 -29.5 12.5t2.5 34.5l90 172q15 29 45 29h283q25 0 32 -14t-7 -34l-130 -176q-16 -24 -47 -24h-239zM481 1186q-22 0 -29 12.5t3 34.5l90 172q15 29 45 29h282q25 0 32 -14t-7 -34l-129 -176q-16 -24 -47 -24h-240z" />
    <glyph glyph-name="gravecomb" unicode="&#x300;" horiz-adv-x="0" 
d="M-25 1217q11 -22 3 -35t-31 -13h-244q-28 0 -47 25l-133 176q-14 19 -7 33t31 14h291q31 0 45 -28z" />
    <glyph glyph-name="acutecomb" unicode="&#x301;" horiz-adv-x="0" 
d="M-459 1169q-23 0 -31 13t3 35l92 172q14 28 45 28h291q24 0 31 -14t-7 -33l-133 -176q-19 -25 -47 -25h-244z" />
    <glyph glyph-name="uni0302" unicode="&#x302;" horiz-adv-x="0" 
d="M-688 1169q-23 0 -30.5 14t5.5 34l138 192q17 25 47 25h305q32 0 49 -25l139 -192q13 -20 6 -34t-30 -14h-211q-30 0 -45 27l-45 80q-4 8 -12.5 8t-12.5 -8l-45 -80q-15 -27 -45 -27h-213z" />
    <glyph glyph-name="tildecomb" unicode="&#x303;" horiz-adv-x="0" 
d="M-270 1151q-64 0 -142 51q-45 29 -73 29q-38 0 -62 -27q-25 -31 -53 -12l-100 72q-29 19 -17 53q29 75 84 116.5t121 41.5q26 0 52 -8t42 -16.5t45 -25.5q54 -30 94 -30q35 0 56 24q26 32 53 13l102 -72q30 -24 5 -70q-38 -69 -94 -104t-113 -35z" />
    <glyph glyph-name="uni0304" unicode="&#x304;" horiz-adv-x="0" 
d="M-598 1161q-39 0 -39 39v178q0 39 39 39h559q39 0 39 -39v-178q0 -39 -39 -39h-559z" />
    <glyph glyph-name="uni0306" unicode="&#x306;" horiz-adv-x="0" 
d="M-303 1112q-106 0 -183.5 63t-91.5 158q-3 20 7.5 30.5t29.5 10.5h117q31 0 43 -35q7 -29 28.5 -46t49.5 -17t49.5 17t28.5 46q12 35 43 35h116q19 0 29.5 -10.5t9.5 -28.5q-15 -96 -93 -159.5t-183 -63.5z" />
    <glyph glyph-name="uni0307" unicode="&#x307;" horiz-adv-x="0" 
d="M-158 1128q-72 0 -115.5 45t-43.5 117q0 73 43.5 117.5t115.5 44.5t115 -44t43 -118q0 -72 -43 -117t-115 -45z" />
    <glyph glyph-name="uni0308" unicode="&#x308;" horiz-adv-x="0" 
d="M-600 1128q-78 0 -128 50t-50 129t50 128.5t128 49.5t126 -49t48 -129t-48 -129.5t-126 -49.5zM-176 1128q-79 0 -127.5 49.5t-48.5 129.5t48.5 129t127.5 49t127.5 -49t48.5 -129t-48.5 -129.5t-127.5 -49.5z" />
    <glyph glyph-name="uni030A" unicode="&#x30a;" horiz-adv-x="0" 
d="M-227 1135q-101 0 -170.5 69t-69.5 170q0 100 69.5 169t170.5 69t170 -69t69 -169q0 -101 -69 -170t-170 -69zM-227 1300q31 0 52 21.5t21 52.5q0 32 -21 54t-52 22t-52.5 -22t-21.5 -54q0 -31 21.5 -52.5t52.5 -21.5z" />
    <glyph glyph-name="uni030B" unicode="&#x30b;" horiz-adv-x="0" 
d="M-817 1165q-22 0 -30.5 12.5t-0.5 32.5l74 172q12 31 45 31h264q22 0 30 -12.5t-1 -32.5l-88 -174q-16 -29 -45 -29h-248zM-430 1165q-22 0 -29.5 12.5t2.5 34.5l88 172q15 29 45 29h248q22 0 29.5 -12.5t-2.5 -34.5l-90 -172q-15 -29 -45 -29h-246z" />
    <glyph glyph-name="uni030C" unicode="&#x30c;" horiz-adv-x="0" 
d="M-559 1157q-32 0 -47 27l-117 190q-12 20 -4 33.5t31 13.5h207q31 0 45 -26l45 -80q5 -7 12 -7t12 7l45 80q14 26 45 26h205q23 0 30 -13.5t-5 -33.5l-121 -190q-17 -27 -47 -27h-336z" />
    <glyph glyph-name="uni0312" unicode="&#x312;" horiz-adv-x="0" 
d="M-78 1417q23 0 31 -12.5t-2 -34.5l-92 -172q-15 -29 -45 -29h-291q-24 0 -31.5 14.5t6.5 33.5l133 176q18 24 47 24h244z" />
    <glyph glyph-name="uni0313" unicode="&#x313;" horiz-adv-x="0" 
d="M-459 1169q-23 0 -31 13t3 35l92 172q14 28 45 28h291q24 0 31 -14t-7 -33l-133 -176q-19 -25 -47 -25h-244z" />
    <glyph glyph-name="uni0326" unicode="&#x326;" horiz-adv-x="0" 
d="M-483 -350q-23 0 -31 12.5t2 34.5l92 172q14 29 45 29h291q24 0 31.5 -14.5t-6.5 -33.5l-134 -176q-18 -24 -47 -24h-243z" />
    <glyph glyph-name="uni0327" unicode="&#x327;" horiz-adv-x="0" 
d="M-358 -379q-28 11 -25 47l14 119q3 21 14 25.5t33 -2.5q26 -6 46 1t26 27q15 48 -72 117q-22 17 -18.5 31t31.5 14h153q29 0 47 -18q140 -119 101 -250q-17 -61 -61 -95t-97.5 -39.5t-102 1t-89.5 22.5z" />
    <glyph glyph-name="uni0328" unicode="&#x328;" horiz-adv-x="0" 
d="M-4 -332q3 -36 -25 -47q-41 -16 -89.5 -22.5t-102 -1t-97.5 39.5t-61 95q-39 132 100 250q18 18 48 18h153q27 0 30.5 -14t-18.5 -31q-87 -68 -71 -117q6 -20 25.5 -27t45.5 -1q22 7 33.5 2.5t14.5 -25.5z" />
    <glyph glyph-name="uni0335" unicode="&#x335;" horiz-adv-x="0" 
d="M-774 1309q0 39 39 39h696q39 0 39 -39v-148q0 -39 -39 -39h-696q-39 0 -39 39v148z" />
    <glyph glyph-name="uni0336" unicode="&#x336;" horiz-adv-x="0" 
d="M-1300 1034q-39 0 -39 39v178q0 39 39 39h1261q39 0 39 -39v-178q0 -39 -39 -39h-1261z" />
    <glyph glyph-name="uni0337" unicode="&#x337;" horiz-adv-x="0" 
d="M-887 -156q-31 -28 -55 2l-137 160q-23 29 4 53l1018 897q31 28 55 -2l137 -159q24 -29 -4 -54z" />
    <glyph glyph-name="uni0338" unicode="&#x338;" horiz-adv-x="0" 
d="M-924 -61q-22 0 -30 12.5t2 34.5l755 1480q15 29 45 29h101q22 0 30 -12.5t-2 -34.5l-755 -1481q-14 -28 -45 -28h-101z" />
    <glyph glyph-name="uni0394" unicode="&#x394;" horiz-adv-x="1384" 
d="M76 0q-39 0 -39 39v264q0 27 10 47l494 1055q13 29 47 29h207q34 0 47 -29l495 -1057q11 -22 11 -47v-262q0 -39 -39 -39h-1233zM420 350q-7 -18 12 -18h520q20 0 13 18l-263 568q-10 23 -20 0z" />
    <glyph glyph-name="uni03A9" unicode="&#x3a9;" horiz-adv-x="1290" 
d="M100 0q-39 0 -39 39v252q0 39 39 39h17q9 0 12.5 5t-0.5 13q-57 114 -57 258v303q0 243 157.5 392t415.5 149q259 0 417.5 -149t158.5 -392v-303q0 -142 -58 -258q-4 -8 -2 -13t10 -5h19q39 0 39 -39v-252q0 -39 -39 -39h-469q-39 0 -39 39v262q0 30 33 43q57 20 89 71.5
t32 123.5v379q0 94 -52.5 150t-138.5 56q-85 0 -136.5 -56t-51.5 -150v-379q0 -72 32.5 -123.5t88.5 -73.5q32 -13 32 -43v-260q0 -39 -39 -39h-471z" />
    <glyph glyph-name="uni03BC" unicode="&#x3bc;" horiz-adv-x="1136" 
d="M684 1026q0 39 39 39h307q39 0 39 -39v-987q0 -39 -39 -39h-307q-39 0 -39 39v49q0 11 -6 13t-12 -7q-73 -92 -197 -106q-16 -3 -16 -19v-340q0 -39 -39 -39h-308q-38 0 -38 39v1397q0 39 38 39h310q39 0 39 -39v-575q0 -62 31.5 -100t82.5 -38q42 0 73 27t40 72
q2 8 2 20v594z" />
    <glyph glyph-name="pi" unicode="&#x3c0;" horiz-adv-x="1378" 
d="M1333 776q0 -39 -39 -39h-88q-16 0 -16 -16v-264q0 -88 21.5 -113.5t60.5 -21.5q41 3 41 -37v-246q0 -38 -37 -41q-14 -1 -43 -2q-68 -10 -143.5 -4.5t-139.5 21.5t-105.5 73.5t-39.5 151.5v483q0 16 -17 16h-198q-17 0 -17 -16v-682q0 -39 -38 -39h-308q-39 0 -39 39
v682q0 16 -16 16h-88q-39 0 -39 39v250q0 39 39 39h1210q39 0 39 -39v-250z" />
    <glyph glyph-name="Wgrave" unicode="&#x1e80;" horiz-adv-x="1755" 
d="M1032 1585q10 -22 2.5 -34.5t-30.5 -12.5h-244q-28 0 -47 25l-133 176q-14 19 -7 33t31 14h291q31 0 45 -29zM414 0q-35 0 -45 33l-402 1358q-12 43 33 43h332q34 0 43 -33l168 -647q2 -7 6 -9.5t8 0t6 9.5l156 645q9 35 43 35h239q34 0 43 -33l164 -647q2 -7 6 -9.5
t8.5 0t6.5 9.5l151 645q8 35 43 35h332q20 0 29 -11.5t4 -31.5l-358 -1358q-9 -33 -44 -33h-313q-37 0 -43 35l-141 678q-2 7 -6 10t-8 0.5t-5 -10.5l-125 -678q-6 -35 -40 -35h-291z" />
    <glyph glyph-name="wgrave" unicode="&#x1e81;" horiz-adv-x="1689" 
d="M971 1217q10 -22 2 -35t-31 -13h-244q-28 0 -47 25l-133 176q-14 19 -6.5 33t31.5 14h291q31 0 45 -28zM373 0q-35 0 -45 33l-291 989q-12 43 33 43h317q35 0 41 -35l96 -471q2 -7 6 -9.5t8.5 0t6.5 9.5l104 469q6 35 43 35h279q35 0 43 -35l112 -473q2 -7 6 -9.5t8.5 0
t6.5 9.5l113 475q8 35 43 35l317 -4q45 0 33 -43l-297 -985q-10 -33 -45 -33h-320q-33 0 -43 33l-108 385q-2 7 -6 9t-7.5 -1t-5.5 -10l-86 -381q-6 -35 -43 -35h-319z" />
    <glyph glyph-name="Wacute" unicode="&#x1e82;" horiz-adv-x="1755" 
d="M750 1538q-23 0 -31 12.5t2 34.5l92 172q15 29 45 29h291q24 0 31.5 -14t-6.5 -33l-134 -176q-19 -25 -47 -25h-243zM414 0q-35 0 -45 33l-402 1358q-12 43 33 43h332q34 0 43 -33l168 -647q2 -7 6 -9.5t8 0t6 9.5l156 645q9 35 43 35h239q34 0 43 -33l164 -647
q2 -7 6 -9.5t8.5 0t6.5 9.5l151 645q8 35 43 35h332q20 0 29 -11.5t4 -31.5l-358 -1358q-9 -33 -44 -33h-313q-37 0 -43 35l-141 678q-2 7 -6 10t-8 0.5t-5 -10.5l-125 -678q-6 -35 -40 -35h-291z" />
    <glyph glyph-name="wacute" unicode="&#x1e83;" horiz-adv-x="1689" 
d="M688 1169q-23 0 -31 13t2 35l93 172q14 28 45 28h290q24 0 31.5 -14t-6.5 -33l-133 -176q-19 -25 -47 -25h-244zM373 0q-35 0 -45 33l-291 989q-12 43 33 43h317q35 0 41 -35l96 -471q2 -7 6 -9.5t8.5 0t6.5 9.5l104 469q6 35 43 35h279q35 0 43 -35l112 -473
q2 -7 6 -9.5t8.5 0t6.5 9.5l113 475q8 35 43 35l317 -4q45 0 33 -43l-297 -985q-10 -33 -45 -33h-320q-33 0 -43 33l-108 385q-2 7 -6 9t-7.5 -1t-5.5 -10l-86 -381q-6 -35 -43 -35h-319z" />
    <glyph glyph-name="Wdieresis" unicode="&#x1e84;" horiz-adv-x="1755" 
d="M668 1497q-78 0 -128.5 49.5t-50.5 128.5t50.5 128.5t128.5 49.5t126 -49t48 -129t-48 -129t-126 -49zM1092 1497q-79 0 -128 49t-49 129t49 129t128 49t127.5 -49t48.5 -129t-48.5 -129t-127.5 -49zM414 0q-35 0 -45 33l-402 1358q-12 43 33 43h332q34 0 43 -33
l168 -647q2 -7 6 -9.5t8 0t6 9.5l156 645q9 35 43 35h239q34 0 43 -33l164 -647q2 -7 6 -9.5t8.5 0t6.5 9.5l151 645q8 35 43 35h332q20 0 29 -11.5t4 -31.5l-358 -1358q-9 -33 -44 -33h-313q-37 0 -43 35l-141 678q-2 7 -6 10t-8 0.5t-5 -10.5l-125 -678q-6 -35 -40 -35
h-291z" />
    <glyph glyph-name="wdieresis" unicode="&#x1e85;" horiz-adv-x="1689" 
d="M606 1128q-78 0 -128 50t-50 129t50 128.5t128 49.5t126 -49t48 -129t-48 -129.5t-126 -49.5zM1030 1128q-79 0 -127.5 49.5t-48.5 129.5t48.5 129t127.5 49t127.5 -49t48.5 -129t-48.5 -129.5t-127.5 -49.5zM373 0q-35 0 -45 33l-291 989q-12 43 33 43h317q35 0 41 -35
l96 -471q2 -7 6 -9.5t8.5 0t6.5 9.5l104 469q6 35 43 35h279q35 0 43 -35l112 -473q2 -7 6 -9.5t8.5 0t6.5 9.5l113 475q8 35 43 35l317 -4q45 0 33 -43l-297 -985q-10 -33 -45 -33h-320q-33 0 -43 33l-108 385q-2 7 -6 9t-7.5 -1t-5.5 -10l-86 -381q-6 -35 -43 -35h-319z
" />
    <glyph glyph-name="Ygrave" unicode="&#x1ef2;" horiz-adv-x="1333" 
d="M819 1585q10 -22 2.5 -34.5t-30.5 -12.5h-244q-28 0 -47 25l-133 176q-14 19 -7 33t31 14h291q30 0 45 -29zM512 4q-39 0 -39 39v440q0 9 -4 21l-412 885q-9 21 0 33t31 12h334q34 0 45 -31l188 -473q5 -9 11 -9t10 9l188 473q11 31 45 31h336q22 0 31 -12t0 -33
l-416 -885q-4 -12 -4 -21v-440q0 -39 -39 -39h-305z" />
    <glyph glyph-name="ygrave" unicode="&#x1ef3;" horiz-adv-x="1093" 
d="M698 1243q10 -22 2.5 -34.5t-30.5 -12.5h-244q-28 0 -47 25l-133 176q-14 19 -7 33t31 14h291q31 0 45 -29zM90 -408q-14 0 -14 39v238q0 39 12 39h10q133 0 190 15.5t64 66.5q2 8 -2 20l-317 1010q-6 21 3 33t30 12h327q37 0 43 -35l103 -469q3 -10 10 -9.5t10 11.5
l96 467q6 35 43 35h330q21 0 30 -12t3 -33l-332 -1024q-26 -78 -49 -129t-57.5 -101t-76.5 -79t-104.5 -52.5t-145 -33t-192.5 -9.5h-14z" />
    <glyph glyph-name="endash" unicode="&#x2013;" horiz-adv-x="1011" 
d="M84 418q-39 0 -39 39v252q0 39 39 39h844q39 0 39 -39v-252q0 -39 -39 -39h-844z" />
    <glyph glyph-name="emdash" unicode="&#x2014;" horiz-adv-x="1312" 
d="M84 420q-39 0 -39 39v250q0 39 39 39h1145q39 0 39 -39v-250q0 -39 -39 -39h-1145z" />
    <glyph glyph-name="quoteleft" unicode="&#x2018;" horiz-adv-x="503" 
d="M49 942q-22 0 -30.5 12.5t-0.5 32.5l170 416q12 31 45 31h226q20 0 29.5 -11.5t5.5 -31.5l-99 -414q-8 -35 -43 -35h-303z" />
    <glyph glyph-name="quoteright" unicode="&#x2019;" horiz-adv-x="503" 
d="M455 1434q22 0 30 -12.5t0 -32.5l-170 -416q-12 -31 -45 -31h-225q-20 0 -29.5 11.5t-5.5 31.5l99 414q8 35 43 35h303z" />
    <glyph glyph-name="quotesinglbase" unicode="&#x201a;" horiz-adv-x="1228" 
d="M86 -227q-19 0 -29 11t-8 30l51 477q3 37 41 37h262q20 0 29 -11.5t4 -31.5l-129 -480q-8 -32 -43 -32h-178z" />
    <glyph glyph-name="quotedblleft" unicode="&#x201c;" horiz-adv-x="876" 
d="M47 942q-22 0 -30.5 12.5t-2.5 32.5l144 416q9 31 43 31h215q41 0 35 -43l-74 -414q-6 -35 -41 -35h-289zM469 942q-22 0 -30.5 12.5t-2.5 32.5l139 414q10 33 43 33h216q40 0 34 -43l-69 -414q-6 -35 -43 -35h-287z" />
    <glyph glyph-name="quotedblright" unicode="&#x201d;" horiz-adv-x="876" 
d="M408 1434q21 0 29.5 -12t2.5 -33l-139 -414q-10 -33 -43 -33h-215q-41 0 -35 43l70 414q6 35 43 35h287zM829 1434q22 0 30.5 -12.5t2.5 -32.5l-143 -416q-9 -31 -43 -31h-215q-41 0 -35 43l74 414q6 35 41 35h288z" />
    <glyph glyph-name="quotedblbase" unicode="&#x201e;" horiz-adv-x="931" 
d="M408 264q21 0 29.5 -12t2.5 -33l-139 -414q-10 -32 -43 -32h-215q-41 0 -35 43l70 413q6 35 43 35h287zM829 264q22 0 30.5 -12.5t2.5 -32.5l-143 -416q-9 -30 -43 -30h-215q-41 0 -35 43l74 413q6 35 41 35h288z" />
    <glyph glyph-name="dagger" unicode="&#x2020;" horiz-adv-x="950" 
d="M866 942q39 0 39 -39v-209q0 -39 -39 -39h-182q-16 0 -16 -16v-1010q0 -39 -39 -39h-307q-39 0 -39 39v1010q0 16 -17 16h-182q-39 0 -39 39v209q0 39 39 39h182q17 0 17 16v437q0 39 39 39h307q39 0 39 -39v-437q0 -16 16 -16h182z" />
    <glyph glyph-name="daggerdbl" unicode="&#x2021;" horiz-adv-x="950" 
d="M905 694q0 -39 -39 -39h-182q-16 0 -16 -16v-254q0 -16 16 -16h182q39 0 39 -39v-209q0 -39 -39 -39h-182q-16 0 -16 -16v-437q0 -39 -39 -39h-307q-39 0 -39 39v437q0 16 -17 16h-182q-39 0 -39 39v209q0 39 39 39h182q17 0 17 16v254q0 16 -17 16h-182q-39 0 -39 39
v209q0 39 39 39h182q17 0 17 16v437q0 39 39 39h307q39 0 39 -39v-437q0 -16 16 -16h182q39 0 39 -39v-209z" />
    <glyph glyph-name="bullet" unicode="&#x2022;" horiz-adv-x="659" 
d="M332 293q-120 0 -203.5 84t-83.5 203q0 120 83.5 202t203.5 82q118 0 200 -82t82 -202q0 -119 -82.5 -203t-199.5 -84z" />
    <glyph glyph-name="ellipsis" unicode="&#x2026;" horiz-adv-x="1818" 
d="M268 -16q-98 0 -162.5 62.5t-64.5 152.5q0 87 69.5 150t157.5 63q90 0 160 -63t70 -150q0 -90 -65.5 -152.5t-164.5 -62.5zM907 -16q-98 0 -162.5 62.5t-64.5 152.5q0 87 69.5 150t157.5 63q90 0 160 -63t70 -150q0 -90 -65.5 -152.5t-164.5 -62.5zM1548 -16
q-98 0 -162.5 62.5t-64.5 152.5q0 87 69.5 150t157.5 63q90 0 160 -63t70 -150q0 -90 -65.5 -152.5t-164.5 -62.5z" />
    <glyph glyph-name="perthousand" unicode="&#x2030;" horiz-adv-x="2453" 
d="M344 565q-149 0 -234 82t-85 227v271q0 141 85 223t234 82q148 0 234 -82t86 -223v-271q0 -144 -86 -226.5t-234 -82.5zM401 0q-23 0 -30 13.5t4 33.5l758 1360q13 27 45 27h186q23 0 30.5 -14t-3.5 -34l-756 -1359q-13 -27 -45 -27h-189zM344 772q37 0 57.5 23.5
t20.5 64.5v293q0 42 -20.5 66t-57.5 24t-57.5 -24t-20.5 -66v-293q0 -41 20.5 -64.5t57.5 -23.5zM1417 -16q-149 0 -234 82t-85 227v270q0 141 85 223t234 82q148 0 234 -82t86 -223v-270q0 -144 -86 -226.5t-234 -82.5zM2107 -16q-149 0 -234 82t-85 227v270q0 141 85 223
t234 82q148 0 234 -82t86 -223v-270q0 -144 -86 -226.5t-234 -82.5zM1417 190q37 0 57.5 24t20.5 65v292q0 42 -21 66.5t-57 24.5t-57 -24.5t-21 -66.5v-292q0 -41 20.5 -65t57.5 -24zM2107 190q37 0 57.5 24t20.5 65v292q0 42 -21 66.5t-57 24.5t-56.5 -24.5t-20.5 -66.5
v-292q0 -42 20.5 -65.5t56.5 -23.5z" />
    <glyph glyph-name="guilsinglleft" unicode="&#x2039;" horiz-adv-x="647" 
d="M545 264q9 -20 1 -32.5t-30 -12.5h-231q-34 0 -47 29l-146 301q-12 27 0 53l146 301q13 29 47 29h231q22 0 30 -12.5t-1 -32.5l-150 -301q-7 -10 0 -21z" />
    <glyph glyph-name="guilsinglright" unicode="&#x203a;" horiz-adv-x="628" 
d="M131 219q-22 0 -30 12.5t1 32.5l150 301q7 11 0 21l-150 301q-9 20 -1 32.5t30 12.5h231q35 0 48 -29l145 -301q12 -26 0 -53l-145 -301q-13 -29 -48 -29h-231z" />
    <glyph glyph-name="fraction" unicode="&#x2044;" horiz-adv-x="434" 
d="M-238 0q-23 0 -30 13.5t4 33.5l758 1360q14 27 45 27h186q23 0 30.5 -14t-3.5 -34l-756 -1359q-14 -27 -45 -27h-189z" />
    <glyph glyph-name="uni2074" unicode="&#x2074;" horiz-adv-x="796" 
d="M715 1241q37 0 37 -39v-141q0 -39 -37 -39h-21q-16 0 -16 -16v-148q0 -39 -39 -39h-164q-39 0 -39 39v148q0 16 -16 16h-357q-38 0 -38 39v110q0 21 10 48l186 430q12 30 45 30h172q22 0 30.5 -12.5t0.5 -32.5l-158 -374q-6 -19 13 -19h96q16 0 16 16v86q0 39 39 39h164
q39 0 39 -39v-86q0 -16 16 -16h21z" />
    <glyph glyph-name="uni2075" unicode="&#x2075;" horiz-adv-x="661" 
d="M616 1217q27 -59 27 -121q0 -59 -27 -123q-34 -78 -111.5 -124t-178.5 -46q-99 0 -176.5 45.5t-114.5 124.5q-14 30 -19 55q-9 41 35 41h174q31 0 37 -16l8 -15q19 -28 56 -28q29 0 51 26q18 21 18 54t-14 55q-18 29 -55 29q-20 0 -43 -13q-29 -22 -47 -22h-185
q-39 0 -39 39v454q0 39 39 39h527q38 0 38 -39v-129q0 -39 -38 -39h-308q-16 0 -16 -16v-70q0 -19 18 -12q43 14 90 14q81 0 149 -42t105 -121z" />
    <glyph glyph-name="uni2076" unicode="&#x2076;" horiz-adv-x="679" 
d="M635 1217q22 -48 22 -121q0 -71 -22 -123q-34 -76 -113 -123t-180 -47q-97 0 -173.5 45.5t-113.5 124.5q-26 56 -26 123v358q0 101 84.5 164t220.5 63q134 0 217.5 -63t83.5 -164v-24q0 -39 -39 -39h-164q-39 0 -39 14v12q0 24 -17 41t-44 17q-26 0 -44 -17t-18 -41v-57
q0 -9 6 -12t13 2q43 24 96 24q75 0 145 -41.5t105 -115.5zM393 1028q23 23 23 57q0 31 -15 52q-20 30 -57 30q-26 0 -45 -16q-27 -24 -27 -64q0 -33 19 -55t53 -22q31 0 49 18z" />
    <glyph glyph-name="uni2077" unicode="&#x2077;" horiz-adv-x="632" 
d="M160 819q-22 0 -30 11.5t-1 33.5l231 590q3 8 0 13.5t-12 5.5h-127q-16 0 -16 -17v-67q0 -39 -39 -39h-117q-39 0 -39 39l2 251q0 39 39 39h533q39 0 39 -39v-143q0 -20 -9 -47l-239 -600q-11 -31 -45 -31h-170z" />
    <glyph glyph-name="uni2078" unicode="&#x2078;" horiz-adv-x="686" 
d="M631 1208q28 -51 28 -135q0 -64 -24 -117q-33 -70 -111.5 -111.5t-181.5 -41.5q-97 0 -173.5 38.5t-115.5 112.5q-28 52 -28 121q0 72 32 131q17 30 39 47q12 13 0 25q-16 14 -33 39q-30 46 -30 117q0 70 30 122q35 66 108.5 101t172.5 35q98 0 172.5 -37.5t110.5 -102.5
q28 -54 28 -114q0 -71 -32 -121q-5 -6 -15.5 -19.5t-15.5 -19.5q-12 -12 0 -23q22 -19 39 -47zM285 1456q-13 -16 -13 -39t15 -45q21 -24 59 -24q39 0 57 24q15 19 15 43q0 28 -15 43q-20 27 -59 27q-40 0 -59 -29zM397 1034q17 27 17 60q0 23 -11 45q-19 32 -59 32t-59 -32
q-11 -22 -11 -45q0 -34 17 -58q19 -28 53 -28q33 0 53 26z" />
    <glyph glyph-name="uni2079" unicode="&#x2079;" horiz-adv-x="679" 
d="M625 1511q26 -56 26 -122v-359q0 -101 -84.5 -164t-220.5 -63q-134 0 -217.5 63t-83.5 164v25q0 39 39 39h164q39 0 39 -13v-14q0 -24 17 -40.5t44 -16.5q26 0 44 17t18 40v57q0 9 -6 12.5t-13 -1.5q-45 -25 -96 -25q-75 0 -144.5 42t-105.5 116q-22 48 -22 121
q0 70 22 122q34 76 113 123t180 47q97 0 173.5 -45.5t113.5 -124.5zM381 1333q27 24 27 64q0 33 -19 55q-20 23 -53 23q-30 0 -49 -19q-23 -23 -23 -57q0 -30 15 -51q21 -31 57 -31q26 0 45 16z" />
    <glyph glyph-name="franc" unicode="&#x20a3;" horiz-adv-x="1257" 
d="M1239 1143q0 -39 -39 -39h-596q-16 0 -16 -17v-180q0 -16 16 -16h365q39 0 39 -39v-250q0 -39 -39 -39h-365q-16 0 -16 -16v-105q0 -16 16 -16h211q39 0 39 -39v-147q0 -39 -39 -39h-211q-16 0 -16 -17v-145q0 -39 -39 -39h-307q-39 0 -39 39v145q0 17 -17 17h-67
q-39 0 -39 39v147q0 39 39 39h67q17 0 17 16v953q0 39 39 39h958q39 0 39 -39v-252z" />
    <glyph glyph-name="Euro" unicode="&#x20ac;" horiz-adv-x="1296" 
d="M733 313q44 0 75.5 24t43.5 64q9 39 45 33l303 -55q39 -6 33 -45q-34 -163 -167 -256.5t-333 -93.5q-231 0 -370.5 132.5t-139.5 354.5v18q0 17 -16 17h-107q-39 0 -39 39v114q0 39 39 39h107q16 0 16 17v10q0 16 -16 16h-107q-39 0 -39 39v115q0 39 39 39h107
q16 0 16 16v17q0 222 139.5 352.5t370.5 130.5q203 0 337 -94.5t165 -261.5q6 -40 -33 -43l-309 -37q-34 -3 -45 30q-14 36 -44 56t-71 20q-56 0 -90.5 -39.5t-34.5 -103.5v-27q0 -16 17 -16h331q45 0 33 -43l-33 -117q-10 -33 -45 -33h-286q-17 0 -17 -16v-10q0 -17 17 -17
h262q45 0 33 -43l-33 -116q-10 -33 -45 -33h-217q-17 0 -17 -17v-34q0 -63 35 -102.5t90 -39.5z" />
    <glyph glyph-name="uni20BA" unicode="&#x20ba;" horiz-adv-x="1341" 
d="M899 557q3 39 41 39h307q40 0 37 -39q-5 -87 -32.5 -167t-81.5 -151.5t-129.5 -124t-182.5 -83.5t-235 -31h-306q-38 0 -38 39v428q0 7 -5.5 11.5t-13.5 2.5l-100 -28q-38 -10 -47 26l-39 131q-12 38 24 47l166 48q15 4 15 18v51q0 7 -5.5 11.5t-13.5 2.5l-100 -28
q-38 -10 -47 26l-39 132q-12 38 24 47l166 47q15 4 15 18v365q0 39 38 39h308q39 0 39 -39v-252q0 -17 18 -13l281 78q38 10 47 -26l39 -131q11 -35 -25 -47l-346 -99q-14 -3 -14 -18v-51q0 -17 18 -13l281 78q37 10 47 -27l39 -131q11 -35 -25 -47l-346 -98q-14 -4 -14 -18
v-234q0 -17 22 -14q200 24 213 225z" />
    <glyph glyph-name="uni20BD" unicode="&#x20bd;" horiz-adv-x="1437" 
d="M895 522h-211q-16 0 -16 -16v-39q0 -16 16 -16h303q39 0 39 -39v-140q0 -39 -39 -39h-303q-16 0 -16 -16v-178q0 -39 -39 -39h-307q-39 0 -39 39v178q0 16 -17 16h-147q-39 0 -39 39v140q0 39 39 39h147q17 0 17 16v39q0 16 -17 16h-147q-39 0 -39 39v230q0 38 39 38h147
q17 0 17 17v549q0 39 39 39h591q218 0 353 -128t135 -333q0 -133 -68.5 -236.5t-183.5 -159t-254 -55.5zM684 1104q-16 0 -16 -17v-241q0 -17 16 -17h166q168 0 168 136q0 139 -168 139h-166z" />
    <glyph glyph-name="uni2113" unicode="&#x2113;" horiz-adv-x="1024" 
d="M723 313q29 29 53 4l148 -151q25 -29 2 -55q-60 -68 -136.5 -97.5t-195.5 -29.5q-161 0 -260 87.5t-111 241.5q-3 22 -18 15l-17 -11q-38 -21 -51 21l-53 176q-9 38 22 51l101 56q12 6 12 18l-2 391q0 51 13 106t44 111t74.5 100.5t110.5 72.5t147 28q149 0 239.5 -90
t90.5 -234q0 -173 -103 -316.5t-290 -275.5q-11 -11 -11 -20v-92q0 -80 26.5 -115t68.5 -35q53 0 96 43zM528 969v-90q0 -11 7 -13.5t14 4.5q106 116 106 220q0 44 -12 67.5t-45 24.5q-24 -1 -37.5 -14t-23.5 -62t-9 -137z" />
    <glyph glyph-name="trademark" unicode="&#x2122;" horiz-adv-x="1388" 
d="M57 1262q-39 0 -39 38v95q0 39 39 39h521q38 0 38 -39v-95q0 -38 -38 -38h-146q-16 0 -16 -17v-491q0 -39 -39 -39h-123q-39 0 -39 39v491q0 17 -16 17h-142zM1135 1411q17 23 47 23h127q39 0 39 -39v-641q0 -39 -39 -39h-123q-39 0 -39 39v346q0 11 -7.5 13t-13.5 -7
l-47 -64q-17 -22 -47 -22h-28q-32 0 -48 22l-47 64q-6 9 -13 7t-7 -13v-346q0 -39 -39 -39h-123q-39 0 -39 39v641q0 39 39 39h129q30 0 47 -23l103 -137q5 -7 12 -6.5t12 6.5z" />
    <glyph glyph-name="uni2126" unicode="&#x2126;" horiz-adv-x="1290" 
d="M100 0q-39 0 -39 39v252q0 39 39 39h17q9 0 12.5 5t-0.5 13q-57 114 -57 258v303q0 243 157.5 392t415.5 149q259 0 417.5 -149t158.5 -392v-303q0 -142 -58 -258q-4 -8 -2 -13t10 -5h19q39 0 39 -39v-252q0 -39 -39 -39h-469q-39 0 -39 39v262q0 30 33 43q57 20 89 71.5
t32 123.5v379q0 94 -52.5 150t-138.5 56q-85 0 -136.5 -56t-51.5 -150v-379q0 -72 32.5 -123.5t88.5 -73.5q32 -13 32 -43v-260q0 -39 -39 -39h-471z" />
    <glyph glyph-name="estimated" unicode="&#x212e;" horiz-adv-x="1648" 
d="M823 1450q163 0 305 -55.5t243 -153t158.5 -235t57.5 -295.5q0 -9 -39 -9h-1200q-16 0 -16 -16v-418q0 -12 8 -20q189 -180 483 -180q178 0 342.5 93t249.5 240q15 27 45 27h17q22 0 30 -12.5t-2 -32.5q-92 -177 -281.5 -288t-400.5 -111q-163 0 -305 54.5t-242 150.5
t-157.5 231t-57.5 291q0 158 57.5 295.5t157.5 235t242 153t305 55.5zM342 1184q-8 -8 -8 -21v-360q0 -17 16 -17h948q17 0 17 17v358q0 13 -8 21q-190 184 -484 184q-293 0 -481 -182z" />
    <glyph glyph-name="oneeighth" unicode="&#x215b;" horiz-adv-x="1660" 
d="M367 612q0 -39 -39 -39h-164q-39 0 -39 39v598q0 17 -16 17l-25 2q-39 0 -39 39v100q0 33 31 45l26 10q25 11 48 11h178q39 0 39 -39v-783zM983 1407q13 27 45 27h186q23 0 30.5 -14t-3.5 -34l-756 -1359q-13 -27 -45 -27h-188q-23 0 -30.5 13.5t3.5 33.5zM1606 389
q28 -51 28 -135q0 -64 -24 -117q-33 -70 -111.5 -111.5t-181.5 -41.5q-97 0 -173.5 38.5t-115.5 112.5q-29 54 -29 121q0 70 33 131q17 30 39 47q13 12 0 25q-16 14 -33 39q-30 46 -30 116t30 123q35 65 108.5 100t172.5 35q98 0 173 -37t110 -102q28 -54 28 -115
q0 -69 -33 -120q-5 -6 -15 -19.5t-15 -19.5q-11 -11 0 -23q22 -19 39 -47zM1260 637q-13 -16 -13 -39q0 -22 15 -45q21 -25 59 -25t57 25q15 19 15 43q0 28 -15 43q-20 27 -59 27q-40 0 -59 -29zM1372 215q17 27 17 59q0 23 -11 45q-20 33 -59 33t-59 -33q-11 -22 -11 -45
q0 -33 17 -57q19 -29 53 -29q33 0 53 27z" />
    <glyph glyph-name="threeeighths" unicode="&#x215c;" horiz-adv-x="1837" 
d="M623 739q-34 -80 -111.5 -128t-177.5 -48q-101 0 -178.5 48t-114.5 132q-17 38 -23 86q-3 41 39 41h166q32 0 41 -36q8 -23 15 -35q19 -29 55 -29q34 0 53 29q19 32 19 73q0 46 -19 78q-19 31 -55 31q-26 0 -53 -16q-34 -20 -56 8l-76 94q-27 33 9 55l141 84
q9 6 7.5 13.5t-13.5 7.5h-209q-39 0 -39 39v129q0 39 39 39h514q39 0 39 -39v-138q0 -28 -25 -47l-112 -80q-17 -14 4 -20q81 -31 123 -121q22 -51 22 -123q0 -67 -24 -127zM1159 1407q13 27 45 27h187q23 0 30 -14t-4 -34l-755 -1359q-14 -27 -46 -27h-188
q-23 0 -30.5 13.5t3.5 33.5zM1782 389q28 -51 28 -135q0 -64 -24 -117q-33 -70 -111.5 -111.5t-181.5 -41.5q-97 0 -173.5 38.5t-115.5 112.5q-28 52 -28 121q0 72 32 131q17 30 39 47q13 12 0 25q-16 14 -33 39q-30 46 -30 116t30 123q35 65 108.5 100t172.5 35
q98 0 173 -37t110 -102q28 -54 28 -115q0 -70 -32 -120q-5 -6 -15.5 -19.5t-15.5 -19.5q-11 -11 0 -23q22 -19 39 -47zM1436 637q-13 -16 -13 -39q0 -22 15 -45q21 -25 59 -25t57 25q15 19 15 43q0 28 -15 43q-20 27 -59 27q-40 0 -59 -29zM1548 215q17 27 17 59
q0 23 -11 45q-20 33 -59 33t-59 -33q-11 -22 -11 -45q0 -33 17 -57q19 -29 53 -29q33 0 53 27z" />
    <glyph glyph-name="fiveeighths" unicode="&#x215d;" horiz-adv-x="1832" 
d="M1155 1407q13 27 45 27h186q23 0 30.5 -14t-3.5 -34l-756 -1359q-13 -27 -45 -27h-188q-23 0 -30.5 13.5t3.5 33.5zM616 727q-34 -78 -111.5 -124t-178.5 -46q-99 0 -176.5 45.5t-114.5 124.5q-14 31 -19 55q-9 41 35 41h174q31 0 37 -16l8 -14q19 -29 56 -29q28 0 51 27
q18 21 18 53q0 33 -14 55q-18 29 -55 29q-20 0 -43 -13q-29 -22 -47 -22h-185q-39 0 -39 39v454q0 39 39 39h527q38 0 38 -39v-129q0 -38 -38 -38h-308q-16 0 -16 -17v-69q0 -20 18 -13q47 15 90 15q81 0 149 -42.5t105 -121.5q27 -59 27 -121q0 -59 -27 -123zM1778 389
q28 -51 28 -135q0 -64 -24 -117q-33 -70 -111.5 -111.5t-181.5 -41.5q-97 0 -173.5 38.5t-115.5 112.5q-29 54 -29 121q0 70 33 131q17 30 39 47q13 12 0 25q-16 14 -33 39q-30 46 -30 116t30 123q35 65 108.5 100t172.5 35q98 0 173 -37t110 -102q28 -54 28 -115
q0 -69 -33 -120q-5 -6 -15 -19.5t-15 -19.5q-11 -11 0 -23q22 -19 39 -47zM1432 637q-13 -16 -13 -39q0 -22 15 -45q21 -25 59 -25t57 25q15 19 15 43q0 28 -15 43q-20 27 -59 27q-40 0 -59 -29zM1544 215q17 27 17 59q0 23 -11 45q-20 33 -59 33t-59 -33q-11 -22 -11 -45
q0 -33 17 -57q19 -29 53 -29q33 0 53 27z" />
    <glyph glyph-name="seveneighths" unicode="&#x215e;" horiz-adv-x="1736" 
d="M375 604q-11 -31 -45 -31h-170q-22 0 -30 11.5t-1 33.5l231 590q3 8 0 13.5t-12 5.5h-127q-16 0 -16 -17v-67q0 -39 -39 -39h-117q-39 0 -39 39l2 252q0 39 39 39h533q39 0 39 -39v-144q0 -20 -9 -47zM1059 1407q13 27 45 27h186q23 0 30.5 -14t-3.5 -34l-756 -1359
q-13 -27 -45 -27h-188q-23 0 -30.5 13.5t3.5 33.5zM1681 389q29 -53 29 -135q0 -64 -24 -117q-33 -70 -111.5 -111.5t-181.5 -41.5q-97 0 -173.5 38.5t-115.5 112.5q-29 54 -29 121q0 70 33 131q17 30 39 47q13 12 0 25q-16 14 -33 39q-31 47 -31 116t31 123
q35 65 108.5 100t172.5 35q98 0 172.5 -37t109.5 -102q29 -56 29 -115q0 -69 -33 -120q-5 -6 -15.5 -19.5t-15.5 -19.5q-12 -11 0 -23q22 -19 39 -47zM1335 637q-12 -15 -12 -39t14 -45q21 -25 60 -25q38 0 57 25q14 18 14 43q0 29 -14 43q-20 27 -59 27q-41 0 -60 -29z
M1448 215q16 26 16 59q0 25 -10 45q-20 33 -59 33q-40 0 -60 -33q-10 -20 -10 -45q0 -35 16 -57q19 -29 54 -29q33 0 53 27z" />
    <glyph glyph-name="partialdiff" unicode="&#x2202;" horiz-adv-x="1230" 
d="M952 1262q117 -130 166.5 -323t34.5 -376q-11 -129 -55.5 -234.5t-119.5 -182.5t-185.5 -119.5t-247.5 -42.5q-239 0 -382 124.5t-143 352.5q0 100 29.5 182t79.5 137t118 92t143 52.5t155 13.5q70 -3 153 -23q11 -2 15 3t0 14q-21 48 -43 72q-56 65 -150 71
q-102 6 -241 -59q-40 -19 -52 20l-102 271q-12 38 20 49q219 92 402 86q250 -6 405 -180zM565 313q74 0 122 59t65 173q3 10 -7 20q-68 74 -167 68q-70 -3 -121 -47.5t-51 -112.5q0 -66 45.5 -113t113.5 -47z" />
    <glyph glyph-name="uni2206" unicode="&#x2206;" horiz-adv-x="1384" 
d="M76 0q-39 0 -39 39v262q0 27 10 47l494 1057q13 29 47 29h207q34 0 47 -29l495 -1059q11 -22 11 -47v-260q0 -39 -39 -39h-1233zM420 348q-7 -18 12 -18h520q20 0 13 18l-263 570q-10 23 -20 0z" />
    <glyph glyph-name="product" unicode="&#x220f;" horiz-adv-x="1257" 
d="M1157 1638q39 0 39 -39v-1970q0 -39 -39 -39h-307q-39 0 -39 39v1663q0 17 -16 17h-314q-16 0 -16 -17v-1663q0 -39 -39 -39h-307q-39 0 -39 39v1970q0 39 39 39h1038z" />
    <glyph glyph-name="summation" unicode="&#x2211;" horiz-adv-x="1196" 
d="M119 -410q-39 0 -39 39v265q0 27 14 49l443 721q6 13 0 22l-441 600q-16 22 -16 49v264q0 39 39 39h989q39 0 39 -39v-251q0 -39 -39 -39h-621q-9 0 -11.5 -6t3.5 -15l451 -586q21 -24 2 -55l-457 -706q-5 -7 -1 -14t13 -7h621q39 0 39 -39v-252q0 -39 -39 -39h-989z" />
    <glyph glyph-name="minus" unicode="&#x2212;" horiz-adv-x="974" 
d="M84 434q-39 0 -39 39v250q0 39 39 39h807q39 0 39 -39v-250q0 -39 -39 -39h-807z" />
    <glyph glyph-name="uni2215" unicode="&#x2215;" horiz-adv-x="1138" 
d="M76 0q-22 0 -29.5 12.5t2.5 34.5l699 1358q14 29 45 29h270q22 0 29.5 -13t-2.5 -35l-697 -1357q-15 -29 -45 -29h-272z" />
    <glyph glyph-name="uni2219" unicode="&#x2219;" horiz-adv-x="659" 
d="M332 303q-120 0 -203.5 84t-83.5 203q0 120 83.5 202t203.5 82q118 0 200 -82t82 -202q0 -119 -82.5 -203t-199.5 -84z" />
    <glyph glyph-name="radical" unicode="&#x221a;" horiz-adv-x="1757" 
d="M393 -410q-34 0 -45 31l-309 819q-12 38 22 49l287 95q36 13 49 -25l113 -319q3 -10 10 -9.5t10 11.5l357 1360q8 32 43 32h721q39 0 39 -39v-252q0 -38 -39 -38h-447q-14 0 -18 -15l-441 -1667q-9 -33 -43 -33h-309z" />
    <glyph glyph-name="infinity" unicode="&#x221e;" horiz-adv-x="1613" 
d="M1153 1069q180 0 298 -119t118 -297q0 -180 -119 -296.5t-307 -116.5q-102 0 -182 39t-154 120q-13 13 -25 0q-152 -159 -331 -159q-170 0 -288 121t-118 296t118.5 293.5t293.5 118.5q189 0 331 -160q13 -13 23 0q153 160 342 160zM455 535q38 0 68.5 23.5t80.5 86.5
q12 12 2 25q-45 61 -74 82.5t-69 21.5q-57 0 -90 -32t-33 -85q0 -54 32.5 -88t82.5 -34zM1147 535q61 0 94 31t33 87q0 55 -32 88t-85 33q-42 0 -82 -24.5t-88 -83.5q-12 -12 6 -33q43 -57 76.5 -77.5t77.5 -20.5z" />
    <glyph glyph-name="integral" unicode="&#x222b;" horiz-adv-x="864" 
d="M82 -412q-41 3 -41 41v178q0 39 39 39h82q39 4 58.5 30.5t19.5 64.5v1198q0 183 116 244t426 53q41 -3 41 -41v-178q0 -39 -39 -39h-82q-77 -8 -77 -95v-1198q0 -183 -116.5 -244t-426.5 -53z" />
    <glyph glyph-name="approxequal" unicode="&#x2248;" horiz-adv-x="1140" 
d="M745 588q-80 0 -161 47l-13 7q-13 8 -15.5 9.5t-15.5 8.5t-18 9.5l-17 8.5t-19 8t-18.5 6t-20 5.5t-19 3t-20.5 1.5q-67 0 -113 -59q-25 -29 -55 -8l-166 115q-30 21 -19 51q38 101 134 166t204 65q81 0 170 -51q6 -3 26 -15t27.5 -16t24 -12t26.5 -11t23 -6t25 -3
q56 0 102 57q23 33 53 12l197 -125q30 -20 16 -53q-41 -98 -137 -159.5t-201 -61.5zM745 158q-80 0 -161 47l-13 7q-13 8 -15.5 9.5t-15.5 8.5t-18 9.5l-17 8.5t-19 8t-18.5 6t-20 5.5t-19 3t-20.5 1.5q-67 0 -113 -59q-25 -29 -55 -8l-166 114q-30 21 -19 52
q38 101 134 166t204 65q81 0 170 -51q6 -3 31 -17.5t33.5 -19t27 -13t32.5 -11.5t28 -3q55 0 102 58q23 33 53 12l197 -125q30 -20 16 -53q-41 -98 -137 -159.5t-201 -61.5z" />
    <glyph glyph-name="notequal" unicode="&#x2260;" horiz-adv-x="974" 
d="M930 688q0 -39 -39 -39h-244q-15 0 -20 -12l-4 -12q-3 -8 0 -13.5t12 -5.5h256q39 0 39 -39v-250q0 -38 -39 -38h-402q-15 0 -20 -13l-66 -155q-12 -31 -45 -31h-143q-22 0 -30.5 12.5t-0.5 32.5l58 135q6 19 -13 19h-145q-39 0 -39 38v250q0 39 39 39h291q15 0 20 12
l4 13q7 18 -12 18h-303q-39 0 -39 39v250q0 39 39 39h448q16 0 21 12l55 133q12 31 45 31h144q22 0 30 -12.5t0 -32.5l-47 -113q-6 -18 13 -18h98q39 0 39 -39v-250z" />
    <glyph glyph-name="lessequal" unicode="&#x2264;" horiz-adv-x="974" 
d="M930 422q0 -22 -12.5 -31t-32.5 0l-809 348q-31 12 -31 45v263q0 33 31 45l809 346q20 9 32.5 1t12.5 -30v-283q0 -33 -31 -45l-430 -155q-11 -3 -11 -10.5t11 -10.5l430 -155q31 -12 31 -45v-283zM930 39q0 -39 -39 -39h-807q-39 0 -39 39v250q0 39 39 39h807
q39 0 39 -39v-250z" />
    <glyph glyph-name="greaterequal" unicode="&#x2265;" horiz-adv-x="974" 
d="M90 391q-20 -9 -32.5 0t-12.5 31v283q0 33 31 45l430 155q10 3 10 10.5t-10 10.5l-430 155q-31 12 -31 45v283q0 22 12.5 31t32.5 0l809 -348q31 -12 31 -45v-263q0 -33 -31 -45zM84 0q-39 0 -39 39v250q0 39 39 39h807q39 0 39 -39v-250q0 -39 -39 -39h-807z" />
    <glyph glyph-name="lozenge" unicode="&#x25ca;" horiz-adv-x="1187" 
d="M498 -123q-29 0 -45 29l-396 784q-11 24 2 53l396 785q16 28 45 28h188q29 0 45 -28l395 -785q13 -29 2 -53l-395 -784q-16 -29 -45 -29h-192zM584 307q10 -23 20 0l184 400q8 12 3 20l-187 399q-10 23 -20 0l-185 -399q-7 -10 0 -20z" />
    <glyph glyph-name="i.loclTRK" horiz-adv-x="522" 
d="M250 1153q-72 0 -116 45t-44 117q0 73 44 117.5t116 44.5t115 -44t43 -118q0 -72 -43 -117t-115 -45zM104 0q-38 0 -38 39v987q0 39 38 39h308q39 0 39 -39v-987q0 -39 -39 -39h-308z" />
    <glyph glyph-name="a.alt" horiz-adv-x="1155" 
d="M702 1026q0 39 39 39h308q38 0 38 -39v-987q0 -39 -38 -39h-308q-39 0 -39 39v43q0 10 -6 11.5t-12 -7.5q-79 -102 -231 -102q-137 0 -247 87t-155 236q-31 102 -31 230q0 145 46 262q49 125 153.5 203.5t249.5 78.5t215 -86q8 -7 13 -4.5t5 13.5v22zM672 383
q30 58 30 147q0 101 -32 158q-38 64 -107 64q-72 0 -108 -68q-31 -60 -31 -154q0 -89 31 -149q38 -68 108 -68q72 0 109 70z" />
    <glyph glyph-name="a.sc" horiz-adv-x="1239" 
d="M866 0q-34 0 -43 33l-22 88q-3 14 -19 14h-325q-15 0 -19 -14l-22 -88q-9 -33 -43 -33h-303q-21 0 -30 12t-3 33l356 1106q9 33 43 33h367q34 0 43 -33l356 -1106q6 -21 -3 -33t-30 -12h-303zM524 449q-3 -19 15 -19h161q18 0 15 19l-84 323q-2 7 -6.5 9.5t-8.5 0
t-6 -9.5z" />
    <glyph glyph-name="aacute.sc" horiz-adv-x="1239" 
d="M887 1536q24 0 31 -14t-7 -33l-133 -176q-19 -25 -47 -25h-244q-23 0 -30.5 12.5t2.5 34.5l92 172q15 29 45 29h291zM866 0q-34 0 -43 33l-22 88q-3 14 -19 14h-325q-15 0 -19 -14l-22 -88q-9 -33 -43 -33h-303q-21 0 -30 12t-3 33l356 1106q9 33 43 33h367q34 0 43 -33
l356 -1106q6 -21 -3 -33t-30 -12h-303zM524 449q-3 -19 15 -19h161q18 0 15 19l-84 323q-2 7 -6.5 9.5t-8.5 0t-6 -9.5z" />
    <glyph glyph-name="abreve.sc" horiz-adv-x="1239" 
d="M616 1231q-105 0 -182.5 63t-91.5 158q-3 20 7.5 30.5t29.5 10.5h117q31 0 43 -35q7 -29 28 -46t49 -17t49.5 17t28.5 46q12 35 43 35h117q19 0 29.5 -10.5t9.5 -28.5q-15 -96 -93.5 -159.5t-183.5 -63.5zM866 0q-34 0 -43 33l-22 88q-3 14 -19 14h-325q-15 0 -19 -14
l-22 -88q-9 -33 -43 -33h-303q-21 0 -30 12t-3 33l356 1106q9 33 43 33h367q34 0 43 -33l356 -1106q6 -21 -3 -33t-30 -12h-303zM524 449q-3 -19 15 -19h161q18 0 15 19l-84 323q-2 7 -6.5 9.5t-8.5 0t-6 -9.5z" />
    <glyph glyph-name="uni01CE.sc" horiz-adv-x="1239" 
d="M827 1303q-17 -27 -47 -27h-336q-32 0 -47 27l-116 190q-12 20 -4.5 33.5t30.5 13.5h207q30 0 45 -27l45 -79q5 -8 13 -8t12 8l45 79q15 27 45 27h205q23 0 29.5 -13.5t-5.5 -33.5zM866 0q-34 0 -43 33l-22 88q-3 14 -19 14h-325q-15 0 -19 -14l-22 -88q-9 -33 -43 -33
h-303q-21 0 -30 12t-3 33l356 1106q9 33 43 33h367q34 0 43 -33l356 -1106q6 -21 -3 -33t-30 -12h-303zM524 449q-3 -19 15 -19h161q18 0 15 19l-84 323q-2 7 -6.5 9.5t-8.5 0t-6 -9.5z" />
    <glyph glyph-name="acircumflex.sc" horiz-adv-x="1239" 
d="M629 1395q-4 7 -12.5 7t-12.5 -7l-45 -80q-15 -27 -45 -27h-213q-23 0 -30.5 13.5t5.5 33.5l138 193q16 24 47 24h305q33 0 49 -24l139 -193q13 -20 6 -33.5t-30 -13.5h-211q-30 0 -45 27zM866 0q-34 0 -43 33l-22 88q-3 14 -19 14h-325q-15 0 -19 -14l-22 -88
q-9 -33 -43 -33h-303q-21 0 -30 12t-3 33l356 1106q9 33 43 33h367q34 0 43 -33l356 -1106q6 -21 -3 -33t-30 -12h-303zM524 449q-3 -19 15 -19h161q18 0 15 19l-84 323q-2 7 -6.5 9.5t-8.5 0t-6 -9.5z" />
    <glyph glyph-name="adieresis.sc" horiz-adv-x="1239" 
d="M406 1247q-78 0 -128.5 49.5t-50.5 128.5t50.5 129t128.5 50t126 -49.5t48 -129.5t-48 -129t-126 -49zM829 1247q-79 0 -127.5 49t-48.5 129t48.5 129.5t127.5 49.5t128 -49.5t49 -129.5t-49 -129t-128 -49zM866 0q-34 0 -43 33l-22 88q-3 14 -19 14h-325q-15 0 -19 -14
l-22 -88q-9 -33 -43 -33h-303q-21 0 -30 12t-3 33l356 1106q9 33 43 33h367q34 0 43 -33l356 -1106q6 -21 -3 -33t-30 -12h-303zM524 449q-3 -19 15 -19h161q18 0 15 19l-84 323q-2 7 -6.5 9.5t-8.5 0t-6 -9.5z" />
    <glyph glyph-name="agrave.sc" horiz-adv-x="1239" 
d="M770 1335q10 -22 2 -34.5t-31 -12.5h-243q-28 0 -47 25l-134 176q-14 19 -6.5 33t31.5 14h291q31 0 45 -29zM866 0q-34 0 -43 33l-22 88q-3 14 -19 14h-325q-15 0 -19 -14l-22 -88q-9 -33 -43 -33h-303q-21 0 -30 12t-3 33l356 1106q9 33 43 33h367q34 0 43 -33
l356 -1106q6 -21 -3 -33t-30 -12h-303zM524 449q-3 -19 15 -19h161q18 0 15 19l-84 323q-2 7 -6.5 9.5t-8.5 0t-6 -9.5z" />
    <glyph glyph-name="amacron.sc" horiz-adv-x="1239" 
d="M897 1536q39 0 39 -39v-178q0 -39 -39 -39h-559q-39 0 -39 39v178q0 39 39 39h559zM866 0q-34 0 -43 33l-22 88q-3 14 -19 14h-325q-15 0 -19 -14l-22 -88q-9 -33 -43 -33h-303q-21 0 -30 12t-3 33l356 1106q9 33 43 33h367q34 0 43 -33l356 -1106q6 -21 -3 -33t-30 -12
h-303zM524 449q-3 -19 15 -19h161q18 0 15 19l-84 323q-2 7 -6.5 9.5t-8.5 0t-6 -9.5z" />
    <glyph glyph-name="aogonek.sc" horiz-adv-x="1239" 
d="M1214 0q-4 0 -26 -14q-65 -42 -94.5 -81t-20.5 -67q6 -20 26 -27t46 -1q22 7 33 2.5t14 -25.5l14 -119q3 -36 -24 -47q-41 -16 -89.5 -22.5t-102.5 -1t-98 39.5t-61 95q-38 128 97 248q9 8 7 14t-13 6h-56q-34 0 -43 33l-22 88q-3 14 -19 14h-325q-15 0 -19 -14l-22 -88
q-9 -33 -43 -33h-303q-21 0 -30 12t-3 33l356 1106q9 33 43 33h367q34 0 43 -33l358 -1114q6 -18 8.5 -27.5t1.5 -9.5zM524 449q-3 -19 15 -19h161q18 0 15 19l-84 323q-2 7 -6.5 9.5t-8.5 0t-6 -9.5z" />
    <glyph glyph-name="aring.sc" horiz-adv-x="1239" 
d="M616 1253q-101 0 -170 69.5t-69 170.5q0 100 69 169t170 69t170.5 -69t69.5 -169q0 -101 -69.5 -170.5t-170.5 -69.5zM616 1569q-31 0 -52 -22t-21 -54q0 -31 21 -52.5t52 -21.5t52.5 21.5t21.5 52.5q0 32 -21.5 54t-52.5 22zM866 0q-34 0 -43 33l-22 88q-3 14 -19 14
h-325q-15 0 -19 -14l-22 -88q-9 -33 -43 -33h-303q-21 0 -30 12t-3 33l356 1106q9 33 43 33h367q34 0 43 -33l356 -1106q6 -21 -3 -33t-30 -12h-303zM524 449q-3 -19 15 -19h161q18 0 15 19l-84 323q-2 7 -6.5 9.5t-8.5 0t-6 -9.5z" />
    <glyph glyph-name="atilde.sc" horiz-adv-x="1239" 
d="M545 1350q-38 0 -62 -27q-25 -31 -53 -12l-100 71q-29 19 -17 54q29 75 84 116t121 41q26 0 51.5 -7.5t42.5 -16t45 -25.5q55 -31 95 -31q33 0 55 25q25 31 53 12l103 -71q28 -22 14 -54q-39 -78 -97.5 -116.5t-119.5 -38.5q-64 0 -142 51q-45 29 -73 29zM866 0
q-34 0 -43 33l-22 88q-3 14 -19 14h-325q-15 0 -19 -14l-22 -88q-9 -33 -43 -33h-303q-21 0 -30 12t-3 33l356 1106q9 33 43 33h367q34 0 43 -33l356 -1106q6 -21 -3 -33t-30 -12h-303zM524 449q-3 -19 15 -19h161q18 0 15 19l-84 323q-2 7 -6.5 9.5t-8.5 0t-6 -9.5z" />
    <glyph glyph-name="ae.sc" horiz-adv-x="1757" 
d="M1731 893q0 -39 -39 -39h-494q-16 0 -16 -16v-56q0 -16 16 -16h291q39 0 39 -39v-250q0 -39 -39 -39h-291q-16 0 -16 -16v-76q0 -16 16 -16h494q39 0 39 -39v-252q0 -39 -39 -39h-858q-39 0 -39 39v80q0 16 -17 16h-254q-14 0 -20 -12l-43 -94q-13 -29 -47 -29h-340
q-22 0 -30 12.5t1 32.5l555 1110q16 29 45 29h1047q39 0 39 -39v-252zM657 449q-3 -8 0.5 -13.5t12.5 -5.5h108q17 0 17 16v244q0 12 -7.5 13.5t-11.5 -9.5z" />
    <glyph glyph-name="b.sc" horiz-adv-x="1079" 
d="M913 618q-17 -10 0 -20q127 -79 127 -254q0 -76 -25 -135.5t-68 -98t-105 -64t-130.5 -36t-148.5 -10.5h-481q-39 0 -39 39v1106q0 39 39 39h465q240 0 356.5 -76t116.5 -268q0 -150 -107 -222zM444 854q-16 0 -16 -16v-74q0 -16 16 -16h134q29 0 47 15t18 40
q0 23 -18 37t-47 14h-134zM594 330q28 0 44.5 15.5t16.5 41.5q0 22 -15.5 35.5t-41.5 13.5h-154q-16 0 -16 -16v-74q0 -16 16 -16h150z" />
    <glyph glyph-name="c.sc" horiz-adv-x="1067" 
d="M537 -14q-227 0 -365.5 136.5t-138.5 360.5v222q0 223 138.5 358t365.5 135q226 0 363.5 -127t137.5 -336q0 -17 -37 -20l-307 -21q-18 -1 -29.5 2.5t-11.5 8.5v10q0 69 -32 111t-84 42q-54 0 -86.5 -42t-32.5 -111v-248q0 -68 32.5 -110t86.5 -42q52 0 84 42t32 110
q0 23 41 20l307 -16q37 -3 37 -10v-8q0 -211 -137.5 -339t-363.5 -128z" />
    <glyph glyph-name="cacute.sc" horiz-adv-x="1067" 
d="M408 1303q-23 0 -31 12.5t2 34.5l92 172q14 28 45 28h291q24 0 31 -14t-7 -33l-133 -176q-18 -24 -47 -24h-243zM537 -14q-227 0 -365.5 136.5t-138.5 360.5v222q0 223 138.5 358t365.5 135q226 0 363.5 -127t137.5 -336q0 -17 -37 -20l-307 -21q-18 -1 -29.5 2.5
t-11.5 8.5v10q0 69 -32 111t-84 42q-54 0 -86.5 -42t-32.5 -111v-248q0 -68 32.5 -110t86.5 -42q52 0 84 42t32 110q0 23 41 20l307 -16q37 -3 37 -10v-8q0 -211 -137.5 -339t-363.5 -128z" />
    <glyph glyph-name="ccaron.sc" horiz-adv-x="1067" 
d="M365 1290q-33 0 -48 27l-116 190q-12 20 -4.5 33.5t30.5 13.5h207q31 0 45 -26l45 -80q5 -8 12.5 -8t12.5 8l45 80q14 26 45 26h205q23 0 29.5 -13.5t-5.5 -33.5l-120 -190q-17 -27 -48 -27h-335zM537 -14q-227 0 -365.5 136.5t-138.5 360.5v222q0 223 138.5 358
t365.5 135q226 0 363.5 -127t137.5 -336q0 -17 -37 -20l-307 -21q-18 -1 -29.5 2.5t-11.5 8.5v10q0 69 -32 111t-84 42q-54 0 -86.5 -42t-32.5 -111v-248q0 -68 32.5 -110t86.5 -42q52 0 84 42t32 110q0 23 41 20l307 -16q37 -3 37 -10v-8q0 -211 -137.5 -339t-363.5 -128z
" />
    <glyph glyph-name="ccedilla.sc" horiz-adv-x="1067" 
d="M1038 727q0 -9 -37 -12l-307 -21q-18 -1 -29.5 2.5t-11.5 8.5v10q0 69 -32 111t-84 42q-54 0 -86.5 -42t-32.5 -111v-248q0 -68 32.5 -110t86.5 -42q52 0 84 42t32 110q0 23 41 20l307 -16q37 -3 37 -10v-8q0 -177 -99.5 -298.5t-270.5 -156.5q-20 -3 -6 -21
q99 -105 67 -219q-14 -49 -46 -80.5t-70.5 -43.5t-83 -12.5t-81.5 7t-69 19.5q-28 11 -25 47l15 119q3 21 14 25t33 -3q25 -6 45 1.5t26 27.5q17 51 -94 133q-8 6 -18 8q-159 45 -250.5 171t-91.5 306v222q0 223 138.5 358t365.5 135q226 0 363.5 -127t137.5 -336v-8z" />
    <glyph glyph-name="cdotaccent.sc" horiz-adv-x="1067" 
d="M537 1262q-72 0 -116 44.5t-44 116.5q0 73 44 117.5t116 44.5t114.5 -44t42.5 -118q0 -72 -42.5 -116.5t-114.5 -44.5zM537 -14q-227 0 -365.5 136.5t-138.5 360.5v222q0 223 138.5 358t365.5 135q226 0 363.5 -127t137.5 -336q0 -17 -37 -20l-307 -21q-18 -1 -29.5 2.5
t-11.5 8.5v10q0 69 -32 111t-84 42q-54 0 -86.5 -42t-32.5 -111v-248q0 -68 32.5 -110t86.5 -42q52 0 84 42t32 110q0 23 41 20l307 -16q37 -3 37 -10v-8q0 -211 -137.5 -339t-363.5 -128z" />
    <glyph glyph-name="d.sc" horiz-adv-x="1083" 
d="M82 0q-39 0 -39 39v1106q0 39 39 39h450q226 0 367 -111t141 -289v-385q0 -178 -141 -288.5t-367 -110.5h-450zM428 346q0 -16 16 -16h103q43 0 74 38t34 97v254q0 60 -31 97.5t-79 37.5h-101q-16 0 -16 -16v-492z" />
    <glyph glyph-name="eth.sc" horiz-adv-x="1146" 
d="M596 1184q226 0 367 -111t141 -289v-385q0 -178 -141 -288.5t-367 -110.5h-451q-39 0 -39 39v422q0 16 -12 16h-12q-39 0 -39 39v174q0 39 33 39h14q16 0 16 16v400q0 39 39 39h451zM719 465v254q0 59 -31.5 97t-79.5 38h-100q-16 0 -16 -16v-93q0 -16 16 -16h41
q39 0 39 -39v-174q0 -39 -39 -39h-41q-16 0 -16 -16v-115q0 -16 16 -16h102q43 0 74.5 38t34.5 97z" />
    <glyph glyph-name="dcaron.sc" horiz-adv-x="1083" 
d="M334 1284q-32 0 -47 27l-117 190q-12 20 -4 33.5t31 13.5h206q32 0 46 -26l45 -80q5 -8 12.5 -8t11.5 8l45 80q14 26 45 26h205q23 0 30 -13.5t-5 -33.5l-121 -190q-17 -27 -47 -27h-336zM82 0q-39 0 -39 39v1106q0 39 39 39h450q226 0 367 -111t141 -289v-385
q0 -178 -141 -288.5t-367 -110.5h-450zM428 346q0 -16 16 -16h103q43 0 74 38t34 97v254q0 60 -31 97.5t-79 37.5h-101q-16 0 -16 -16v-492z" />
    <glyph glyph-name="dcroat.sc" horiz-adv-x="1146" 
d="M596 1184q226 0 367 -111t141 -289v-385q0 -178 -141 -288.5t-367 -110.5h-451q-39 0 -39 39v422q0 16 -12 16h-12q-39 0 -39 39v174q0 39 33 39h14q16 0 16 16v400q0 39 39 39h451zM719 465v254q0 59 -31.5 97t-79.5 38h-100q-16 0 -16 -16v-93q0 -16 16 -16h41
q39 0 39 -39v-174q0 -39 -39 -39h-41q-16 0 -16 -16v-115q0 -16 16 -16h102q43 0 74.5 38t34.5 97z" />
    <glyph glyph-name="e.sc" horiz-adv-x="983" 
d="M956 893q0 -39 -38 -39h-474q-16 0 -16 -16v-56q0 -16 16 -16h273q39 0 39 -39v-250q0 -39 -39 -39h-273q-16 0 -16 -16v-76q0 -16 16 -16h474q38 0 38 -39v-252q0 -39 -38 -39h-836q-39 0 -39 39v1106q0 39 39 39h836q38 0 38 -39v-252z" />
    <glyph glyph-name="eacute.sc" horiz-adv-x="983" 
d="M801 1561q24 0 31 -14.5t-7 -33.5l-133 -176q-18 -24 -47 -24h-244q-23 0 -30.5 12.5t2.5 34.5l92 172q15 29 45 29h291zM956 893q0 -39 -38 -39h-474q-16 0 -16 -16v-56q0 -16 16 -16h273q39 0 39 -39v-250q0 -39 -39 -39h-273q-16 0 -16 -16v-76q0 -16 16 -16h474
q38 0 38 -39v-252q0 -39 -38 -39h-836q-39 0 -39 39v1106q0 39 39 39h836q38 0 38 -39v-252z" />
    <glyph glyph-name="ecaron.sc" horiz-adv-x="983" 
d="M741 1327q-17 -27 -47 -27h-336q-32 0 -47 27l-116 191q-12 20 -4.5 33.5t30.5 13.5h207q30 0 45 -27l45 -80q5 -8 12.5 -8t12.5 8l45 80q15 27 45 27h205q23 0 29.5 -13.5t-5.5 -33.5zM956 893q0 -39 -38 -39h-474q-16 0 -16 -16v-56q0 -16 16 -16h273q39 0 39 -39v-250
q0 -39 -39 -39h-273q-16 0 -16 -16v-76q0 -16 16 -16h474q38 0 38 -39v-252q0 -39 -38 -39h-836q-39 0 -39 39v1106q0 39 39 39h836q38 0 38 -39v-252z" />
    <glyph glyph-name="uni0229.sc" horiz-adv-x="983" 
d="M956 893q0 -39 -38 -39h-474q-16 0 -16 -16v-56q0 -16 16 -16h273q39 0 39 -39v-250q0 -39 -39 -39h-273q-16 0 -16 -16v-76q0 -16 16 -16h474q38 0 38 -39v-252q0 -39 -38 -39h-246q-21 0 -8 -20q87 -101 57 -207q-17 -61 -61 -95t-97.5 -39.5t-102 1t-89.5 22.5
q-28 11 -25 47l14 119q3 21 14.5 25t33.5 -3q25 -6 45 1.5t26 27.5q15 46 -67 113q-11 8 -23 8h-307q-39 0 -39 39v1106q0 39 39 39h836q38 0 38 -39v-252z" />
    <glyph glyph-name="ecircumflex.sc" horiz-adv-x="983" 
d="M543 1419q-5 7 -13 7t-12 -7l-45 -80q-14 -26 -45 -26h-213q-23 0 -30.5 13.5t5.5 33.5l138 192q17 25 47 25h305q32 0 49 -25l139 -192q13 -20 6 -33.5t-30 -13.5h-211q-31 0 -45 26zM956 893q0 -39 -38 -39h-474q-16 0 -16 -16v-56q0 -16 16 -16h273q39 0 39 -39v-250
q0 -39 -39 -39h-273q-16 0 -16 -16v-76q0 -16 16 -16h474q38 0 38 -39v-252q0 -39 -38 -39h-836q-39 0 -39 39v1106q0 39 39 39h836q38 0 38 -39v-252z" />
    <glyph glyph-name="edieresis.sc" horiz-adv-x="983" 
d="M319 1272q-78 0 -128 49.5t-50 128.5t50 128.5t128 49.5t126.5 -49.5t48.5 -128.5t-48.5 -128.5t-126.5 -49.5zM743 1272q-79 0 -127.5 49t-48.5 129t48.5 129t127.5 49t128 -49t49 -129t-49 -129t-128 -49zM956 893q0 -39 -38 -39h-474q-16 0 -16 -16v-56q0 -16 16 -16
h273q39 0 39 -39v-250q0 -39 -39 -39h-273q-16 0 -16 -16v-76q0 -16 16 -16h474q38 0 38 -39v-252q0 -39 -38 -39h-836q-39 0 -39 39v1106q0 39 39 39h836q38 0 38 -39v-252z" />
    <glyph glyph-name="edotaccent.sc" horiz-adv-x="983" 
d="M530 1272q-72 0 -115.5 45t-43.5 117q0 73 43.5 117t115.5 44t115 -44t43 -117q0 -72 -43 -117t-115 -45zM956 893q0 -39 -38 -39h-474q-16 0 -16 -16v-56q0 -16 16 -16h273q39 0 39 -39v-250q0 -39 -39 -39h-273q-16 0 -16 -16v-76q0 -16 16 -16h474q38 0 38 -39v-252
q0 -39 -38 -39h-836q-39 0 -39 39v1106q0 39 39 39h836q38 0 38 -39v-252z" />
    <glyph glyph-name="egrave.sc" horiz-adv-x="983" 
d="M684 1360q10 -22 2 -34.5t-31 -12.5h-243q-29 0 -47 24l-134 176q-14 19 -6.5 33.5t31.5 14.5h291q31 0 45 -29zM956 893q0 -39 -38 -39h-474q-16 0 -16 -16v-56q0 -16 16 -16h273q39 0 39 -39v-250q0 -39 -39 -39h-273q-16 0 -16 -16v-76q0 -16 16 -16h474q38 0 38 -39
v-252q0 -39 -38 -39h-836q-39 0 -39 39v1106q0 39 39 39h836q38 0 38 -39v-252z" />
    <glyph glyph-name="emacron.sc" horiz-adv-x="983" 
d="M811 1561q39 0 39 -39v-179q0 -38 -39 -38h-559q-39 0 -39 38v179q0 39 39 39h559zM956 893q0 -39 -38 -39h-474q-16 0 -16 -16v-56q0 -16 16 -16h273q39 0 39 -39v-250q0 -39 -39 -39h-273q-16 0 -16 -16v-76q0 -16 16 -16h474q38 0 38 -39v-252q0 -39 -38 -39h-836
q-39 0 -39 39v1106q0 39 39 39h836q38 0 38 -39v-252z" />
    <glyph glyph-name="eogonek.sc" horiz-adv-x="983" 
d="M956 893q0 -39 -38 -39h-474q-16 0 -16 -16v-56q0 -16 16 -16h273q39 0 39 -39v-250q0 -39 -39 -39h-273q-16 0 -16 -16v-76q0 -16 16 -16h474q38 0 38 -39v-252q0 -39 -38 -39h-300q-11 0 -22 -8q-89 -73 -72 -117q6 -20 26.5 -27.5t45.5 -1.5q22 7 33 3t14 -25l14 -119
q3 -36 -24 -47q-41 -16 -89.5 -22.5t-102 -1t-97.5 39.5t-61 95q-30 109 61 211q13 20 -8 20h-254q-39 0 -39 39v1106q0 39 39 39h836q38 0 38 -39v-252z" />
    <glyph glyph-name="f.sc" horiz-adv-x="962" 
d="M954 893q0 -39 -39 -39h-471q-16 0 -16 -16v-56q0 -16 16 -16h273q39 0 39 -39v-250q0 -39 -39 -39h-273q-16 0 -16 -16v-383q0 -39 -39 -39h-307q-39 0 -39 39v1106q0 39 39 39h833q39 0 39 -39v-252z" />
    <glyph glyph-name="g.sc" horiz-adv-x="1064" 
d="M1036 733q0 -12 -39 -12h-305q-39 0 -39 8v8q0 59 -31.5 95t-84.5 36q-56 0 -87.5 -42.5t-31.5 -129.5v-229q0 -72 32 -112t87 -40q45 0 74 26t38 75q3 18 -16 18h-53q-39 0 -39 39v143q0 39 39 39h417q39 0 39 -39v-139q0 -225 -137 -358t-362 -133q-229 0 -366.5 133
t-137.5 358v232q0 225 137 357t367 132q223 0 361 -127.5t138 -327.5v-10z" />
    <glyph glyph-name="gbreve.sc" horiz-adv-x="1064" 
d="M537 1245q-106 0 -183.5 63t-91.5 158q-3 20 7.5 30.5t29.5 10.5h117q31 0 43 -34q7 -29 28.5 -46.5t49.5 -17.5t48.5 17.5t28.5 46.5q12 34 43 34h117q19 0 29.5 -10.5t9.5 -28.5q-15 -96 -93 -159.5t-183 -63.5zM1036 733q0 -12 -39 -12h-305q-39 0 -39 8v8
q0 59 -31.5 95t-84.5 36q-56 0 -87.5 -42.5t-31.5 -129.5v-229q0 -72 32 -112t87 -40q45 0 74 26t38 75q3 18 -16 18h-53q-39 0 -39 39v143q0 39 39 39h417q39 0 39 -39v-139q0 -225 -137 -358t-362 -133q-229 0 -366.5 133t-137.5 358v232q0 225 137 357t367 132
q223 0 361 -127.5t138 -327.5v-10z" />
    <glyph glyph-name="uni0123.sc" horiz-adv-x="1064" 
d="M1036 733q0 -12 -39 -12h-305q-39 0 -39 8v8q0 59 -31.5 95t-84.5 36q-56 0 -87.5 -42.5t-31.5 -129.5v-229q0 -72 32 -112t87 -40q45 0 74 26t38 75q3 18 -16 18h-53q-39 0 -39 39v143q0 39 39 39h417q39 0 39 -39v-139q0 -225 -137 -358t-362 -133q-229 0 -366.5 133
t-137.5 358v232q0 225 137 357t367 132q223 0 361 -127.5t138 -327.5v-10zM305 -365q-23 0 -31 13t2 35l93 172q14 28 45 28h291q24 0 31 -14t-7 -33l-133 -176q-19 -25 -47 -25h-244z" />
    <glyph glyph-name="gdotaccent.sc" horiz-adv-x="1064" 
d="M537 1262q-72 0 -116 44.5t-44 116.5q0 73 44 117.5t116 44.5t114.5 -44t42.5 -118q0 -72 -42.5 -116.5t-114.5 -44.5zM1036 733q0 -12 -39 -12h-305q-39 0 -39 8v8q0 59 -31.5 95t-84.5 36q-56 0 -87.5 -42.5t-31.5 -129.5v-229q0 -72 32 -112t87 -40q45 0 74 26t38 75
q3 18 -16 18h-53q-39 0 -39 39v143q0 39 39 39h417q39 0 39 -39v-139q0 -225 -137 -358t-362 -133q-229 0 -366.5 133t-137.5 358v232q0 225 137 357t367 132q223 0 361 -127.5t138 -327.5v-10z" />
    <glyph glyph-name="h.sc" horiz-adv-x="1050" 
d="M643 1145q0 39 39 39h307q39 0 39 -39v-1106q0 -39 -39 -39h-307q-39 0 -39 39v381q0 16 -16 16h-183q-16 0 -16 -16v-381q0 -39 -39 -39h-307q-39 0 -39 39v1106q0 39 39 39h307q39 0 39 -39v-363q0 -16 16 -16h183q16 0 16 16v363z" />
    <glyph glyph-name="hbar.sc" horiz-adv-x="1050" 
d="M1167 1112q39 0 39 -39v-178q0 -39 -39 -39h-123q-16 0 -16 -16v-801q0 -39 -39 -39h-307q-39 0 -39 39v381q0 16 -16 16h-183q-16 0 -16 -16v-381q0 -39 -39 -39h-307q-39 0 -39 39v801q0 16 -16 16h-121q-39 0 -39 39v178q0 39 39 39h121q16 0 16 16v17q0 39 39 39h307
q39 0 39 -35v-21q0 -16 16 -16h183q16 0 16 16v17q0 39 39 39h307q39 0 39 -35v-21q0 -16 16 -16h123zM627 766q16 0 16 16v58q0 16 -16 16h-183q-16 0 -16 -16v-58q0 -16 16 -16h183z" />
    <glyph glyph-name="i.sc" horiz-adv-x="471" 
d="M82 0q-39 0 -39 39v1106q0 39 39 39h307q39 0 39 -39v-1106q0 -39 -39 -39h-307z" />
    <glyph glyph-name="iacute.sc" horiz-adv-x="471" 
d="M106 1313q-23 0 -30.5 12.5t2.5 34.5l92 172q14 29 45 29h291q24 0 31 -14.5t-7 -33.5l-133 -176q-18 -24 -47 -24h-244zM82 0q-39 0 -39 39v1106q0 39 39 39h307q39 0 39 -39v-1106q0 -39 -39 -39h-307z" />
    <glyph glyph-name="icircumflex.sc" horiz-adv-x="471" 
d="M-80 1313q-23 0 -30 13.5t6 33.5l137 192q17 25 47 25h305q32 0 49 -25l139 -192q13 -20 6 -33.5t-30 -13.5h-211q-31 0 -45 26l-45 80q-4 7 -12 7t-13 -7l-45 -80q-14 -26 -45 -26h-213zM82 0q-39 0 -39 39v1106q0 39 39 39h307q39 0 39 -39v-1106q0 -39 -39 -39h-307z
" />
    <glyph glyph-name="idieresis.sc" horiz-adv-x="471" 
d="M25 1272q-78 0 -128.5 49.5t-50.5 128.5t50.5 128.5t128.5 49.5t126 -49t48 -129t-48 -129t-126 -49zM449 1272q-79 0 -128 49t-49 129t49 129t128 49t127.5 -49t48.5 -129t-48.5 -129t-127.5 -49zM82 0q-39 0 -39 39v1106q0 39 39 39h307q39 0 39 -39v-1106
q0 -39 -39 -39h-307z" />
    <glyph glyph-name="i.sc.loclTRK" horiz-adv-x="471" 
d="M236 1272q-72 0 -116 45t-44 117q0 73 44 117t116 44t114.5 -43.5t42.5 -117.5q0 -73 -43 -117.5t-114 -44.5zM82 0q-39 0 -39 39v1106q0 39 39 39h307q39 0 39 -39v-1106q0 -39 -39 -39h-307z" />
    <glyph glyph-name="igrave.sc" horiz-adv-x="471" 
d="M389 1360q10 -22 2 -34.5t-31 -12.5h-243q-29 0 -47 24l-133 176q-14 19 -7 33.5t31 14.5h291q30 0 45 -29zM82 0q-39 0 -39 39v1106q0 39 39 39h307q39 0 39 -39v-1106q0 -39 -39 -39h-307z" />
    <glyph glyph-name="ij.sc" horiz-adv-x="1525" 
d="M82 0q-39 0 -39 39v1106q0 39 39 39h307q39 0 39 -39v-1106q0 -39 -39 -39h-307zM981 -14q-224 0 -361 139.5t-137 366.5v16q0 39 39 39h307q39 0 39 -27v-26q0 -80 31 -129.5t82 -49.5q53 0 86 50t33 129v651q0 39 39 39h305q39 0 39 -39v-653q0 -227 -138.5 -366.5
t-363.5 -139.5z" />
    <glyph glyph-name="imacron.sc" horiz-adv-x="471" 
d="M-43 1305q-39 0 -39 38v179q0 39 39 39h559q39 0 39 -39v-179q0 -38 -39 -38h-559zM82 0q-39 0 -39 39v1106q0 39 39 39h307q39 0 39 -39v-1106q0 -39 -39 -39h-307z" />
    <glyph glyph-name="iogonek.sc" horiz-adv-x="483" 
d="M428 31q0 -29 -27 -47q-129 -88 -110 -146q6 -20 25.5 -27t45.5 -1q22 7 33.5 2.5t14.5 -25.5l14 -119q3 -36 -25 -47q-41 -16 -89.5 -22.5t-102 -1t-97.5 39.5t-61 95q-38 129 96 248q9 8 7 14t-13 6h-57q-39 0 -39 39v1106q0 39 39 39h307q39 0 39 -39v-1114z" />
    <glyph glyph-name="j.sc" horiz-adv-x="1054" 
d="M510 -14q-224 0 -361 139.5t-137 366.5v16q0 39 39 39h307q39 0 39 -27v-26q0 -80 31 -129.5t82 -49.5q53 0 86 50t33 129v651q0 39 39 39h305q39 0 39 -39v-653q0 -227 -138.5 -366.5t-363.5 -139.5z" />
    <glyph glyph-name="k.sc" horiz-adv-x="1126" 
d="M82 0q-39 0 -39 39v1106q0 39 39 39h307q39 0 39 -39v-344q0 -11 7.5 -13t13.5 7l227 362q17 27 47 27h334q23 0 30 -13.5t-6 -33.5l-321 -465q-8 -12 -2 -23l334 -602q11 -22 3.5 -34.5t-30.5 -12.5h-338q-31 0 -45 29l-182 350q-4 9 -11 9t-12 -9l-45 -86q-4 -8 -4 -21
v-233q0 -39 -39 -39h-307z" />
    <glyph glyph-name="uni0137.sc" horiz-adv-x="1126" 
d="M82 0q-39 0 -39 39v1106q0 39 39 39h307q39 0 39 -39v-344q0 -11 7.5 -13t13.5 7l227 362q17 27 47 27h334q23 0 30 -13.5t-6 -33.5l-321 -465q-8 -12 -2 -23l334 -602q11 -22 3.5 -34.5t-30.5 -12.5h-338q-31 0 -45 29l-182 350q-4 9 -11 9t-12 -9l-45 -86q-4 -8 -4 -21
v-233q0 -39 -39 -39h-307zM299 -350q-23 0 -31 12.5t2 34.5l92 172q14 29 46 29h290q24 0 31.5 -14.5t-6.5 -33.5l-133 -176q-18 -24 -47 -24h-244z" />
    <glyph glyph-name="l.sc" horiz-adv-x="1007" 
d="M82 0q-39 0 -39 39v1106q0 39 39 39h307q39 0 39 -39v-799q0 -16 16 -16h502q39 0 39 -39v-252q0 -39 -39 -39h-864z" />
    <glyph glyph-name="lacute.sc" horiz-adv-x="1007" 
d="M104 1288q-23 0 -30.5 12.5t2.5 34.5l92 172q14 29 45 29h291q24 0 31 -14t-7 -33l-133 -176q-19 -25 -47 -25h-244zM82 0q-39 0 -39 39v1106q0 39 39 39h307q39 0 39 -39v-799q0 -16 16 -16h502q39 0 39 -39v-252q0 -39 -39 -39h-864z" />
    <glyph glyph-name="lcaron.sc" horiz-adv-x="1007" 
d="M61 1276q-32 0 -47 27l-116 190q-12 20 -4.5 33.5t30.5 13.5h207q30 0 45 -27l45 -79q5 -8 13 -8t12 8l45 79q15 27 45 27h205q23 0 29.5 -13.5t-5.5 -33.5l-121 -190q-17 -27 -47 -27h-336zM82 0q-39 0 -39 39v1106q0 39 39 39h307q39 0 39 -39v-799q0 -16 16 -16h502
q39 0 39 -39v-252q0 -39 -39 -39h-864z" />
    <glyph glyph-name="uni013C.sc" horiz-adv-x="1007" 
d="M82 0q-39 0 -39 39v1106q0 39 39 39h307q39 0 39 -39v-799q0 -16 16 -16h502q39 0 39 -39v-252q0 -39 -39 -39h-864zM244 -350q-23 0 -31 12.5t2 34.5l92 172q15 29 45 29h291q24 0 31.5 -14.5t-6.5 -33.5l-133 -176q-18 -24 -48 -24h-243z" />
    <glyph glyph-name="lslash.sc" horiz-adv-x="1083" 
d="M428 346q0 -16 16 -16h502q39 0 39 -39v-252q0 -39 -39 -39h-864q-39 0 -39 39v227q0 10 -5.5 14t-12.5 -1l-19 -17q-30 -27 -53 2l-103 117q-24 30 5 55l180 156q8 5 8 20v533q0 39 39 39h307q39 0 39 -39v-178q0 -11 7 -13.5t14 4.5l208 183q32 28 56 -2l100 -117
q23 -29 -4 -53l-373 -328q-8 -5 -8 -20v-275z" />
    <glyph glyph-name="m.sc" horiz-adv-x="1251" 
d="M82 0q-39 0 -39 39v1106q0 39 39 39h305q32 0 47 -27l180 -313q5 -8 12.5 -8t12.5 8l178 313q15 27 47 27h305q39 0 39 -39v-1106q0 -39 -39 -39h-307q-39 0 -39 39v588q0 12 -7 13.5t-13 -9.5l-94 -176q-13 -27 -45 -27h-78q-30 0 -45 29l-92 174q-6 11 -13.5 9.5
t-7.5 -13.5v-588q0 -39 -39 -39h-307z" />
    <glyph glyph-name="n.sc" horiz-adv-x="1146" 
d="M82 0q-39 0 -39 39v1106q0 39 39 39h315q31 0 45 -29l258 -504q4 -11 12.5 -9.5t8.5 13.5l-2 490q0 39 39 39h307q39 0 39 -39v-1106q0 -39 -39 -39h-315q-29 0 -45 29l-261 518q-4 11 -12 9.5t-8 -13.5l4 -504q0 -39 -39 -39h-307z" />
    <glyph glyph-name="nacute.sc" horiz-adv-x="1146" 
d="M420 1313q-23 0 -31 12.5t2 34.5l92 172q15 29 45 29h291q24 0 31.5 -14.5t-6.5 -33.5l-133 -176q-18 -24 -47 -24h-244zM82 0q-39 0 -39 39v1106q0 39 39 39h315q31 0 45 -29l258 -504q4 -11 12.5 -9.5t8.5 13.5l-2 490q0 39 39 39h307q39 0 39 -39v-1106q0 -39 -39 -39
h-315q-29 0 -45 29l-261 518q-4 11 -12 9.5t-8 -13.5l4 -504q0 -39 -39 -39h-307z" />
    <glyph glyph-name="ncaron.sc" horiz-adv-x="1146" 
d="M377 1300q-32 0 -47 27l-117 191q-12 20 -4 33.5t31 13.5h206q31 0 46 -27l45 -80q5 -8 12 -8t12 8l45 80q15 27 45 27h205q23 0 30 -13.5t-5 -33.5l-121 -191q-17 -27 -47 -27h-336zM82 0q-39 0 -39 39v1106q0 39 39 39h315q31 0 45 -29l258 -504q4 -11 12.5 -9.5
t8.5 13.5l-2 490q0 39 39 39h307q39 0 39 -39v-1106q0 -39 -39 -39h-315q-29 0 -45 29l-261 518q-4 11 -12 9.5t-8 -13.5l4 -504q0 -39 -39 -39h-307z" />
    <glyph glyph-name="uni0146.sc" horiz-adv-x="1146" 
d="M82 0q-39 0 -39 39v1106q0 39 39 39h315q31 0 45 -29l258 -504q4 -11 12.5 -9.5t8.5 13.5l-2 490q0 39 39 39h307q39 0 39 -39v-1106q0 -39 -39 -39h-315q-29 0 -45 29l-261 518q-4 11 -12 9.5t-8 -13.5l4 -504q0 -39 -39 -39h-307zM338 -350q-23 0 -31 12.5t2 34.5
l92 172q15 29 45 29h291q24 0 31.5 -14.5t-6.5 -33.5l-133 -176q-18 -24 -47 -24h-244z" />
    <glyph glyph-name="eng.sc" horiz-adv-x="1146" 
d="M1065 1184q39 0 39 -39v-1106l-2 -39h-2q-5 -117 -32 -187.5t-93 -114t-167.5 -57.5t-266.5 -10q-39 3 -39 41v242q0 40 43 37q82 -6 119 4t47 47q4 12 -2 21l-265 524q-4 11 -12 9.5t-8 -13.5l4 -504q0 -39 -39 -39h-307q-39 0 -39 39v1106q0 39 39 39h315q31 0 45 -29
l254 -496q4 -11 12.5 -9t8.5 14v155l2 39h2l-2 287q0 39 39 39h307z" />
    <glyph glyph-name="ntilde.sc" horiz-adv-x="1146" 
d="M692 1294q-62 0 -141 52q-44 28 -74 28q-38 0 -61 -26q-26 -32 -54 -13l-100 72q-28 19 -16 53q29 75 84 116.5t121 41.5q26 0 51.5 -7.5t42.5 -16t45 -25.5q55 -31 94 -31q33 0 55 25q26 32 54 12l102 -72q29 -23 4 -69q-38 -69 -94 -104.5t-113 -35.5zM82 0
q-39 0 -39 39v1106q0 39 39 39h315q31 0 45 -29l258 -504q4 -11 12.5 -9.5t8.5 13.5l-2 490q0 39 39 39h307q39 0 39 -39v-1106q0 -39 -39 -39h-315q-29 0 -45 29l-261 518q-4 11 -12 9.5t-8 -13.5l4 -504q0 -39 -39 -39h-307z" />
    <glyph glyph-name="o.sc" 
d="M565 -23q-239 0 -385.5 147t-146.5 388v160q0 236 146.5 381t385.5 145t386 -145t147 -381v-160q0 -241 -146.5 -388t-386.5 -147zM565 307q66 0 107 53.5t41 141.5v174q0 86 -41 139t-107 53t-106.5 -53t-40.5 -139v-174q0 -88 40.5 -141.5t106.5 -53.5z" />
    <glyph glyph-name="oacute.sc" 
d="M436 1303q-23 0 -30.5 12.5t2.5 34.5l92 172q14 28 45 28h291q24 0 31 -14t-7 -33l-133 -176q-18 -24 -47 -24h-244zM565 -23q-239 0 -385.5 147t-146.5 388v160q0 236 146.5 381t385.5 145t386 -145t147 -381v-160q0 -241 -146.5 -388t-386.5 -147zM565 307
q66 0 107 53.5t41 141.5v174q0 86 -41 139t-107 53t-106.5 -53t-40.5 -139v-174q0 -88 40.5 -141.5t106.5 -53.5z" />
    <glyph glyph-name="ocircumflex.sc" 
d="M250 1303q-23 0 -30.5 13.5t5.5 33.5l137 192q17 25 48 25h305q32 0 49 -25l139 -192q13 -20 6 -33.5t-30 -13.5h-211q-31 0 -45 26l-45 80q-4 7 -12 7t-13 -7l-45 -80q-14 -26 -45 -26h-213zM565 -23q-239 0 -385.5 147t-146.5 388v160q0 236 146.5 381t385.5 145
t386 -145t147 -381v-160q0 -241 -146.5 -388t-386.5 -147zM565 307q66 0 107 53.5t41 141.5v174q0 86 -41 139t-107 53t-106.5 -53t-40.5 -139v-174q0 -88 40.5 -141.5t106.5 -53.5z" />
    <glyph glyph-name="odieresis.sc" 
d="M354 1262q-78 0 -128 49.5t-50 128.5t50 128.5t128 49.5t126 -49t48 -129t-48 -129t-126 -49zM778 1262q-79 0 -127.5 49t-48.5 129t48.5 129t127.5 49t127.5 -49t48.5 -129t-48.5 -129t-127.5 -49zM565 -23q-239 0 -385.5 147t-146.5 388v160q0 236 146.5 381t385.5 145
t386 -145t147 -381v-160q0 -241 -146.5 -388t-386.5 -147zM565 307q66 0 107 53.5t41 141.5v174q0 86 -41 139t-107 53t-106.5 -53t-40.5 -139v-174q0 -88 40.5 -141.5t106.5 -53.5z" />
    <glyph glyph-name="ograve.sc" 
d="M719 1350q10 -22 2 -34.5t-31 -12.5h-244q-29 0 -47 24l-133 176q-14 19 -6.5 33t31.5 14h291q31 0 45 -28zM565 -23q-239 0 -385.5 147t-146.5 388v160q0 236 146.5 381t385.5 145t386 -145t147 -381v-160q0 -241 -146.5 -388t-386.5 -147zM565 307q66 0 107 53.5
t41 141.5v174q0 86 -41 139t-107 53t-106.5 -53t-40.5 -139v-174q0 -88 40.5 -141.5t106.5 -53.5z" />
    <glyph glyph-name="ohungarumlaut.sc" 
d="M270 1298q-22 0 -30 12.5t0 32.5l73 173q12 30 45 30h265q22 0 29.5 -12.5t-1.5 -32.5l-88 -174q-16 -29 -45 -29h-248zM657 1298q-22 0 -29 13t3 35l88 172q14 28 45 28h248q22 0 29 -12.5t-3 -34.5l-90 -172q-14 -29 -45 -29h-246zM565 -23q-239 0 -385.5 147
t-146.5 388v160q0 236 146.5 381t385.5 145t386 -145t147 -381v-160q0 -241 -146.5 -388t-386.5 -147zM565 307q66 0 107 53.5t41 141.5v174q0 86 -41 139t-107 53t-106.5 -53t-40.5 -139v-174q0 -88 40.5 -141.5t106.5 -53.5z" />
    <glyph glyph-name="omacron.sc" 
d="M287 1294q-39 0 -39 39v178q0 39 39 39h559q39 0 39 -39v-178q0 -39 -39 -39h-559zM565 -23q-239 0 -385.5 147t-146.5 388v160q0 236 146.5 381t385.5 145t386 -145t147 -381v-160q0 -241 -146.5 -388t-386.5 -147zM565 307q66 0 107 53.5t41 141.5v174q0 86 -41 139
t-107 53t-106.5 -53t-40.5 -139v-174q0 -88 40.5 -141.5t106.5 -53.5z" />
    <glyph glyph-name="oslash.sc" 
d="M918 1100q-5 -12 6 -23q84 -70 129 -173.5t45 -231.5v-160q0 -241 -146.5 -388t-386.5 -147q-96 0 -188 29q-16 3 -21 -10l-57 -111q-14 -28 -45 -28h-100q-22 0 -30 12.5t1 32.5l88 174q5 11 -6 22q-83 70 -128.5 177t-45.5 237v160q0 236 146.5 381t385.5 145
q97 0 189 -29q14 -3 20 11l107 204q15 29 45 29h100q22 0 30.5 -12.5t-1.5 -34.5zM418 520q0 -12 8 -13.5t12 9.5l166 328q6 16 -8 22q-10 2 -31 2q-66 0 -106.5 -53t-40.5 -139v-156zM713 502v151q0 12 -8.5 13.5t-12.5 -9.5l-166 -325q-7 -17 9 -23q10 -2 30 -2
q66 0 107 53.5t41 141.5z" />
    <glyph glyph-name="otilde.sc" 
d="M709 1284q-64 0 -142 51q-45 29 -73 29q-38 0 -62 -27q-25 -31 -53 -12l-100 72q-29 19 -17 53q29 75 84 116.5t121 41.5q26 0 51.5 -7.5t42.5 -16t45 -25.5q55 -31 94 -31q35 0 56 24q26 32 53 13l102 -72q30 -23 4 -70q-38 -69 -93.5 -104t-112.5 -35zM565 -23
q-239 0 -385.5 147t-146.5 388v160q0 236 146.5 381t385.5 145t386 -145t147 -381v-160q0 -241 -146.5 -388t-386.5 -147zM565 307q66 0 107 53.5t41 141.5v174q0 86 -41 139t-107 53t-106.5 -53t-40.5 -139v-174q0 -88 40.5 -141.5t106.5 -53.5z" />
    <glyph glyph-name="oe.sc" horiz-adv-x="1650" 
d="M1624 893q0 -39 -39 -39h-498q-16 0 -16 -16v-56q0 -16 16 -16h297q39 0 39 -39v-250q0 -39 -39 -39h-297q-16 0 -16 -16v-76q0 -16 16 -16h498q39 0 39 -39v-252q0 -39 -39 -39h-860q-39 0 -39 20q0 8 -5 11.5t-13 -0.5q-108 -54 -224 -54q-79 0 -153 35t-131.5 96.5
t-92 153t-34.5 197.5v266q0 104 34.5 194t92 150t131.5 94.5t153 34.5q120 0 224 -49l18 -6v2q0 39 39 39h860q39 0 39 -39v-252zM549 307q62 0 99.5 37t37.5 102v283q0 65 -37.5 102t-99.5 37q-58 0 -94.5 -37t-36.5 -102v-283q0 -65 36.5 -102t94.5 -37z" />
    <glyph glyph-name="p.sc" horiz-adv-x="1054" 
d="M594 1184q197 0 317.5 -113t120.5 -297q0 -179 -126 -288t-331 -109h-135q-16 0 -16 -17v-321q0 -39 -39 -39h-307q-39 0 -39 39v1106q0 39 39 39h516zM551 682q44 0 71 23t27 61q0 40 -27 64t-71 24h-111q-16 0 -16 -16v-140q0 -16 16 -16h111z" />
    <glyph glyph-name="thorn.sc" horiz-adv-x="1042" 
d="M584 985q196 0 316 -109t120 -288q0 -175 -125.5 -282t-329.5 -107h-125q-16 0 -16 -17v-143q0 -39 -39 -39h-307q-39 0 -39 39v1106q0 39 39 39h307q39 0 39 -39v-144q0 -16 16 -16h144zM561 506q34 0 55 20t21 54q0 35 -21 56t-55 21h-121q-16 0 -16 -16v-119
q0 -16 16 -16h121z" />
    <glyph glyph-name="q.sc" horiz-adv-x="1077" 
d="M539 1198q224 0 360.5 -142.5t136.5 -375.5v-207q0 -162 -77 -280.5t-214 -172.5q-12 -3 -12 -18v-92q0 -39 -39 -39h-307q-39 0 -39 39v92q0 15 -12 18q-139 53 -217 171.5t-78 281.5v207q0 233 137 375.5t361 142.5zM426 700v-217q0 -75 31 -121.5t82 -46.5t81.5 46.5
t30.5 121.5v217q0 75 -30.5 121.5t-81.5 46.5t-82 -46.5t-31 -121.5z" />
    <glyph glyph-name="r.sc" horiz-adv-x="1048" 
d="M657 0q-34 0 -47 29l-161 354q-6 12 -13 12q-8 0 -8 -16v-340q0 -39 -39 -39h-307q-39 0 -39 39v1106q0 39 39 39h520q188 0 303 -109t115 -287q0 -117 -52 -205.5t-147 -136.5q-11 -9 -6 -22l197 -377q10 -22 2.5 -34.5t-29.5 -12.5h-328zM547 854h-103q-16 0 -16 -16
v-133q0 -17 16 -17h103q40 0 65 23t25 61q0 37 -25 59.5t-65 22.5z" />
    <glyph glyph-name="racute.sc" horiz-adv-x="1048" 
d="M750 1536q24 0 31 -14t-7 -33l-133 -176q-19 -25 -47 -25h-244q-23 0 -30.5 12.5t2.5 34.5l92 172q14 29 45 29h291zM657 0q-34 0 -47 29l-161 354q-6 12 -13 12q-8 0 -8 -16v-340q0 -39 -39 -39h-307q-39 0 -39 39v1106q0 39 39 39h520q188 0 303 -109t115 -287
q0 -117 -52 -205.5t-147 -136.5q-11 -9 -6 -22l197 -377q10 -22 2.5 -34.5t-29.5 -12.5h-328zM547 854h-103q-16 0 -16 -16v-133q0 -17 16 -17h103q40 0 65 23t25 61q0 37 -25 59.5t-65 22.5z" />
    </font>
</defs>
</svg>
